#TITLE:Zombie;
#SUBTITLE:;
#ARTIST:PURPLE KISS;
#TITLETRANSLIT:;
#SUBTITLETRANSLIT:;
#ARTISTTRANSLIT:;
#CREDIT:;
#BANNER:Zombie.png;
#BACKGROUND:Zombie-bg.png;
#LYRICSPATH:;
#CDTITLE:;
#MUSIC:Zombie.mp3;
#OFFSET:0.660;
#SAMPLESTART:94.460;
#SAMPLELENGTH:15.000;
#SELECTABLE:YES;
#BPMS:0.000=110.020;
#STOPS:;
#BGCHANGES:1.060=Zombie.avi=1.000=0=0=0,
99999=-nosongbg-=1.000=0=0=0 // don't automatically add -songbackground-
;

//---------------dance-single - ----------------
#NOTES:
     dance-single:
     :
     Easy:
     3:
     0.216,0.243,0.088,0.125,0.000:
0000
0000
0000
0000
,
0000
0000
0000
0000
,
0000
0000
0000
0000
,
0001
0000
0001
0000
,
0001
1000
0001
1001
,
0000
1000
0000
0010
,
0000
1000
0010
1000
,
0000
0010
0000
0100
,
0000
0010
0010
0001
,
1001
0001
0100
0001
,
0100
0010
1000
0010
,
1000
0100
1000
0000
,
0001
0100
0010
0000
,
0110
0000
0010
0000
,
1000
0010
0100
0001
,
0001
0000
0100
0000
,
0001
0100
0010
0100
,
0002
1000
0000
1003
,
2000
0001
0000
3001
,
0020
0100
0000
0130
,
0010
0100
0010
0100
0000
0000
0110
0000
,
2002
0000
3003
0000
,
0001
0100
1000
0100
,
0002
0003
0100
0000
,
0010
0100
0010
1000
,
0200
0300
0010
0000
,
0001
0010
0100
1000
,
1100
0000
0010
0000
,
1000
0010
1000
0001
,
0100
0010
0100
0210
,
0310
0010
0100
1000
,
0100
0010
0001
0012
,
0013
0001
0100
0001
,
0010
1000
0010
0000
,
1000
0000
1000
0000
,
0001
0000
0001
0000
,
0010
0000
0010
0000
,
0100
0000
0100
0000
,
1000
0001
1000
0010
,
0100
0010
1000
0100
,
0010
0001
0010
0100
,
2000
0000
0000
0000
,
3001
1000
0001
1000
0002
0000
0000
0000
,
0003
0000
0000
0000
,
1000
0010
0001
0010
,
2000
3000
0010
0000
,
0100
0010
0100
0001
,
0020
0030
0100
0000
,
1000
0100
0010
0001
,
0011
0000
0100
0000
,
0001
0100
0001
1000
,
0010
0100
0010
0120
,
0130
0100
0010
0001
,
0010
0100
1000
2100
,
3100
1000
0010
1000
,
0100
0001
0100
0000
,
0001
0000
0001
0000
,
1000
0000
1000
0000
,
0100
0010
0100
0010
,
0100
0000
0001
2002
,
3003
0000
0000
0000
;

//---------------dance-single - ----------------
#NOTES:
     dance-single:
     :
     Beginner:
     1:
     0.151,0.155,0.037,0.044,0.000:
0000
0000
0000
0000
,
0000
0000
0000
0000
,
0000
0000
0000
0000
,
0000
1000
0000
0001
,
0000
1000
0000
1001
,
0000
0010
0000
0100
,
0000
0010
0000
1000
,
0000
0010
0000
1000
,
0000
0001
0000
0100
,
0000
0001
0000
0001
,
0000
0100
0100
0100
,
0000
0010
0000
1000
,
0000
1000
1000
1000
,
0000
1000
0000
0001
,
0000
0010
0010
0010
,
0000
0100
0000
0010
,
0000
0001
0001
0001
,
0000
0001
0000
0100
,
0000
0001
0000
0100
,
0000
0010
0000
1000
,
0000
1000
1000
1000
,
0000
0000
0220
0330
,
0000
0010
0100
0010
,
0000
1000
0000
1000
,
0000
0001
1000
0001
,
0000
0100
0000
0010
,
0000
0010
0100
0010
,
0000
0100
0000
0010
,
0000
0100
0010
0100
,
0000
1000
0000
0001
,
0000
0001
0100
0001
,
0000
1000
0010
1000
,
0000
0010
0100
0010
,
0000
0100
0010
0100
,
0000
1000
0000
0010
,
0000
1000
0000
0001
,
0000
0100
0000
0001
,
0000
1000
0000
0010
,
0000
0100
0000
0010
,
0000
0100
0000
0010
,
0000
1000
0000
0001
,
0002
0000
0000
0000
,
0003
0001
1000
0001
,
2002
0000
0000
3003
,
0000
0100
0010
0100
,
0000
0001
0000
0001
,
0000
1000
0001
1000
,
0000
0010
0000
0100
,
0000
0100
0010
0100
,
0000
0010
0000
0100
,
0000
0010
0100
0010
,
0000
0001
0000
1000
,
0000
1000
0010
1000
,
0000
0001
0100
0001
,
0000
0100
0010
0100
,
0000
0010
0100
0010
,
0000
0001
0000
0110
,
0000
0001
0000
1001
,
0000
0010
0000
1000
,
0000
0001
0000
2000
,
3000
0000
0000
0000
;

//---------------dance-single - ----------------
#NOTES:
     dance-single:
     :
     Medium:
     7:
     0.357,0.486,0.096,0.162,0.121:
0000
0000
0000
0000
,
0000
0000
0000
0000
,
0000
0000
0000
0000
,
0001
0000
1000
0000
,
1000
0100
0010
0001
0001
0000
1001
0000
,
1000
0000
1000
0000
,
0010
0000
0000
0100
0000
0000
0010
0000
0000
1000
0001
0000
1000
0000
0000
0000
,
0001
0000
0001
0000
,
0100
0000
0000
0010
0000
0000
0100
0000
0100
0010
0000
0100
0000
0010
0000
0000
,
1000
0010
0100
0000
0010
0100
0001
0000
,
0001
0000
0100
0000
0010
0100
0101
0000
,
0010
0100
0010
0000
1000
0100
1000
0000
,
1000
0000
0000
0000
0010
0000
0000
0000
1000
0010
0000
0100
0000
0010
0000
0000
,
1001
0001
1000
0000
0010
0100
0010
0000
,
1000
0100
0010
0000
0100
0010
0001
0000
,
0001
0100
0001
0000
1000
0010
0001
0000
,
1000
0010
1000
0000
0010
0100
0010
0000
,
2000
0100
0100
3100
,
0020
0100
0100
0130
,
0002
0010
0010
0013
,
0001
0010
0100
1000
0010
1000
0010
0000
,
1000
0001
1000
0001
1000
0001
1000
0000
0001
1000
0001
1000
0001
0000
0100
0010
,
0100
0010
1000
0000
0010
1000
0010
0000
,
0100
0010
0100
0000
0010
0000
1000
0000
,
0001
0100
0001
0000
0001
0100
1000
0000
,
1000
0100
0001
0000
0100
0000
0001
0000
,
0001
0010
0001
0010
0001
0000
1000
0100
,
1000
0000
0010
1000
0010
0000
0100
0000
,
1010
0010
0100
1000
,
0100
0010
0000
0100
0000
0010
0000
0100
0000
0000
0000
0000
0220
0000
0000
0000
,
0330
0000
0001
0100
0001
0000
1000
0010
,
1000
0010
0100
0001
0010
0000
0202
0000
,
0303
0000
0010
0100
0010
0000
1000
0001
,
1000
0001
0100
0010
0100
0000
0010
0000
,
1000
0010
1000
0000
,
0001
0100
0010
0000
,
0100
0010
0001
0000
,
1000
0010
0100
2002
,
3003
0000
0001
1000
0001
0000
1000
0001
,
1000
0100
0010
0001
0010
0000
0100
0000
,
0001
0100
0010
1000
,
0020
0000
0200
0030
,
0010
0000
0010
0000
0310
0000
1000
0000
0001
1000
0001
1000
0001
1000
0001
1000
,
0002
0000
0000
0000
0000
0000
0000
0000
0000
0000
0000
0000
1003
0001
1000
0010
,
0100
0010
0001
0000
0100
0001
0100
0000
,
0010
0100
0010
0000
0100
0000
0001
0000
,
1000
0010
1000
0000
1000
0010
0001
0000
,
0001
0010
1000
0000
0010
0000
1000
0000
,
1000
0100
1000
0100
1000
0000
0001
0010
,
0001
0000
0100
0001
0100
0000
0010
0000
,
0101
0100
0010
0001
,
0010
0100
0000
0010
0000
0100
0000
0010
0000
0000
0000
0000
0220
0000
0000
0000
,
0330
0000
1000
0010
1000
0000
0001
0100
,
0001
0100
0010
1000
0100
0000
2020
0000
,
3030
0000
0100
0010
0100
0000
0001
1000
,
0001
1000
0010
0100
0010
0000
2002
0000
,
3003
0000
0100
1000
0100
0000
0010
0001
,
0010
0001
1000
0100
0001
0000
2200
0000
,
3300
0010
0100
0010
,
1000
0001
0000
1000
0000
0010
0000
0100
0000
0000
0000
0000
2002
0000
0000
0000
,
3003
0000
0000
0000
;

//---------------dance-single - ----------------
#NOTES:
     dance-single:
     :
     Hard:
     14:
     0.504,0.552,0.103,0.147,0.519: // measure 1
0000
0000
0000
0000
,  // measure 2
0000
0000
0000
0000
,  // measure 3
0000
0000
0000
0000
,  // measure 4
0010
0100
0010
0100
0000
0000
0000
0000
1000
0001
1000
0001
0000
0000
0000
0000
,  // measure 5
0001
0100
0001
0100
0001
0000
0010
0000
1000
0000
0010
0000
1001
0000
0000
0000
,  // measure 6
0010
1000
0001
1000
0010
0100
0010
0000
0100
0010
0000
0000
1000
0000
0010
0000
,  // measure 7
0100
0000
0000
0010
0000
0000
1000
0000
0000
0001
1000
0000
0001
0000
0000
0000
,  // measure 8
0100
0001
1000
0001
0100
0010
0100
0000
0010
0100
0000
0000
0001
0000
0100
0000
,  // measure 9
0010
0000
0000
0100
0000
0000
0001
0000
1000
0001
0000
1000
0000
0001
0100
0001
,  // measure 10
0010
0100
0001
1000
0010
0001
0010
1000
,  // measure 11
0010
0001
0010
0001
0100
0010
0100
0000
,  // measure 12
0001
0100
0010
1000
0010
0100
0001
0000
1000
0010
0000
0000
0100
0000
0010
0000
,  // measure 13
1000
0000
0010
0000
1000
0000
0001
1000
0010
0100
0000
0010
0000
0100
0001
0100
,  // measure 14
0010
1000
0010
0000
0100
0000
0001
0100
0010
1000
0010
0000
0100
0000
0010
0000
,  // measure 15
1000
0000
0010
0000
0100
0010
0100
0010
1000
0000
0001
0000
0100
0001
0010
0001
,  // measure 16
0100
0000
0010
0000
1000
0001
0100
0001
1000
0010
1000
0000
0010
0000
0100
0010
,  // measure 17
0100
0000
0010
0000
1000
0001
0010
0001
1000
0000
0010
0000
0200
0000
0000
0000
,  // measure 18
0310
0000
0000
0100
0010
1000
0010
0000
0001
0000
0000
1000
,  // measure 19
0001
0100
0001
0010
0001
0100
0010
0000
0000
1000
0000
0000
,  // measure 20
0001
0000
0000
0001
0010
0100
1000
0010
0000
1000
0000
0000
,  // measure 21
1000
0100
0010
0001
0100
0010
1000
0000
,  // measure 22
1000
0010
0100
0001
0100
0010
1000
0000
0000
0000
0010
1000
0000
0010
0000
0000
,  // measure 23
0100
0010
0000
0100
0000
0000
0010
0100
0010
0100
0000
0001
0000
0000
1000
0010
,  // measure 24
0100
0000
0000
0010
0000
0000
1000
0000
0000
0000
0001
0100
0000
0001
0000
0000
,  // measure 25
0100
0001
0100
0001
0000
0000
0010
0000
1000
0010
1000
0010
0000
0000
0100
0010
,  // measure 26
0100
0000
0000
1001
0000
0000
0000
0000
1000
0000
0010
1000
0000
0010
1000
0000
,  // measure 27
0001
0010
0100
1000
0010
0000
1000
0010
,  // measure 28
0100
0000
0010
0001
0010
0100
0010
0001
,  // measure 29
1000
0000
0010
1000
0001
0000
0001
1000
0010
0000
0100
0010
0000
0100
0000
0000
,  // measure 30
0001
0010
0000
0100
0000
1000
0000
0010
0000
0000
0000
0000
2020
0000
0000
0000
,  // measure 31
3030
0000
1000
0100
0010
0000
0100
0001
,  // measure 32
0100
1000
0100
0001
0100
0000
0202
0000
,  // measure 33
0303
0000
0001
0100
0010
0000
0100
0010
,  // measure 34
0100
0001
0010
0001
0100
0000
0001
0000
1000
0000
0000
0000
0010
0000
0000
0000
,  // measure 35
1000
0010
0000
0000
0010
1000
0000
0000
0001
0100
0010
0000
0000
0000
0001
0000
,  // measure 36
0100
0001
0100
0000
0010
0000
1000
0010
1000
0010
0100
0000
0000
0000
0000
0000
,  // measure 37
0110
0000
0000
0000
1001
0000
0000
0000
0100
0010
0100
0000
0000
0000
0000
0000
,  // measure 38
0000
0000
0010
0100
0010
0000
0100
0010
0100
0010
1000
0000
2002
0000
0000
0000
,  // measure 39
3003
0000
0001
0010
0100
0000
0010
0100
,  // measure 40
1000
0100
0010
0100
1000
0000
0001
0000
,  // measure 41
0010
0000
0100
0010
1000
0000
1000
0010
0100
0000
0001
0100
0000
0002
0000
0000
,  // measure 42
0000
0000
0000
0000
2000
0000
0000
3003
,  // measure 43
1001
0000
0001
0000
1000
0000
0010
0000
0100
0010
0100
0010
1000
0001
1000
0001
,  // measure 44
2000
0000
0000
0000
0000
0000
0000
0000
3000
0000
0001
0100
0000
0100
0000
0000
,  // measure 45
0010
0100
0000
0010
0000
0000
0100
0010
0100
0010
0000
1000
0000
0000
0001
0100
,  // measure 46
0010
0000
0000
0100
0000
0000
0001
0000
0000
0000
1000
0010
0000
1000
0000
0000
,  // measure 47
0010
1000
0010
1000
0000
0000
0100
0000
0001
0100
0001
0100
0000
0000
0010
0100
,  // measure 48
0010
0000
0000
1001
0000
0000
0000
0000
0001
0000
0100
0001
0000
0100
0001
0000
,  // measure 49
1000
0100
0010
0001
0100
0000
0001
0100
,  // measure 50
0010
0000
0100
1000
0100
0010
0100
1000
,  // measure 51
0001
0000
0100
0001
1000
0000
1000
0001
0100
0000
0010
0100
0000
0010
0000
0000
,  // measure 52
1000
0100
0000
0010
0000
0001
0000
0100
0000
0000
0000
0000
0202
0000
0000
0000
,  // measure 53
0303
0000
0001
0010
0100
0000
0010
1000
,  // measure 54
0010
0001
0010
1000
0010
0000
2020
0000
,  // measure 55
3030
0000
1000
0010
0100
0000
0010
0100
,  // measure 56
0010
1000
0100
1000
0010
0000
1000
0000
0001
0000
0000
0000
0022
0000
0000
0000
,  // measure 57
0033
0000
0010
1000
0001
0000
1000
0100
,  // measure 58
1000
0010
1000
0100
1000
0000
2200
0000
,  // measure 59
3300
0000
0010
1000
0001
0000
0001
1000
0010
0000
0100
0010
0000
0100
0000
0000
,  // measure 60
0001
0010
0000
0100
0000
1000
0000
0010
0000
0000
0000
0000
2002
0000
0000
0000
,  // measure 61
3003
0000
0000
0000
;
