#TITLE:Zankyosanka;
#SUBTITLE:;
#ARTIST:Aimer;
#TITLETRANSLIT:;
#SUBTITLETRANSLIT:;
#ARTISTTRANSLIT:;
#CREDIT:;
#BANNER:Zankyosanka.png;
#BACKGROUND:Zankyosanka-bg.png;
#LYRICSPATH:;
#CDTITLE:;
#MUSIC:Zankyosanka.mp3;
#OFFSET:0.180;
#SAMPLESTART:48.188;
#SAMPLELENGTH:15.000;
#SELECTABLE:YES;
#BPMS:0.000=171.000,60.000=85.500,100.000=171.000;
#STOPS:;
#BGCHANGES:;

//---------------dance-single - ----------------
#NOTES:
     dance-single:
     :
     Easy:
     5:
     0.307,0.420,0.154,0.121,0.005:
0000
0000
0000
0000
,
0000
0000
0000
0000
,
0000
0000
0000
0000
,
0220
0000
0330
0000
,
0000
0000
0000
0000
,
0000
0000
0000
0000
,
0000
0000
1001
0110
,
1001
0000
0000
0100
0000
0001
0000
1000
,
0000
0010
0000
0100
0000
0010
0000
0000
,
0000
1000
0000
0010
0000
0100
0000
0000
,
0000
0001
0000
0100
0000
0010
0000
0000
,
0101
0000
0000
1000
0000
0100
0000
0010
,
0000
0001
0000
1000
0000
0001
0000
0000
,
0000
0100
0000
0010
0000
1000
0000
0010
,
0000
0001
0000
0010
0000
1000
0000
0000
,
1000
0010
1000
0000
0100
0001
0100
0000
,
0001
0100
0001
0000
1000
0010
0100
0000
,
0010
0100
0010
0000
0100
0100
0001
0000
,
1000
0010
0100
0000
0010
0000
0110
0000
,
0100
0100
0100
0000
0010
0100
0010
0000
,
1000
0010
1000
0000
0001
0100
0010
0000
,
0100
0010
1000
0000
1000
1000
0010
0000
,
0001
0100
0001
0000
0001
0010
0100
0000
,
0002
2003
3020
0230
,
0320
0000
0000
0000
0000
0000
0100
0130
0000
0000
0000
0000
0010
0000
0100
0000
,
0010
1000
0010
0100
,
0010
0100
0101
0000
,
0020
0000
0130
0010
,
2000
0000
3001
0000
,
0001
0010
0001
0000
,
1000
0010
0100
0000
,
1000
0100
0010
0001
,
0001
0000
0001
0100
,
0100
0001
0100
0010
,
0100
0010
1010
0000
,
0200
0000
0310
0100
,
0002
0000
1003
0000
,
1000
0100
1000
0000
,
0001
0100
0010
0000
,
0001
0010
0100
1000
,
0001
1000
1001
0000
,
1000
0100
0010
0001
,
0100
0000
0110
1001
,
0110
0000
0000
0010
0000
1000
0000
0001
,
0000
0100
0000
0010
0000
0100
0000
0000
,
0000
0001
0000
0100
0000
0010
0000
0000
,
0000
1000
0000
0010
0000
0100
0000
0000
,
1010
0000
0000
0001
0000
0010
0000
0100
,
0000
1000
0000
0001
0000
1000
0000
0000
,
0000
0010
0000
0100
0000
0001
0000
0100
,
0000
1000
0000
0100
0000
0001
0000
0000
,
0110
0000
0000
0000
;

//---------------dance-single - ----------------
#NOTES:
     dance-single:
     :
     Beginner:
     3:
     0.220,0.391,0.154,0.143,0.000:
0000
0000
0000
0000
,
0000
0000
0000
0000
,
0000
0000
0000
0000
,
2002
0000
3003
0000
,
0000
0000
0000
0000
,
0000
0000
0000
0000
,
0000
0000
0110
1001
,
0000
0001
0000
0001
,
0000
0100
0000
0100
,
0000
0010
0000
0010
,
0000
1000
0000
1000
,
0000
0001
0000
1000
,
0000
0010
0000
0100
,
0000
0001
0000
0100
,
0000
0000
0000
0000
,
0000
0001
0000
1000
0000
0001
0000
0100
,
0000
0010
0000
1000
0000
0010
0000
0100
,
0000
0010
0000
1000
0000
0001
0000
0100
,
0000
0001
0000
1000
0000
0010
0020
0030
,
1000
1000
1000
0000
0010
0010
0010
0000
,
1000
1000
1000
0000
0001
0001
0001
0000
,
0200
0300
0020
0030
0200
0300
0001
0000
,
1000
0001
1001
0000
,
0002
0003
0020
0030
0200
0300
2000
3000
,
1001
0000
0000
0110
0000
0000
0000
0000
,
0010
0000
0100
0000
,
0001
0000
0001
0000
,
2000
0000
3000
0000
,
0010
0000
0100
0000
,
0110
0000
0100
0000
,
0110
0000
0010
0000
,
0001
0001
0001
0001
,
0002
0000
0003
0000
,
0100
0000
0010
0000
,
1000
0000
1000
0000
,
0002
0000
0003
0000
,
0100
0000
0010
0000
,
0110
0000
0010
0000
,
0110
0000
0100
0000
,
1000
1000
1000
1000
,
1000
1000
1000
0000
,
0010
0000
0100
0000
,
1001
0000
0110
1001
,
0000
1000
0000
1000
,
0000
0010
0000
0010
,
0000
0100
0000
0100
,
0000
0001
0000
0001
,
0000
1000
0000
0001
,
0000
0100
0000
0010
,
0000
1000
0000
0010
,
0000
0000
1000
0000
0000
0000
0000
1001
;

//---------------dance-single - ----------------
#NOTES:
     dance-single:
     :
     Medium:
     8:
     0.438,0.670,0.209,0.231,0.049:
0000
0000
0000
0000
,
0000
0000
0000
0000
,
0000
0000
0000
0000
,
0220
0000
0330
0010
0000
0100
0000
0010
,
0000
1000
0000
0001
0000
0100
0000
0001
,
0100
0000
0000
0001
0000
0000
0001
0000
0000
0000
0100
0000
0000
0000
0010
0000
,
0000
1000
0010
1000
0010
0000
0110
0000
,
1001
0000
0000
1000
0000
0010
0000
0100
,
0000
0010
0000
1000
0000
0001
0000
0000
,
0100
0001
0000
0100
0000
0001
0000
0000
,
0100
0001
0000
0100
0000
0001
0000
0000
,
0101
0000
0000
0010
0000
1000
0000
0010
,
0000
0100
0000
0010
0000
1000
0000
0000
,
0010
1000
0000
0010
0000
0100
0000
0010
,
0000
1000
0000
0001
0000
0100
0000
0000
,
0110
0000
0010
0000
0100
0000
0010
0100
0010
0000
1000
0000
0001
0000
0000
0000
,
0001
0000
1000
0000
0010
0000
1000
0010
0100
0000
0010
0000
0100
0000
0001
0000
,
0110
0000
0100
0000
0010
0000
0100
0010
0100
0000
0001
0000
1000
0000
0010
0000
,
1000
0000
0001
0000
0100
0000
0001
0100
0010
0000
0100
0000
0010
0000
0000
0000
,
1000
0010
1000
0010
1000
0010
1000
0000
,
0001
0100
0010
0100
0001
0100
0010
0000
,
0200
0320
0230
0302
2003
3002
2003
3001
,
2002
3003
0220
0330
2002
3003
0001
0100
,
0001
1000
0010
0100
0010
1000
0010
0100
,
0002
0000
0000
0000
0000
0000
0103
0010
0000
0010
0100
0010
0000
0100
0000
0000
,
0101
0000
0001
0000
0001
0010
1000
0000
,
0010
0000
0100
0000
0010
0000
1000
0010
,
1000
0000
0010
0100
0010
0000
1000
0000
,
0010
0000
0100
0010
0100
0000
0000
0000
,
0010
0100
0001
0000
0010
0001
1000
0000
,
1000
0010
0100
0000
0010
0100
1000
0000
,
2000
3002
2003
3020
,
0230
0000
0000
0310
0000
0110
0000
0000
,
1010
0000
1000
0000
1000
0100
0001
0000
,
0100
0000
0010
0000
0100
0000
0001
0100
,
0001
0000
0100
0010
0100
0000
0001
0000
,
0100
0000
0010
0100
0010
0000
0000
0000
,
0100
0010
1000
0000
0100
1000
0001
0000
,
0001
0100
0010
0000
0100
0000
0010
0000
,
1000
0000
0010
1000
0010
0000
0100
0010
,
0100
0110
0010
0000
,
0010
0001
0100
1000
,
1001
0000
0110
1001
,
1001
0000
0000
0001
0000
0100
0000
0010
,
0000
0100
0000
0001
0000
1000
0000
0000
,
0010
1000
0000
0010
0000
1000
0000
0000
,
0010
1000
0000
0010
0000
1000
0000
0000
,
1010
0000
0000
0100
0000
0001
0000
0100
,
0000
0010
0000
0100
0000
0001
0000
0000
,
0100
0001
0000
0100
0000
0010
0000
0100
,
0000
0001
0000
1000
0000
0010
0000
1010
;

//---------------dance-single - ----------------
#NOTES:
     dance-single:
     :
     Hard:
     13:
     0.554,0.754,0.307,0.231,0.203: // measure 1
0000
0000
0000
0000
,  // measure 2
0000
0000
0000
0000
,  // measure 3
0000
2002
0000
3003
,  // measure 4
0110
0000
0010
0100
0000
0010
0000
1000
,  // measure 5
0000
0010
0000
0100
0000
0001
0000
0100
,  // measure 6
0010
0000
0000
0100
0000
0000
0100
0000
0000
0000
0001
0000
0000
0000
0100
0000
,  // measure 7
0000
0010
1000
0001
0010
1000
0010
0000
,  // measure 8
0110
0000
0010
0100
0000
0010
0000
1000
,  // measure 9
0000
0010
0000
0100
0000
1000
0000
0001
,  // measure 10
0100
0001
0000
0100
0000
0010
0000
0100
,  // measure 11
0010
0100
0000
0010
0000
1000
0000
0000
,  // measure 12
1010
0000
1000
0010
0000
1000
0000
0100
,  // measure 13
0000
0010
0000
0100
0000
1000
0000
0001
,  // measure 14
0100
0001
0000
1000
0000
0010
0000
1000
,  // measure 15
0000
0100
0000
0010
0000
0001
0000
0000
,  // measure 16
0110
0000
0010
0000
0100
0001
0100
0010
1000
0000
0100
0000
1010
0000
0010
0100
,  // measure 17
0010
0000
0100
0000
0001
1000
0001
0100
0010
0000
0110
0000
0100
0000
0101
0000
,  // measure 18
0010
0000
0001
0100
1000
0100
0000
0100
0010
0000
0011
0000
0010
0000
1001
0000
,  // measure 19
1000
0000
0010
0000
0100
0000
0010
1000
0100
0000
0010
1000
0010
0000
1000
0000
,  // measure 20
0010
0000
0100
0000
0010
0000
0100
0010
0100
0010
0100
0000
1010
0100
0010
0100
,  // measure 21
0001
0000
0100
0000
0001
1000
0001
1000
0010
0000
0100
0000
0101
0000
0000
0000
,  // measure 22
0020
0000
0130
0010
2000
0000
3010
1000
0002
0000
0013
0100
2000
0000
3010
1000
,  // measure 23
0010
0000
0100
0010
0100
0000
0010
0100
0010
0000
0000
0100
0001
0000
0010
0000
,  // measure 24
2000
3100
0200
0310
0020
0031
0002
1003
,  // measure 25
2002
0000
0000
0000
3003
0000
1000
0001
0000
0100
0001
0100
1000
0100
0001
0100
,  // measure 26
2000
0000
3010
0100
0010
1000
0001
0100
,  // measure 27
0001
0010
0101
0000
0020
0000
0030
0100
,  // measure 28
0010
0000
0000
0010
0100
0000
0010
0000
,  // measure 29
1000
0000
0010
0100
0010
0000
0100
0000
,  // measure 30
1002
0000
0000
0000
0103
0010
1000
0000
0010
0000
0000
0000
1000
0001
0010
0000
,  // measure 31
0100
0000
0000
0000
1000
0010
0100
0000
0001
0000
0000
0000
0000
0000
1000
0000
,  // measure 32
0100
0010
0100
1000
,  // measure 33
1001
0000
0000
1000
0001
0010
0100
1000
,  // measure 34
0102
0000
0103
0010
0100
0001
1000
0010
,  // measure 35
1000
0100
1010
0000
0200
0000
0300
0010
,  // measure 36
0100
0000
0000
0100
0010
0000
0100
0000
,  // measure 37
0001
0000
0100
0010
0100
0000
0010
0000
,  // measure 38
2010
0000
0000
0000
3010
0100
0001
0000
0100
0000
0000
0000
0001
1000
0100
0000
,  // measure 39
0010
0000
0000
0000
0001
0100
0010
0000
1000
0000
0000
0000
0010
0000
0000
0000
,  // measure 40
1002
0000
0000
0000
1003
0100
1000
0000
0010
0000
0000
0000
0100
0001
1000
0000
,  // measure 41
0010
0100
0220
0330
,  // measure 42
0100
0010
0100
1000
,  // measure 43
0110
0000
1001
0110
,  // measure 44
1001
0000
0100
0010
0000
0100
0000
0001
,  // measure 45
0000
0100
0000
0010
0000
0001
0000
1000
,  // measure 46
0010
1000
0000
0010
0000
0100
0000
0010
,  // measure 47
0100
0010
0000
0100
0000
0001
0000
0000
,  // measure 48
0101
0001
0100
0010
1000
0001
0100
0010
,  // measure 49
1000
0100
1000
0010
0100
0001
0100
1000
,  // measure 50
0010
1000
0001
0100
0010
0100
0010
0001
,  // measure 51
0010
0100
0010
0001
0000
0110
0000
1001
;
