#TITLE:You?;
#SUBTITLE:;
#ARTIST:Ink Waruntorn;
#TITLETRANSLIT:;
#SUBTITLETRANSLIT:;
#ARTISTTRANSLIT:;
#CREDIT:;
#BANNER:You.png;
#BACKGROUND:You-bg.png;
#LYRICSPATH:;
#CDTITLE:;
#MUSIC:You.mp3;
#OFFSET:-0.760;
#SAMPLESTART:93.200;
#SAMPLELENGTH:15.000;
#SELECTABLE:YES;
#BPMS:0.000=120.000;
#STOPS:;
#BGCHANGES:;

//---------------dance-single - ----------------
#NOTES:
     dance-single:
     :
     Beginner:
     1:
     0.165,0.192,0.028,0.014,0.000:
0000
0000
0000
0000
,
0000
0010
0000
0010
,
0000
0100
0000
0100
,
0000
0001
0000
0001
,
0000
1000
0000
1000
,
0000
0001
0000
0001
,
0000
0100
0000
0100
,
0000
0010
0000
0010
,
0000
1000
0000
0000
,
0001
0000
0100
0000
,
0010
0000
0100
0000
,
1001
0000
0100
0000
,
0010
0000
1000
0000
,
0010
0000
0100
0000
,
0001
0000
1000
0000
,
0110
0000
0100
0000
,
0010
0000
0100
0000
,
0001
0100
0001
0000
,
1000
0010
1000
0000
,
0100
0010
0100
0000
,
0010
0100
0010
0000
,
1000
0001
1000
0000
,
0001
0100
0001
0000
,
1000
0100
1000
0000
,
0010
0100
0010
0000
,
1000
1000
1000
0000
,
0100
0100
0100
0000
,
0010
0010
0010
0000
,
0001
0001
0001
0000
,
1000
0001
1000
0000
,
0001
1000
0001
0000
,
1000
0010
1000
0000
,
0001
1000
0001
1000
,
1001
0001
0000
1000
,
0000
0010
0000
1000
,
0000
0001
0000
0100
,
0000
0010
0100
0010
,
0000
1000
0000
0001
,
0000
0100
0000
0010
,
0000
0001
1000
0001
,
0000
0100
0000
0010
,
0000
1000
0000
0001
,
0000
1000
0010
1000
,
0000
0010
0000
0100
,
0000
0010
0000
1000
,
0000
0100
0010
0100
,
0000
0010
0000
0100
,
0000
1000
0001
1000
,
0000
0001
0000
0001
,
0000
0100
0000
0100
,
0000
0100
0010
0100
,
0000
0010
0000
1000
,
0000
1000
0000
0010
,
0000
1000
0001
1000
,
0000
0001
0000
0001
,
0000
1000
0000
1000
,
0000
0010
0000
0010
,
0000
0100
0001
0100
,
0000
0010
0000
1000
,
0000
1000
0000
0001
,
0000
0010
1000
0010
,
0000
0100
0000
0010
,
0000
1000
0000
0001
,
0000
1000
0000
0001
,
0000
1000
0000
0010
,
0000
0100
0000
0001
,
0000
1000
0000
0010
,
0000
0000
1000
0000
0000
0000
0000
2002
,
0000
0000
0000
0000
,
3003
0000
0000
0000
;

//---------------dance-single - ----------------
#NOTES:
     dance-single:
     :
     Easy:
     4:
     0.245,0.287,0.097,0.028,0.000:
0000
0000
0000
0000
,
1000
0001
1000
0001
,
1000
0001
0100
0001
,
1000
0010
1000
0010
,
1000
0100
0010
0001
,
1000
0001
0100
0001
,
1000
0010
0100
0010
,
1000
0001
0100
0001
,
0100
0010
1000
0010
,
1010
0010
1000
0010
,
0100
0001
0100
0001
,
1010
0010
1000
0010
,
0100
0001
0101
0101
,
1010
0010
0100
0010
,
1000
0001
0100
0001
,
0100
0010
0100
0010
,
1000
0010
1000
0001
,
1001
0001
0100
0010
,
1000
0100
1000
0100
,
1000
0001
1000
0001
,
1000
0001
1001
0010
,
0110
0010
1000
0010
,
0100
0001
0100
0001
,
0011
0010
0100
0010
,
1000
0100
1000
0010
,
1000
0010
0000
1000
,
0000
0001
1000
0001
,
1000
0001
0000
0100
,
0000
0010
0100
0010
,
0100
0001
0000
1000
,
0000
0010
0000
0100
,
0000
0001
0000
1000
,
0000
0001
1000
0001
,
1001
0000
0001
0000
,
1000
0010
0001
1000
,
0001
0000
0010
0000
,
1000
0010
0010
1000
,
0001
0000
0100
0000
,
0001
0100
1000
0100
,
0002
0000
1000
0000
,
1003
0010
0100
0010
,
0110
0000
0010
0000
,
1000
0000
0010
0000
,
0100
0010
1000
0100
,
0010
0000
0100
0000
,
0001
0010
0100
1000
,
1000
0100
0010
0001
,
1001
0001
1000
0010
,
1000
0001
1000
0010
,
0100
0010
1000
0001
,
0100
1000
0100
0001
,
1000
0010
0001
0010
,
1000
0010
0100
0010
,
0020
0000
0100
0000
,
0130
0010
0100
0010
,
0110
0010
0001
1000
,
0100
0001
1000
0001
,
0100
0010
0001
1000
,
0100
0010
0001
1000
,
0001
1000
0010
0100
,
0010
0001
0010
0100
,
1000
0010
0000
1000
,
0000
0001
0000
0100
,
0000
0001
0000
1000
,
0000
0010
0000
0100
,
0000
0001
0000
1000
,
0000
0010
0000
1000
,
0000
0000
0001
0000
0000
0000
0000
0220
,
0000
0000
0000
0330
;

//---------------dance-single - ----------------
#NOTES:
     dance-single:
     :
     Medium:
     6:
     0.236,0.335,0.111,0.014,0.000:
0000
0000
0000
0000
,
0001
0100
0001
1000
,
0010
1000
0001
0100
,
0001
1000
0010
0100
,
0001
0010
0100
1000
,
0001
0100
0001
1000
,
0010
1000
0001
1000
,
0010
0100
0001
1000
,
0010
1000
0100
0010
0001
0010
0100
1000
,
1001
0100
0010
0100
,
0001
1000
0010
0100
,
0010
1000
0001
0100
,
0001
1000
0010
1000
,
1010
0010
1000
0001
,
0100
0001
0100
0010
,
0110
0100
0001
1000
,
0010
1000
0001
1000
,
1010
0100
0001
1000
,
0001
1000
0001
0100
,
0101
0010
0100
1000
,
0001
1000
0001
0100
,
0110
0010
1000
0001
,
0100
0001
0100
0010
,
0101
0001
1000
0001
,
1000
0000
0010
0000
1000
0100
0010
0001
,
0101
0001
0000
1000
,
0000
0000
0010
0000
1000
0010
0001
0010
,
1001
0001
0000
1000
,
0000
0010
0100
0010
,
1010
1000
0000
0001
,
0000
0100
0000
0010
,
1000
0100
0010
0001
,
1000
0001
1000
0001
,
1001
0001
0000
0100
,
0000
0010
0000
0100
,
1000
0001
0000
0001
,
0000
1000
0000
0010
,
0010
0100
0000
0010
,
0000
1000
0000
0001
,
1001
0001
0000
0100
,
0000
0001
0010
0100
,
1010
0010
0000
1000
,
0000
0001
0000
0100
,
0001
0010
0000
0100
,
0000
1000
0000
1000
,
0001
1000
0000
0010
,
0000
0100
0010
0100
,
0110
0010
0000
0100
,
0000
0001
0000
1000
,
0001
1000
0000
0010
,
0000
0100
0000
0010
,
0100
0001
0000
0100
,
0000
0010
0000
0001
,
1000
0001
0000
0100
,
0000
0010
0001
0100
,
1001
0001
0000
1000
,
0000
0010
0000
0100
,
0010
0001
0000
0100
,
0000
0010
0000
1000
,
0100
1000
0000
0001
,
0000
0100
0000
0001
,
0100
0010
0000
1000
,
0000
0001
0000
0100
,
0010
0100
0000
0010
,
0000
1000
0000
0010
,
0100
1000
0000
1000
,
0000
0001
0000
0100
,
0001
0000
0100
0000
0000
0000
0000
0220
,
0000
0000
0000
0330
;

//---------------dance-single - ----------------
#NOTES:
     dance-single:
     :
     Hard:
     9:
     0.378,0.405,0.223,0.188,0.017: // measure 1
0000
0000
0000
0000
0000
0000
0000
0100
0001
0000
0001
0100
0000
0010
1000
0000
,  // measure 2
0010
0000
0000
0001
0000
0000
0100
0000
,  // measure 3
0010
0000
1000
0000
0010
0000
0001
1000
,  // measure 4
0010
0000
0000
1000
0000
0000
0010
0000
,  // measure 5
1000
0000
1000
0001
0100
0001
1000
0010
,  // measure 6
1000
0000
0000
0100
0000
0000
0001
0000
,  // measure 7
1000
0000
1000
0000
0100
0000
0010
0001
,  // measure 8
0100
0000
0000
0001
0000
0000
1000
0000
,  // measure 9
1000
0000
0001
1000
0010
1000
0001
1000
,  // measure 10
0001
0100
0010
0100
,  // measure 11
0010
1000
0001
1000
,  // measure 12
1001
0010
0100
0010
,  // measure 13
1000
0000
0010
0100
0010
0000
1000
0000
,  // measure 14
1001
1000
0010
0100
,  // measure 15
0010
1000
0001
0100
,  // measure 16
0101
0000
0001
0000
1000
0000
0010
1000
,  // measure 17
0010
1000
0010
0001
,  // measure 18
0110
0010
1000
0010
,  // measure 19
0100
0001
0100
0001
,  // measure 20
1001
1000
0001
0100
,  // measure 21
0010
1000
0100
1000
,  // measure 22
1010
1000
0001
0100
,  // measure 23
0001
1000
0010
1000
,  // measure 24
1001
0000
0001
0000
0100
0000
0010
0200
,  // measure 25
0000
0000
0310
0000
0000
0000
0000
1000
0010
1000
0010
0000
0100
0000
0001
0000
,  // measure 26
0100
0001
0100
0000
0001
0100
1000
0000
,  // measure 27
0010
1000
0001
0000
0100
0010
0100
0010
,  // measure 28
0100
0010
0100
0000
0001
0100
1000
0000
,  // measure 29
1000
0100
0001
0000
1000
0001
0100
0000
,  // measure 30
0010
0010
0010
0000
1000
0001
1000
0000
,  // measure 31
0100
0010
1000
0000
1000
0010
0001
0000
,  // measure 32
2002
0000
0000
0000
,  // measure 33
3003
1001
1010
0101
,  // measure 34
0110
0000
0010
1000
0010
1000
0010
0000
,  // measure 35
0100
0000
0001
0010
0100
1000
0001
0000
,  // measure 36
1000
0000
0001
0100
0010
0100
0001
0000
,  // measure 37
0100
0000
0010
1000
0010
1000
0001
0000
,  // measure 38
0100
0000
1000
0100
0010
0001
1000
0000
,  // measure 39
1000
0000
1000
0010
0001
0010
1000
0000
,  // measure 40
2002
0000
0000
0000
,  // measure 41
3003
0110
1100
0011
,  // measure 42
1001
0000
0001
1000
0010
1000
0001
0000
,  // measure 43
0100
0000
0010
1000
0010
1000
0010
0000
,  // measure 44
1000
0000
0001
0010
0100
1000
1000
0000
,  // measure 45
0010
0000
0010
0100
0010
1000
0001
0000
,  // measure 46
1000
0000
0100
0010
1000
0001
0010
0000
,  // measure 47
1010
0101
1010
0101
,  // measure 48
0110
0000
0100
0001
0100
0001
0100
0000
,  // measure 49
0010
0000
1000
0100
0010
0001
1000
0000
,  // measure 50
0001
0000
1000
0010
0100
0010
1000
0000
,  // measure 51
0010
0000
0100
0001
0100
0001
1000
0000
,  // measure 52
0010
0000
0001
0010
0100
1000
0001
0000
,  // measure 53
0001
0000
0001
0100
1000
0100
0001
0000
,  // measure 54
1001
0110
1010
0101
,  // measure 55
0101
1100
0101
0110
,  // measure 56
1001
0002
2003
3020
,  // measure 57
0230
0320
2030
3002
,  // measure 58
2003
3020
0230
0320
,  // measure 59
2030
3002
0203
0302
,  // measure 60
2003
3020
0230
0320
,  // measure 61
0230
0000
0000
0300
,  // measure 62
0100
0000
0000
1000
0000
0000
0010
0000
,  // measure 63
0100
0000
0001
0000
0100
0000
1000
0001
,  // measure 64
0100
0000
0000
0001
0000
0000
0100
0000
,  // measure 65
0001
0000
0001
1000
0010
1000
0001
0100
,  // measure 66
0001
0000
0000
0010
0000
0000
1000
0000
,  // measure 67
0001
0000
0001
0000
0010
0000
0100
1000
,  // measure 68
0010
0000
0000
1000
0000
0000
0001
2002
,  // measure 69
0000
0000
3003
0000
;
