#TITLE:You Got Me Crazy;
#SUBTITLE:;
#ARTIST:MAX;
#TITLETRANSLIT:;
#SUBTITLETRANSLIT:;
#ARTISTTRANSLIT:;
#CREDIT:;
#BANNER:You Got Me Crazy.png;
#BACKGROUND:You Got Me Crazy-bg.png;
#LYRICSPATH:;
#CDTITLE:;
#MUSIC:You Got Me Crazy.mp3;
#OFFSET:-0.080;
#SAMPLESTART:29.600;
#SAMPLELENGTH:15.000;
#SELECTABLE:YES;
#BPMS:0.000=128.000;
#STOPS:;
#BGCHANGES:;

//---------------dance-single - ----------------
#NOTES:
     dance-single:
     :
     Easy:
     4:
     0.243,0.286,0.138,0.207,0.000:
0000
0000
0000
0000
,
0000
0000
0000
0000
,
0000
0000
0000
0000
,
0000
0000
0000
0000
,
0002
0000
0003
0000
,
2000
0000
3000
0000
,
0020
0000
0030
0000
,
2002
0000
3003
0000
,
0001
0100
0001
1000
,
0010
1000
0010
0100
,
1000
1000
0001
0001
,
0100
0010
1000
0001
,
0100
0101
0010
1010
,
0010
0100
0001
1000
,
0010
0100
0010
0100
,
0220
0000
0000
0330
,
0010
1000
0020
0030
,
0100
0001
2000
3000
,
0001
0100
0010
0100
,
0002
0000
0003
0000
,
2000
0000
3000
0000
,
0002
0000
0003
0000
,
0100
0010
1000
0001
,
0001
0100
0010
0100
,
1001
0000
0000
0000
,
1000
1000
0001
0001
,
0100
0100
0010
0010
,
0100
0010
1000
0100
,
0101
0000
0001
0100
,
0001
0010
0100
0001
,
1000
0010
1000
0100
,
0010
0001
0100
0100
,
1001
0000
0110
0000
,
1000
0010
1000
0001
,
0100
0001
0100
0010
,
0001
0001
1000
1000
,
0010
0100
0001
1000
,
0010
1010
0100
0101
,
0100
0010
1000
0001
,
0100
0010
0100
0010
,
0220
0000
0330
0000
,
2000
0000
0000
3000
,
0020
0000
0000
0030
,
0002
0000
0000
0000
,
0000
0000
0003
0000
,
0001
0001
0010
0010
,
0100
0100
1000
1000
,
0010
0100
0010
1000
,
2002
0000
3003
0000
,
0010
1000
0010
0100
,
0001
0100
0001
1000
,
0100
0010
1000
0100
,
0010
1000
0001
0100
,
0002
0000
0000
0003
,
2000
0000
0000
3000
,
0002
0000
0000
0003
,
1000
0001
1000
0001
,
1001
0000
0000
0000
,
0001
0101
1000
1010
,
2002
0000
0000
0000
,
0000
0000
3003
0000
;

//---------------dance-single - ----------------
#NOTES:
     dance-single:
     :
     Beginner:
     1:
     0.161,0.208,0.103,0.129,0.000:
0000
0000
0000
0000
,
0000
0000
0000
0000
,
0000
0000
0000
0000
,
0000
0000
0000
0000
,
2000
0000
3000
0000
,
0002
0000
0003
0000
,
0200
0000
0300
0000
,
2002
0000
3003
0000
,
0001
0000
1000
0000
,
0010
0000
0100
0000
,
0010
0000
1000
0000
,
0001
0000
0100
0000
,
0010
0000
1000
0000
,
0010
0000
1000
0000
,
0001
0000
1000
0000
,
2002
0000
3003
0000
,
0000
0110
0000
0010
,
0000
1000
0000
0010
,
0000
0100
0000
0001
,
0000
1000
0000
0001
,
0000
0100
0000
0001
,
0000
1000
0000
0010
,
0000
1000
0000
0010
,
0000
0100
0000
0001
,
2002
0000
0000
3003
,
1001
0000
0010
0000
,
0100
0000
0010
0000
,
1000
0000
0001
0000
,
0101
0000
0010
0000
,
1000
0000
1000
0000
,
0100
0000
0010
0000
,
0001
0000
1000
0000
,
1001
0000
0001
0000
,
0100
0000
0001
0000
,
1000
0000
0010
0000
,
0110
0000
0100
0000
,
0001
0000
1000
0000
,
0001
0000
1000
0000
,
0010
0000
1000
0000
,
0100
0000
1000
0000
,
2002
0000
3003
0000
,
0000
0110
0000
0100
,
0000
0001
0000
0100
,
0000
0010
0000
1000
,
0000
0001
0000
1000
,
0000
0010
0000
1000
,
0000
0001
0000
0100
,
0000
0001
0000
0100
,
0000
0010
0000
1000
,
0000
0001
0000
1000
,
0000
0001
0000
0010
,
0000
0100
0000
1000
,
0000
0010
0000
1000
,
0000
0001
0000
0100
,
0000
0001
0000
1000
,
0000
0010
0000
1000
,
0000
0001
1000
0001
,
2002
0000
0000
3003
,
0010
0000
0100
0000
,
0220
0000
0000
0000
,
0000
0000
0330
0000
;

//---------------dance-single - ----------------
#NOTES:
     dance-single:
     :
     Medium:
     8:
     0.364,0.495,0.250,0.284,0.056:
0000
0000
0000
0000
,
0000
0000
0000
0000
,
0000
0000
0000
0000
,
0000
0000
0000
0000
,
0020
0000
0000
0030
,
0002
0000
0000
0003
,
0200
0000
0000
0300
,
2002
0000
0000
3003
,
1000
0000
0001
0000
1000
0010
0100
0000
,
0001
0000
1000
0000
1000
0001
0010
0000
,
1000
0010
0001
0010
2000
0000
3010
1000
,
0001
0000
0100
0000
0001
0010
0100
0000
,
0001
0101
1000
1010
,
1000
0100
0010
0001
0100
0001
1000
0000
,
0010
1000
0001
0100
0020
0000
0130
0010
,
0220
0000
0000
0330
,
1000
0000
1100
0000
1000
0010
0100
0000
,
0001
0000
0101
0000
0001
0100
0010
0000
,
1000
0010
0100
0000
0001
1000
0001
0000
,
1000
0100
0010
0000
0100
0010
0001
0000
,
2002
0000
3003
0010
,
0202
0000
0303
0010
,
2020
0000
3030
0100
,
2002
0000
0000
3003
,
1001
0000
0000
0100
,
1000
0100
1000
0000
0001
0010
0001
0000
,
1000
0001
1000
0000
0001
0100
0010
0000
,
1010
0100
0101
0010
,
1001
0000
0000
0000
,
0001
0000
0100
0000
0001
0010
0100
0000
,
1000
0000
0010
0000
1000
0001
1000
0000
,
1000
0001
0100
0010
,
0110
0010
0220
0330
,
0001
0000
1000
0000
0001
0100
0010
0000
,
1000
0000
0001
0000
0001
1000
0100
0000
,
0001
0100
1000
0100
0002
0000
0103
0001
,
1000
0000
0010
0000
1000
0100
0010
0000
,
1000
1010
0001
0101
,
0001
0010
0100
1000
2002
3003
0001
1000
,
0010
0000
0000
0000
0100
0000
0000
0020
0030
2000
3000
0000
0001
0000
0000
0000
,
0220
0000
0000
0330
,
0020
0000
0000
0000
,
0000
0000
0000
0000
,
0000
0000
0000
0000
,
0000
0000
0000
0030
,
2000
3000
2000
3000
,
0002
0003
0002
0003
,
0001
1000
0010
1000
0001
0100
0010
1000
,
0010
0000
0010
0000
1000
0000
1000
0001
0000
1000
0001
0000
1001
0000
0000
0000
,
1000
0010
0100
0010
1000
1000
0001
0100
,
0001
0100
0001
1000
0010
0100
0010
1000
,
1000
0001
0100
0000
0001
1000
0010
0000
,
0001
0000
1000
0000
0010
0000
0001
0000
0100
0000
0000
0100
0000
0000
0100
0000
,
0001
0000
0000
0001
0000
0000
0001
0000
0000
0001
0000
0000
0001
0000
1000
0000
,
0010
0000
0000
0010
0000
0000
0010
0000
0000
0010
0000
0000
0010
0000
0001
0000
,
1000
0000
0000
1000
0000
0000
1000
0000
0000
1000
0000
0000
1000
0000
0001
0000
,
0100
0001
1000
0010
0100
0010
1000
0001
,
1001
0000
0000
0010
,
0110
0000
0000
1010
0000
0000
0101
0000
0000
0011
0000
0000
1001
0000
0110
0000
,
2002
0000
0000
0000
,
0000
0000
3003
0000
;

//---------------dance-single - ----------------
#NOTES:
     dance-single:
     :
     Hard:
     13:
     0.501,0.651,0.577,0.155,0.198: // measure 1
0000
0000
0000
0000
,  // measure 2
0000
0000
0000
0000
,  // measure 3
0000
0000
0000
0000
,  // measure 4
0000
0000
0000
0000
,  // measure 5
2000
0000
0000
3000
,  // measure 6
0002
0000
0000
0003
,  // measure 7
2000
0000
0000
3000
,  // measure 8
0220
0000
0000
0330
,  // measure 9
0010
1000
0001
0100
0010
1000
0001
1000
,  // measure 10
0001
0100
1000
0100
0001
1000
1010
0000
,  // measure 11
1000
0010
0100
0010
1000
0001
0100
0001
,  // measure 12
0100
0010
1000
0010
0100
0010
0110
0000
,  // measure 13
2001
3001
0120
0130
,  // measure 14
0010
1000
0100
1000
0100
0010
0001
0000
,  // measure 15
0100
0001
0100
0001
0010
0000
1000
0000
0010
1000
0010
1000
0001
0000
0100
0000
,  // measure 16
1001
0000
0000
0110
0000
0000
1010
0000
0000
0101
0000
0000
1001
0000
0010
0000
,  // measure 17
1001
0000
0001
0000
0100
0000
0010
1000
0000
0000
0000
0000
1000
0000
0010
0000
,  // measure 18
1000
0000
0001
0000
0100
0000
0001
0100
0000
0000
0010
1000
0001
0100
0010
1000
,  // measure 19
0001
0000
0000
0000
1000
0000
0010
0000
0100
0000
0010
0000
1000
0000
0001
1000
,  // measure 20
0000
0000
0001
0000
0100
0000
0010
1000
,  // measure 21
1010
0000
0000
0110
0000
0000
0101
0000
0000
1001
0000
0000
0110
0000
0010
0000
,  // measure 22
0110
0000
0000
1010
0000
0000
1100
0000
0000
1001
0000
0000
0101
0000
0001
0000
,  // measure 23
1001
0000
0000
0011
0000
0000
0110
0000
0000
1100
0000
0000
1010
0000
0010
0000
,  // measure 24
1000
0000
0001
0000
0100
0000
0001
0000
1000
0010
0100
0010
1000
0001
0100
0010
,  // measure 25
0200
0000
0300
0100
,  // measure 26
0010
0010
0100
0000
0010
1000
0010
0000
,  // measure 27
1000
0100
0010
0000
0100
0010
0001
0000
,  // measure 28
0001
0100
0001
0010
0100
1000
0010
0000
,  // measure 29
1001
0000
0000
0000
0010
0000
0000
0000
0010
1000
0010
1000
0001
0100
0001
0100
,  // measure 30
0001
1000
0010
0000
0100
0010
1000
0000
,  // measure 31
1000
0100
0010
0000
0100
0010
0001
0000
,  // measure 32
0001
1000
0001
0000
1000
0010
0100
0000
,  // measure 33
1001
0000
0000
0000
0010
0000
0000
0000
0100
0010
0000
0100
0010
0000
0000
0000
,  // measure 34
0100
0001
1000
0010
0100
0001
1000
0001
,  // measure 35
1000
0010
0001
0010
1000
0001
0101
0000
,  // measure 36
0001
0100
0010
0100
0001
1000
0010
1000
,  // measure 37
0010
0100
0001
0100
0010
0100
0110
0000
,  // measure 38
1002
1003
0210
0310
,  // measure 39
0100
0001
0010
0001
0022
0033
0000
0000
,  // measure 40
1010
0000
0000
0000
0010
0000
0000
1001
0000
1001
0000
0000
0010
0000
0000
0000
,  // measure 41
1010
0000
0000
0110
0000
0000
0101
0000
0000
1001
0000
0000
0110
0000
0100
0000
,  // measure 42
1002
0000
0000
0003
,  // measure 43
2000
0000
0000
3000
,  // measure 44
0020
0000
0000
0030
,  // measure 45
0200
0000
0000
0300
,  // measure 46
0010
1000
0010
1000
,  // measure 47
0001
0100
0001
0100
,  // measure 48
0001
1000
0001
1000
,  // measure 49
0001
0000
1000
0000
0001
0000
1000
0010
0000
0010
0100
0000
0110
0000
0000
0000
,  // measure 50
0010
1000
0010
0100
0001
0100
0001
0010
,  // measure 51
0100
1000
0010
1000
0100
1000
0010
1000
,  // measure 52
0001
0100
1000
0100
0001
0010
0100
0010
,  // measure 53
0001
1000
0100
0010
0100
1000
1001
0000
,  // measure 54
0101
0000
0000
0110
0000
0000
1010
0000
0000
1100
0000
0000
1001
0000
0010
0000
,  // measure 55
1001
0000
0000
0110
0000
0000
0101
0000
0000
0011
0000
0000
1001
0000
0100
0000
,  // measure 56
1001
0000
0000
0110
0000
0000
1001
0000
0000
0101
0000
0000
1010
0000
1000
0000
,  // measure 57
0001
0000
1000
0000
0010
0000
1000
0000
0001
1000
0010
1000
0001
1000
0010
1000
,  // measure 58
0001
0000
0000
1001
,  // measure 59
1001
0000
0000
1001
0000
0000
0110
0000
0000
0110
0000
0000
1001
0000
0110
0000
,  // measure 60
2002
0000
0000
0000
,  // measure 61
0000
0000
3003
0000
;
