#TITLE:Why Not?;
#SUBTITLE:;
#ARTIST:LOONA;
#TITLETRANSLIT:;
#SUBTITLETRANSLIT:;
#ARTISTTRANSLIT:;
#CREDIT:;
#BANNER:Why Not.png;
#BACKGROUND:Why Not-bg.png;
#LYRICSPATH:;
#CDTITLE:;
#MUSIC:Why Not.mp3;
#OFFSET:-0.960;
#SAMPLESTART:39.600;
#SAMPLELENGTH:15.000;
#SELECTABLE:YES;
#BPMS:0.000=128.000;
#STOPS:;
#BGCHANGES:-2.060=Why Not.avi=1.000=0=0=0,
99999=-nosongbg-=1.000=0=0=0 // don't automatically add -songbackground-
;

//---------------dance-single - ----------------
#NOTES:
     dance-single:
     :
     Hard:
     14:
     0.504,0.533,0.046,0.246,0.300: // measure 1
0000
0000
0000
0000
,  // measure 2
0000
0000
0000
0000
,  // measure 3
0000
0000
0000
0000
,  // measure 4
0000
0000
0000
0000
,  // measure 5
1000
0010
0100
0000
0010
0000
0100
0000
0001
0000
0001
0100
0000
0000
0000
0100
,  // measure 6
0001
0100
0001
0000
1000
0000
0001
0000
0100
0000
0010
1000
0000
0000
0000
0000
,  // measure 7
1000
0000
0010
1000
0010
0000
0001
0100
0001
0000
0100
0010
0000
0000
0100
0001
,  // measure 8
0010
0000
1000
0010
0000
0000
0010
1000
0010
0000
0001
0100
0000
0000
0000
0100
,  // measure 9
0001
0100
0010
0000
0100
0000
0010
0000
1000
0000
1000
0010
0000
0000
0000
0010
,  // measure 10
1000
0010
1000
0000
0001
0000
1000
0000
0010
0000
0100
0001
0000
0000
0000
0000
,  // measure 11
0001
0000
0100
0001
0100
0000
1000
0010
1000
0000
0010
0100
0000
0000
0010
1000
,  // measure 12
0100
0000
0001
0100
0000
0000
0100
0001
0100
0000
1000
0010
0000
0000
1000
0000
,  // measure 13
0100
0010
0001
0100
0001
0000
0010
0001
,  // measure 14
0100
1000
0010
1000
0001
0000
0001
0100
,  // measure 15
1000
0100
0001
0010
0100
1000
0010
2000
,  // measure 16
0000
3000
0010
0000
1000
0000
0100
0001
,  // measure 17
0010
0100
1000
0010
1000
0000
0100
1000
,  // measure 18
0010
0001
0100
0001
1000
0000
0000
0010
,  // measure 19
0001
0010
1000
0100
0010
0001
0100
0000
,  // measure 20
0002
0000
0000
0100
0000
0000
0103
0000
0000
0010
0000
0000
1000
0000
0000
0000
,  // measure 21
0200
0000
0010
0000
0000
0000
0020
0000
0300
0000
0031
0000
0100
0000
0010
1000
,  // measure 22
0002
0000
0000
0000
0023
0000
0000
0000
0130
0000
1000
0010
0000
0100
0001
0000
,  // measure 23
0000
0000
0010
0000
1000
0000
0001
0100
0000
0000
0000
0000
1001
0000
0000
0000
,  // measure 24
2000
0000
0000
0000
3020
0000
0000
0000
1030
0000
0010
0100
0000
0010
1000
0000
,  // measure 25
0000
0000
0001
0000
1000
0000
1000
0010
0000
0000
1000
0000
0010
0000
0100
0000
,  // measure 26
2000
0000
0000
0000
3200
0000
0000
0000
1300
0000
0010
0100
0000
0100
0001
0000
,  // measure 27
0000
0000
0100
0000
0010
0000
0100
0010
0000
0000
1000
0100
0010
0001
0100
0000
,  // measure 28
0020
0000
0000
0000
0230
0000
0000
0000
0310
0000
0001
1000
0000
1000
0001
0000
,  // measure 29
0000
0000
1000
0000
0010
0000
0100
0001
0000
0000
0101
0000
1010
0000
0000
0000
,  // measure 30
0200
0000
0300
0100
0010
0000
1000
0010
,  // measure 31
0100
0000
0001
0000
0100
0000
0010
0000
1000
0000
0000
0000
0001
0000
1000
0001
,  // measure 32
2000
0000
3000
0100
1000
0000
1000
0100
,  // measure 33
0010
0000
0001
0000
0100
0000
0010
0000
1000
0000
0000
0010
0000
0000
0100
0000
,  // measure 34
0010
0100
0001
0000
0010
0000
0100
0010
,  // measure 35
1000
0000
0001
0000
0100
0000
0010
0000
1000
0000
0010
0000
1000
0000
1000
0010
,  // measure 36
0100
0001
0100
0000
0010
0000
0100
0010
,  // measure 37
0001
0000
0010
0000
0100
0000
0010
0000
0001
0000
0000
0100
0000
0000
0100
0000
,  // measure 38
0010
0000
0100
0010
,  // measure 39
1000
0010
0000
0000
0001
0100
0000
0010
,  // measure 40
0100
0010
0000
0000
0010
1000
0000
1000
,  // measure 41
0001
0000
0100
0000
0000
0000
0000
0000
0001
0000
0000
0010
0000
0000
0100
0000
,  // measure 42
0001
0000
1000
0010
0100
0010
1000
0000
,  // measure 43
0001
0100
0000
0000
1000
0010
0000
0100
,  // measure 44
0010
0100
0000
0000
0100
0001
0000
0001
,  // measure 45
1000
0000
0010
0000
0000
0000
0000
0000
1000
0000
0000
0100
0000
0000
0010
0000
,  // measure 46
1000
0000
0000
0000
0000
0000
0000
0000
0000
0000
1000
0000
0010
0000
1000
0010
,  // measure 47
2000
0000
0000
0000
3200
0000
0000
0000
0310
0000
0001
0100
0000
0010
1000
0000
,  // measure 48
0000
0000
0100
0000
0001
0000
1000
0010
0000
0000
0000
0000
1001
0000
0000
0000
,  // measure 49
0002
0000
0000
0000
0203
0000
0000
0000
0301
0000
0100
0010
0000
0100
0001
0000
,  // measure 50
0000
0000
1000
0000
0001
0000
0001
0100
0000
0000
0001
0000
0100
0000
0010
0000
,  // measure 51
0002
0000
0000
0000
0023
0000
0000
0000
0031
0000
0100
0010
0000
0010
1000
0000
,  // measure 52
0000
0000
0010
0000
0100
0000
0010
0100
0000
0000
0001
0010
0100
1000
0010
0000
,  // measure 53
0200
0000
0000
0000
0320
0000
0000
0000
0130
0000
1000
0001
0000
0001
1000
0000
,  // measure 54
0000
0000
0001
0000
0100
0000
0010
1000
0000
0000
1000
0000
0001
0000
1000
0001
,  // measure 55
2000
0000
0000
0000
3002
0000
0000
0000
0013
0000
0100
0001
0000
0010
1000
0000
,  // measure 56
0000
0000
0001
0000
0100
0000
1000
0010
0000
0000
0000
0000
1100
0000
0000
0000
,  // measure 57
0200
0000
0000
0000
0302
0000
0000
0000
0103
0000
0001
0010
0000
0001
0100
0000
,  // measure 58
0000
0000
1000
0000
0100
0000
0100
1000
0000
0000
0100
0000
0001
0000
0010
0000
,  // measure 59
0200
0000
0000
0000
0320
0000
0000
0000
0130
0000
0001
0010
0000
0010
0001
0000
,  // measure 60
0000
0000
0010
0000
0001
0000
0010
0001
0000
0000
1000
0100
0010
0001
1000
0000
,  // measure 61
0002
0000
0000
0000
0023
0000
0000
0000
0031
0000
1000
0100
0000
0100
1000
0000
,  // measure 62
0000
0000
0100
0000
0001
0000
0010
1000
0010
0000
1000
0000
0100
0000
0010
0000
,  // measure 63
0020
0000
0030
0010
0001
0000
0100
0001
,  // measure 64
0010
1000
0010
0001
0100
0000
1000
0000
,  // measure 65
0200
0000
0300
0010
0100
0000
0100
0010
,  // measure 66
0001
1000
0010
0001
0100
0000
0001
0000
,  // measure 67
1001
0000
0000
0000
;

//---------------dance-single - ----------------
#NOTES:
     dance-single:
     :
     Medium:
     7:
     0.348,0.330,0.023,0.246,0.000:
0000
0000
0000
0000
,
0000
0000
0000
0000
,
0000
0000
0000
0000
,
0000
0000
0000
0000
,
0100
0010
0100
0000
0010
1000
0001
0000
,
1000
0010
0100
0000
0010
0100
0001
0000
,
1000
0010
0001
0000
0001
0100
1000
0000
,
1000
0001
1000
0000
0001
1000
0001
0000
,
0010
0100
0010
0000
0100
0001
1000
0000
,
0001
0100
0010
0000
0100
0010
1000
0000
,
0001
0100
1000
0000
1000
0010
0001
0000
,
0001
1000
0001
0000
1000
0001
1000
0000
,
0010
0001
0100
0001
,
1000
0010
1000
0001
,
0100
0001
1000
0010
,
2010
0000
3000
0000
,
1000
0100
0010
0001
,
0100
0010
1000
0001
,
0100
0001
0100
0001
,
0021
0000
0030
0000
,
0100
0100
0000
0000
0000
0000
0000
0000
,
2000
0000
3020
0000
1030
0010
0001
0000
,
0100
0000
0001
0000
0001
0100
0001
0000
,
2000
0000
3002
0000
1003
0010
1000
0000
,
0010
0000
0100
0000
0001
1000
0010
0000
,
0200
0000
0320
0000
0130
0010
0100
0000
,
0001
0000
1000
0000
1000
0100
0010
0000
,
0002
0000
0023
0000
0130
1000
0010
0000
,
1000
0000
0001
0000
1000
0010
0100
0000
,
0002
0000
0003
0010
0001
0000
0000
0100
,
0010
0100
0010
0100
0010
0000
0000
0000
,
2000
0000
3000
0100
1000
0000
0000
1000
,
0001
1000
0001
1000
0001
0000
0000
0000
,
0010
0100
0001
0000
0100
0001
1000
0000
,
1000
0001
1000
0000
0010
0100
0010
0000
,
0001
1000
0001
0000
0001
0010
0100
0000
,
0010
0100
1000
0000
1000
0010
0001
0000
,
0200
0000
0020
0000
,
0330
0000
0000
0000
1000
0000
0000
0010
,
1000
0000
0000
0000
0100
0000
0000
0100
,
0010
0000
0000
0000
0100
0000
0000
0001
,
0100
0000
1000
0010
,
1000
0000
0000
0000
0001
0000
0000
0100
,
0001
0000
0000
0000
0010
0000
0000
0010
,
0100
0000
0000
0000
0010
0000
0000
1000
,
0010
0000
0000
0100
,
0002
0000
0203
0000
0301
0100
1000
0000
,
0010
0000
1000
0000
1000
0010
1000
0000
,
0002
0000
2003
0000
3001
0100
0001
0000
,
0100
0000
0010
0000
1000
0001
0100
0000
,
0020
0000
0230
0000
0310
0100
0010
0000
,
1000
0000
0001
0000
0001
0010
0100
0000
,
2000
0000
3200
0000
0310
0001
0100
0000
,
0001
0000
1000
0000
0001
0100
0010
0000
,
0200
0000
0302
0000
0103
0001
1000
0000
,
0010
0000
1000
0000
1000
0010
1000
0000
,
0200
0000
2300
0000
3100
0001
0100
0000
,
0001
0000
0010
0000
1000
0100
0001
0000
,
0020
0000
0032
0000
0013
0001
0010
0000
,
1000
0000
0100
0000
0100
0010
0001
0000
,
2000
0000
3002
0000
0013
0100
0001
0000
,
0100
0000
1000
0000
0100
0001
0010
0000
,
2000
0000
3000
0001
1000
0000
0000
0010
,
0001
0010
0001
0010
0001
0000
0000
0000
,
0200
0000
0300
0010
0100
0000
0000
0100
,
1000
0100
1000
0100
1000
0000
0010
0000
,
0110
0000
0000
0000
;

//---------------dance-single - ----------------
#NOTES:
     dance-single:
     :
     Easy:
     4:
     0.258,0.279,0.100,0.300,0.000:
0000
0000
0000
0000
,
0000
0000
0000
0000
,
0000
0000
0000
0000
,
0000
0000
0000
0000
,
0010
0100
0010
0001
,
1000
0010
0100
0001
,
1000
0001
1000
0010
,
2000
3010
0002
0103
,
0100
0010
0100
1000
,
0001
0100
0010
1000
,
0001
1000
0001
0100
,
0002
0103
2000
3010
,
0100
0100
0010
0000
,
0001
0001
0100
0000
,
1000
0010
0010
0000
,
0100
0001
1000
0000
,
0010
1000
0001
0000
,
1000
0010
0001
0000
,
0001
1000
0010
0000
,
0100
0010
1000
0002
,
0003
0000
0000
0010
,
0210
0320
0030
1000
,
0010
0100
0001
0000
,
0102
2003
3000
1000
,
0010
0100
0001
0000
,
0012
0023
0030
0100
,
1000
0010
0100
0000
,
2010
3020
0030
0100
,
0010
1000
0001
0000
,
0200
0300
2000
3000
,
0100
0001
1000
0000
,
0020
0030
0002
0003
,
0100
0010
1000
0000
,
0001
0001
1000
1000
,
0010
0100
0010
1000
,
1000
0010
0100
0001
,
1000
0010
1000
0001
,
2000
0000
0002
0000
,
3003
0000
0100
0000
,
0010
0000
1000
0000
,
0001
0000
0100
0000
,
0001
0000
1000
0000
,
0010
0000
1000
0000
,
0010
0000
0100
0000
,
0010
0000
1000
0000
,
0001
0000
0000
0000
,
0120
0230
0300
0001
,
0100
0010
1000
0000
,
2010
3002
0003
0001
,
0100
0010
1000
0000
,
2100
3200
0300
0010
,
0001
0100
0010
0000
,
0102
0203
0300
0010
,
0100
0001
1000
0000
,
0102
0203
0300
0010
,
0100
0001
1000
0000
,
2001
3020
0030
0010
,
0100
0001
1000
0000
,
2100
3200
0300
0001
,
0010
0100
0001
0000
,
0120
0230
0300
0001
,
0100
0010
1000
0000
,
0002
0003
0020
0030
,
0001
1000
0010
0000
,
0200
0300
2000
3000
,
0001
0100
0010
0000
,
1001
0000
0000
0000
;

//---------------dance-single - ----------------
#NOTES:
     dance-single:
     :
     Beginner:
     2:
     0.165,0.152,0.038,0.015,0.000:
0000
0000
0000
0000
,
0000
0000
0000
0000
,
0000
0000
0000
0000
,
0000
0000
0000
0000
,
0000
0010
0000
0100
,
0000
0010
0000
0100
,
0000
0001
0000
1000
,
0000
1000
0000
0001
,
0000
0010
0000
0001
,
0000
1000
0000
0100
,
0000
0010
0000
0100
,
0000
1000
0000
0010
,
0000
0100
0100
0100
,
0000
0010
0010
0010
,
0000
1000
1000
1000
,
0000
0001
0001
0001
,
0000
1000
1000
1000
,
0000
0100
0100
0100
,
0000
0001
0001
0001
,
0002
0000
0000
0003
,
0001
0000
0001
0000
,
1001
0000
0100
0000
,
0010
0000
0001
0000
,
1000
0000
0010
0000
,
1000
0000
0010
0000
,
0100
0100
0000
0010
,
0000
0010
0000
1000
,
0000
1000
0000
0001
,
0000
0001
0000
0100
,
0000
0100
0010
0100
,
0000
0010
0100
0010
,
0000
1000
0001
1000
,
0000
0001
1000
0001
,
0000
0001
0000
0100
,
0000
0010
0000
1000
,
0000
1000
0010
1000
,
0000
0010
0100
0010
,
0000
0000
0020
0000
,
0030
0000
0100
0000
,
0001
0000
0100
0000
,
0001
0000
1000
0000
,
0010
0000
1000
0000
,
0010
0000
0100
0000
,
0010
0000
1000
0000
,
0001
0000
0100
0000
,
1001
0000
0000
0000
,
1001
0000
0010
0000
,
0100
0000
1000
0000
,
0001
0000
0100
0000
,
0001
0000
0100
0000
,
0010
0010
0000
0100
,
0000
0100
0000
0001
,
0000
0001
0000
1000
,
0000
1000
0000
0010
,
0000
0010
0100
0010
,
0000
0100
0010
0100
,
0000
0001
1000
0001
,
0000
1000
0001
1000
,
0000
1000
0000
0010
,
0000
0100
0000
0001
,
0000
0001
0100
0001
,
0000
0100
0010
0100
,
0000
0010
0000
0110
,
0000
0100
0100
0100
,
0000
0001
0000
1001
,
0000
1000
1000
1000
;
