#TITLE:What Are We Waiting For?;
#SUBTITLE:;
#ARTIST:Ally Brooke & Afrojack;
#TITLETRANSLIT:;
#SUBTITLETRANSLIT:;
#ARTISTTRANSLIT:;
#CREDIT:;
#BANNER:What Are We Waiting For.png;
#BACKGROUND:What Are We Waiting For-bg.png;
#LYRICSPATH:;
#CDTITLE:;
#MUSIC:What Are We Waiting For.mp3;
#OFFSET:-0.340;
#SAMPLESTART:96.300;
#SAMPLELENGTH:15.000;
#SELECTABLE:YES;
#BPMS:0.000=110.000;
#STOPS:;
#BGCHANGES:;

//---------------dance-single - ----------------
#NOTES:
     dance-single:
     :
     Easy:
     5:
     0.202,0.288,0.104,0.096,0.000:
0000
0000
0000
0000
,
0000
0000
0000
0000
,
0000
0000
0000
0000
,
0000
0000
0000
0000
,
0001
0101
1000
1010
,
1000
0001
0002
0023
,
0230
1300
0000
1000
,
0000
0010
0000
0010
,
2000
3100
0002
0013
,
1000
0010
2000
3002
,
2003
3001
0000
0100
,
0000
0010
0000
1000
,
1000
1000
1000
1010
,
0001
0001
0001
0101
,
0010
0010
0010
0110
,
0100
0100
0100
1001
,
0001
0100
0010
0100
,
1000
0010
0001
0010
,
2010
3000
0102
0003
,
0000
0010
0000
0200
,
0310
0010
0010
0100
,
0000
0001
1000
0001
,
0000
0100
0010
0001
,
0000
0010
0000
1000
,
0000
0100
0100
0010
,
0000
1000
0001
1000
,
0000
0010
0100
1000
,
0000
0100
0000
0001
,
0000
0001
0000
0001
,
0000
1000
0000
0010
,
0000
0100
0000
0010
,
0000
1000
0000
0010
,
0000
0100
0000
0001
,
0000
1000
0000
0010
,
0000
1000
0000
0100
,
0000
1000
0000
0001
,
1000
1010
0001
0101
,
0001
1000
1000
0100
,
0010
0001
1000
0001
,
0010
0100
1000
0100
,
0002
0013
2000
3100
,
0001
0100
0001
1000
,
0001
1000
0100
0010
,
0100
0010
1000
0001
,
0000
0110
1001
0110
,
0000
1000
0001
1000
,
0000
0010
0100
1000
,
0000
0100
0000
0001
,
0000
0010
0010
0100
,
0000
0001
1000
0001
,
0000
0100
0010
0001
,
0000
0010
0000
1000
,
0000
1000
0000
1000
,
0000
0001
0000
0100
,
0000
0010
0000
0100
,
0000
0001
0000
0100
,
0000
0010
0000
1000
,
0000
0001
0000
0100
,
0000
0001
0000
0010
,
0000
0001
1000
1001
;

//---------------dance-single - ----------------
#NOTES:
     dance-single:
     :
     Beginner:
     2:
     0.149,0.199,0.059,0.000,0.000:
0000
0000
0000
0000
,
0000
0000
0000
0000
,
0000
0000
0000
0000
,
0000
0000
0000
0000
,
0000
0100
0000
0010
,
0000
0100
0000
0010
,
0000
1000
0000
1000
,
0000
0001
0000
0100
,
0000
0001
0000
0010
,
0000
0001
0000
0100
,
0000
0010
0000
1000
,
0000
0010
0000
1000
,
0000
0100
0100
0100
,
0000
0010
0010
0010
,
0000
0001
0001
0001
,
0000
1000
1000
1000
,
0000
0001
0001
0001
,
0000
0100
0100
0100
,
0000
0010
0010
0010
,
0000
0010
0000
0100
,
0000
0001
1000
0001
,
0000
0100
0010
0100
,
0000
0010
1000
0010
,
0000
0100
0001
0100
,
0000
0001
0010
0001
,
0000
1000
0010
1000
,
0000
1000
0001
1000
,
0000
0101
0000
1010
,
0000
0010
0000
0100
,
0000
0010
0000
0100
,
0000
0001
0000
1000
,
0000
0010
0000
1000
,
0000
0001
0000
0100
,
0000
0010
0000
0100
,
0000
0001
0000
1000
,
0000
0010
0000
1000
,
0000
0100
0000
1000
,
0000
0001
0000
0010
,
0000
0001
0000
0100
,
0000
0010
0000
0110
,
0000
0010
0000
0100
,
0000
0010
0000
1000
,
0000
0100
0000
1000
,
0000
0001
0000
0010
,
0000
1001
1001
1001
,
0000
0010
0100
0010
,
0000
0100
0001
0100
,
0000
0010
1000
0010
,
0000
1000
0100
1000
,
0000
0001
0100
0001
,
0000
0001
1000
0001
,
0000
1010
0000
0101
,
0000
0100
0000
0010
,
0000
0100
0000
0001
,
0000
1000
0000
0010
,
0000
1000
0000
0010
,
0000
1000
0000
0100
,
0000
0010
0000
0001
,
0000
1000
0000
0001
,
0000
1000
0000
0010
;

//---------------dance-single - ----------------
#NOTES:
     dance-single:
     :
     Medium:
     7:
     0.222,0.265,0.089,0.030,0.000:
0000
0000
0000
0000
,
0000
0000
0000
0000
,
0000
0000
0000
0000
,
0000
0000
0000
0000
,
1000
0010
1000
0010
0100
0000
0000
0000
,
0001
0010
0100
1000
0010
0000
0000
0000
,
1000
0001
0100
0001
1000
0000
0000
0000
,
0001
0100
1000
0100
0001
0000
0000
0000
,
0001
0100
0001
0100
0010
0000
0000
0000
,
1000
0100
0010
0001
0100
0000
0000
0000
,
0001
1000
0010
1000
0001
0000
0000
0000
,
1000
0010
0001
0010
1000
0000
0000
0000
,
0001
0100
0001
0000
,
0010
1000
0010
0100
,
0020
0030
0100
0001
,
2000
3000
0001
0100
,
1000
0010
1000
0000
,
0100
0001
0100
0010
,
0200
0300
0010
1000
,
0002
0003
1000
0010
,
0100
0010
0100
0010
1000
0000
0010
0000
,
1000
0100
0010
0001
1000
0000
0001
0000
,
0000
0100
0000
0110
,
0000
1010
0000
1001
,
0001
0100
0010
0100
0001
0000
0100
0000
,
0010
0001
0100
1000
0010
0000
1000
0000
,
0000
0010
0000
1001
,
0000
0110
0000
1001
,
0000
0001
0100
0001
,
0000
0010
1000
0010
,
0000
0100
0010
0100
,
0000
0001
0010
0001
,
0000
1000
0010
0001
,
0000
0001
0010
1000
,
0000
1000
0001
1000
,
0000
0001
1000
0001
,
0000
0100
0000
0010
,
0000
1000
0000
0001
,
0000
0001
0000
0010
,
0000
0100
0000
1000
,
0000
0010
0000
0100
,
0000
0001
0000
1000
,
0000
0010
0000
0100
,
0000
0001
0000
1000
,
1000
0100
0001
0100
1000
0000
0100
0000
,
0001
0010
0100
1000
0001
0000
1000
0000
,
0000
0010
0000
0110
,
0000
0101
0000
1001
,
1000
0010
0100
0010
1000
0000
0010
0000
,
0100
1000
0010
0001
0100
0000
0001
0000
,
0000
0100
0000
1001
,
0000
0110
0000
1001
,
0000
1000
0010
1000
,
0000
0100
0001
0100
,
0000
0010
0100
0010
,
0000
1000
0100
1000
,
0000
0001
0100
1000
,
0000
1000
0100
0001
,
0000
0001
1000
0001
,
0000
1000
0001
1000
;

//---------------dance-single - ----------------
#NOTES:
     dance-single:
     :
     Hard:
     13:
     0.446,0.443,0.281,0.148,0.285: // measure 1
0000
0000
0000
0000
,  // measure 2
0000
0000
0000
0000
,  // measure 3
0000
0000
0000
0000
,  // measure 4
0000
0000
0000
0000
,  // measure 5
0001
0000
0100
0001
0100
0000
0010
0000
0100
0000
0000
0000
0010
0000
0000
0000
,  // measure 6
0100
0010
2000
3200
,  // measure 7
0320
0000
0000
0000
0031
0000
0000
0000
1000
0000
0001
1000
0000
0010
0000
0100
,  // measure 8
0000
0101
0002
0203
,  // measure 9
1300
0000
0010
1000
0010
0000
0100
0000
0010
0000
0000
0000
0100
0000
0000
0000
,  // measure 10
0010
0100
0002
0023
,  // measure 11
0230
0000
0000
0000
1300
0000
0000
0000
0001
0000
1000
0001
0000
0100
0000
0010
,  // measure 12
0000
0000
1010
0000
2000
0000
3020
1000
,  // measure 13
2030
0000
3010
0000
0010
0000
0010
0100
,  // measure 14
0020
0000
0130
0000
0100
0000
0010
1000
,  // measure 15
0002
0000
1003
0000
0001
0000
1000
0001
,  // measure 16
2000
0000
3010
0000
0100
0000
0010
0100
,  // measure 17
0020
0000
0130
0000
0100
0000
0010
0100
,  // measure 18
2000
0000
3010
0000
0100
0000
0001
0100
,  // measure 19
0000
0000
0001
0000
1000
0010
0001
0010
,  // measure 20
2000
3000
2000
3000
2000
3000
2000
3000
,  // measure 21
1000
0001
1000
0000
0010
0000
0100
0000
0010
0000
0000
0000
0101
0000
0000
0001
,  // measure 22
1000
0001
1000
0000
0010
0000
1000
0000
0001
0000
0000
0000
1001
0000
0000
0000
,  // measure 23
0001
0100
0010
0000
0100
0000
1000
0000
0010
0000
0000
0000
1100
0000
0000
0000
,  // measure 24
1000
0000
0000
0100
0000
0000
0010
0000
0001
0000
0000
0010
0000
0100
0000
0000
,  // measure 25
0001
1000
0001
0000
0100
0000
0010
0000
0100
0000
0000
0000
1010
0000
0000
1000
,  // measure 26
0001
1000
0001
0000
0100
0000
0001
0000
1000
0000
0000
0000
1001
0000
0000
0000
,  // measure 27
1000
0010
0100
0000
0010
0000
0001
0000
0100
0000
0000
0000
0011
0000
0000
0000
,  // measure 28
0001
0000
0000
0010
0000
0000
0100
0000
1000
0000
0000
0100
0000
0010
0000
0000
,  // measure 29
1000
0001
1000
0000
0001
0000
1000
0000
0001
0000
0000
0000
0010
0000
0000
0000
,  // measure 30
0001
1000
0001
0000
1000
0000
0001
0000
1000
0000
0000
0000
0010
0000
0000
0000
,  // measure 31
1000
0100
0010
0000
1000
0000
0010
0000
1000
0000
0000
0000
0010
0000
0000
0000
,  // measure 32
0110
0000
0000
1001
0000
0000
0110
0000
1010
0000
0000
0101
0000
1010
0000
0000
,  // measure 33
0001
1000
0001
0000
1000
0000
0001
0000
1000
0000
0000
0000
0100
0000
0000
0000
,  // measure 34
1000
0001
1000
0000
0001
0000
1000
0000
0001
0000
0000
0000
0100
0000
0000
0000
,  // measure 35
0001
0010
0100
0000
0001
0000
0100
0000
0001
0000
0000
0000
0100
0000
0000
0000
,  // measure 36
0110
0000
0000
1001
0000
0000
0110
0000
0101
0000
0000
1010
0000
0101
0000
0000
,  // measure 37
0001
0100
0010
0000
0100
0000
0001
0000
1000
0000
0010
1000
0000
0000
0000
0000
,  // measure 38
1000
0010
0100
0000
0010
0000
1000
0000
0001
0000
1000
0010
0000
0000
0000
0000
,  // measure 39
1000
0010
0100
0000
0010
0000
1000
0000
0001
0000
0100
0001
0000
0000
0000
0000
,  // measure 40
0001
0100
0010
0000
0100
0000
0001
0000
1000
0000
0001
0100
0000
0000
0000
0000
,  // measure 41
0010
1000
0010
0000
0010
0000
1000
0000
0010
0000
0100
0001
0000
0000
0000
0000
,  // measure 42
0010
0100
0001
0000
0100
0000
0010
0000
1000
0000
0010
1000
0000
0000
0000
0000
,  // measure 43
0100
0001
0100
0000
0100
0000
0001
0000
0100
0000
0010
1000
0000
0000
0000
0000
,  // measure 44
0001
0000
0000
0100
0000
0000
0010
0000
0100
0000
0000
0010
0000
0100
0000
0000
,  // measure 45
0001
1000
0001
0000
0100
0000
0010
0000
0100
0000
0000
0000
1010
0000
0000
1000
,  // measure 46
0001
1000
0001
0000
0100
0000
0001
0000
1000
0000
0000
0000
1001
0000
0000
0000
,  // measure 47
1000
0010
0100
0000
0010
0000
0001
0000
0100
0000
0000
0000
0011
0000
0000
0000
,  // measure 48
0001
0000
0000
0010
0000
0000
0100
0000
1000
0000
0000
0100
0000
0010
0000
0000
,  // measure 49
1000
0001
1000
0000
0010
0000
0100
0000
0010
0000
0000
0000
0101
0000
0000
0001
,  // measure 50
1000
0001
1000
0000
0010
0000
1000
0000
0001
0000
0000
0000
1001
0000
0000
0000
,  // measure 51
0001
0100
0010
0000
0100
0000
1000
0000
0010
0000
0000
0000
1100
0000
0000
0000
,  // measure 52
1000
0000
0000
0100
0000
0000
0010
0000
0001
0000
0000
0010
0000
0100
0000
0000
,  // measure 53
0001
1000
0001
0000
1000
0000
0001
0000
1000
0000
0000
0000
0100
0000
0000
0000
,  // measure 54
1000
0001
1000
0000
0001
0000
1000
0000
0001
0000
0000
0000
0100
0000
0000
0000
,  // measure 55
0001
0010
0100
0000
0001
0000
0100
0000
0001
0000
0000
0000
0100
0000
0000
0000
,  // measure 56
0110
0000
0000
1001
0000
0000
0110
0000
0101
0000
0000
1010
0000
0101
0000
0000
,  // measure 57
1000
0001
1000
0000
0001
0000
1000
0000
0001
0000
0000
0000
0010
0000
0000
0000
,  // measure 58
0001
1000
0001
0000
1000
0000
0001
0000
1000
0000
0000
0000
0010
0000
0000
0000
,  // measure 59
1000
0100
0010
0000
1000
0000
0010
0000
1000
0000
0000
0000
0010
0000
0000
0000
,  // measure 60
0110
0000
0000
1001
0000
0000
0110
0000
1010
0000
0000
0101
0000
1010
0000
0000
;
