#TITLE:Wee Woo;
#SUBTITLE:;
#ARTIST:PRISTIN;
#TITLETRANSLIT:;
#SUBTITLETRANSLIT:;
#ARTISTTRANSLIT:;
#CREDIT:;
#BANNER:Wee Woo.png;
#BACKGROUND:Wee Woo-bg.png;
#LYRICSPATH:;
#CDTITLE:;
#MUSIC:Wee Woo.mp3;
#OFFSET:-0.080;
#SAMPLESTART:101.600;
#SAMPLELENGTH:15.000;
#SELECTABLE:YES;
#BPMS:0.000=130.000;
#STOPS:112.000=1.840
;
#BGCHANGES:;

//---------------dance-single - ----------------
#NOTES:
     dance-single:
     :
     Easy:
     5:
     0.251,0.309,0.214,0.074,0.000:
0000
0000
0000
0000
,
0000
0000
0000
0000
,
0000
0000
0000
0000
,
0000
0000
0000
0000
,
0000
0000
0000
0000
,
1001
0001
0100
0001
,
0100
0010
1000
0000
,
1000
0010
0100
0001
,
1001
0110
1001
0000
,
0101
0010
1000
0010
,
0001
0000
0100
0000
,
0001
0100
1000
0100
,
0001
0000
0010
0000
,
0110
1000
0010
0001
,
0100
0000
0010
0000
,
1010
0100
0010
1000
,
0001
0000
0100
0000
,
0000
0010
0001
0010
,
0001
0000
0010
0100
,
0000
1000
0100
0010
,
1000
0000
0010
1000
,
0000
0100
0000
0100
,
0000
0001
1000
0010
,
0000
0100
0000
0001
,
0000
0100
0010
0001
,
0001
0100
0001
1000
,
0010
1000
0100
1000
,
1010
0000
1000
0001
,
1001
0110
1001
0010
,
0000
0010
0000
1000
,
0000
0100
1000
0100
,
1000
0010
0100
0010
,
0101
1010
0101
0010
,
0000
0100
0000
0010
,
0000
0100
1000
0100
,
1000
0001
1000
0010
,
1000
0100
0010
0001
,
0001
0000
0011
0000
,
0001
0010
0100
1000
,
1000
0000
1100
0000
,
1000
0001
1000
0001
,
1000
0000
0110
0000
,
0010
0001
0100
1000
,
0010
0000
1001
0000
,
2000
0000
3020
0000
,
2030
0000
3200
0000
,
1300
0010
1000
0010
,
0100
0001
0010
0001
,
0002
0000
0203
0000
,
0302
0000
0023
0000
,
0031
0100
0001
0100
,
0001
0010
1000
0010
,
0001
1000
0010
2002
,
0000
0000
0000
3003
,
1001
0110
1001
0100
,
0000
0100
0000
0001
,
0000
0010
0001
0010
,
0001
0100
0010
0100
,
1010
0101
1010
0100
,
0000
0010
0000
0100
,
0000
0010
0001
0010
,
0001
1000
0001
0100
,
0001
0010
0100
1000
,
1000
0000
1100
0000
,
1000
0100
0010
0001
,
0001
0000
0011
0000
,
0001
1000
0001
1000
,
0001
0000
0110
0000
,
0100
1000
0010
0001
,
0100
0000
0000
0110
;

//---------------dance-single - ----------------
#NOTES:
     dance-single:
     :
     Beginner:
     2:
     0.160,0.206,0.030,0.007,0.000:
0000
0000
0000
0000
,
0000
0000
0000
0000
,
0000
0000
0000
0000
,
0000
0000
0000
0000
,
0000
0000
0000
0000
,
0000
1000
0000
1000
,
0000
0001
0000
0001
,
0000
0100
0000
0010
,
0000
0100
0010
0110
,
0000
0100
0000
0010
,
0000
1000
0000
0010
,
0000
0100
0000
0100
,
0000
0010
0000
1000
,
0000
0100
0000
0001
,
0000
0100
0000
1000
,
0000
0010
0000
0100
,
0000
0001
0000
0100
,
0000
0001
0000
0010
,
0000
1000
1000
1000
,
0000
0010
0000
0010
,
0000
0100
0100
0100
,
0000
0100
0000
0001
,
0000
0100
0000
0010
,
0000
1000
0000
1000
,
0000
0010
0000
0100
,
0000
0001
0000
0100
,
0000
0010
0000
1000
,
0000
0001
0000
0100
,
0110
0010
0010
0010
,
0000
0100
0100
0100
,
0000
0010
0000
1000
,
0000
0100
0000
1000
,
0000
0001
0001
0001
,
0000
1000
1000
1000
,
0000
0001
0000
1000
,
0000
0001
0000
0100
,
0000
0010
0010
0010
,
0000
1000
0000
0100
,
0000
0100
0100
0100
,
0000
0001
0000
1000
,
0000
0001
0001
0001
,
0000
1000
0000
0001
,
0000
1000
1000
1000
,
0000
0010
0000
1001
,
0000
0000
0010
0000
,
1000
0000
0010
0000
,
0100
0000
0001
0000
,
0100
0000
0010
0000
,
1000
0000
1000
0000
,
0001
0000
0100
0000
,
0001
0000
1000
0000
,
0010
0000
0100
0000
,
0001
0000
1000
2000
,
0000
0000
0000
3000
,
0000
0100
0100
0100
,
0000
0010
0010
0010
,
0000
0100
0000
0001
,
0000
0010
0000
0001
,
0000
1000
1000
1000
,
0000
0001
0001
0001
,
0000
1000
0000
0001
,
0000
1000
0000
0010
,
0000
0100
0100
0100
,
0000
0001
0000
0010
,
0000
0010
0010
0010
,
0000
1000
0000
0001
,
0000
1000
1000
1000
,
0000
0001
0000
1000
,
0000
0001
0001
0001
,
0000
0000
0000
1001
;

//---------------dance-single - ----------------
#NOTES:
     dance-single:
     :
     Medium:
     7:
     0.338,0.361,0.177,0.059,0.000:
0000
0000
0000
0000
,
0000
0000
0000
0000
,
0000
0000
0000
0000
,
0000
0000
0000
0000
,
0000
0000
0000
0000
,
0001
0100
0001
1000
,
0010
1000
0001
0010
,
0001
1000
0100
1000
,
0110
1001
0110
0000
,
0000
0000
0100
1000
0010
0000
0100
0010
,
1000
0010
0100
0001
,
0000
0000
0010
0000
0100
0001
0010
0000
,
0100
1000
0010
1001
,
1000
0010
1000
0010
0000
0100
0001
0100
,
0001
0010
0100
0000
,
1010
1000
0010
1000
,
0010
0000
1000
0100
0001
0000
0110
0000
,
0000
0000
0001
0000
0100
0001
0100
0000
,
0010
1000
0010
0000
0100
0000
0100
0000
,
0000
0000
1000
0000
0010
1000
0010
0000
,
0100
0010
0001
0000
0001
0000
0001
0100
,
0010
0000
0010
0100
0001
0000
0001
0100
,
0001
0100
0001
1000
0010
1000
0000
0000
,
1000
0010
0100
0000
0100
0010
1000
0000
,
1000
0010
1000
0010
1000
0001
0100
0000
,
1000
1000
0100
0100
,
0010
0000
0010
0000
0001
0000
0001
1000
,
0001
0000
0100
0010
0100
0001
1000
0000
,
1010
1001
0110
0010
,
0100
0010
0100
0000
0100
0010
1000
0000
,
1000
0100
0010
0001
,
0100
0010
0210
0300
,
0011
0110
1100
1000
,
0100
1000
0001
0000
1000
0001
1000
0000
,
0100
1000
0001
0010
,
0001
0000
1001
0000
0010
0100
0010
0000
,
1000
0100
1000
0001
,
0100
0000
0001
0000
0100
0010
1000
0000
,
1000
0100
0010
0001
,
0100
0000
0001
0000
1000
0001
1000
0000
,
0100
0010
1000
0100
,
0001
0000
0100
0000
0010
0100
0001
0000
,
0010
0100
0001
0100
,
1000
0000
0000
0000
0001
0010
0100
0000
,
2000
0000
0000
0010
3010
0000
0000
0000
,
0002
0000
0000
0100
0103
0000
0000
0000
,
0020
0000
0000
0001
0031
0000
0000
0000
,
0020
0000
0000
1000
1030
0000
0000
0000
,
1000
0010
0100
0010
1000
0000
0001
0000
,
0100
0001
0101
0000
,
0001
0010
1000
0000
1000
0000
0010
0000
,
1000
0100
0010
0000
0100
0000
0010
0000
,
0001
1000
0001
0000
1000
0000
2002
0000
,
0000
0000
0000
3003
,
0110
1001
0110
0100
,
0010
0100
0010
0000
0010
0100
0001
0000
,
0001
0010
0100
1000
,
0010
0100
0120
0030
,
1100
0110
0011
0001
,
0010
0001
1000
0000
0001
1000
0001
0000
,
0010
0001
1000
0100
,
1000
0000
1001
0000
0100
0010
0100
0000
,
0001
0010
0001
1000
,
0010
0000
1000
0000
0010
0100
0001
0000
,
0001
0010
0100
1000
,
0010
0000
1000
0000
0001
1000
0001
0000
,
0010
0100
0001
0010
,
1000
0000
0010
0000
0100
0010
1000
0000
,
0100
0010
1000
0010
,
0001
0000
0000
0000
1000
0100
0010
0001
;

//---------------dance-single - ----------------
#NOTES:
     dance-single:
     :
     Hard:
     12:
     0.424,0.464,0.162,0.059,0.162: // measure 1
0000
0000
0000
0000
,  // measure 2
0000
0000
0000
0000
,  // measure 3
0000
0000
0000
0000
,  // measure 4
0000
0000
0000
0000
,  // measure 5
0000
0000
0000
0000
0000
0000
0000
0000
0100
0010
0100
0010
0000
0000
0100
0000
,  // measure 6
0001
0000
0000
0000
0100
0000
0000
0000
0010
0000
0000
0000
1000
0000
0000
0010
,  // measure 7
0000
1000
0000
0000
1000
0100
0010
0000
,  // measure 8
1000
0010
0100
0001
,  // measure 9
0101
0000
0110
0000
1010
0000
0010
1000
,  // measure 10
0000
0000
0100
0010
0001
0010
0100
0001
,  // measure 11
0010
0100
0000
0000
1000
0010
1000
0010
,  // measure 12
1000
0000
1000
0010
0001
0010
1000
0000
,  // measure 13
0001
0100
0010
0100
0001
0010
0001
0000
,  // measure 14
0001
0000
0010
0000
0100
0000
0010
0000
0000
0000
1000
0010
1000
0010
1000
0000
,  // measure 15
0010
0100
0000
0000
1000
0100
0010
0001
,  // measure 16
0011
0000
0001
0010
1000
0010
0001
0000
,  // measure 17
1000
0100
0001
0100
1000
0000
1001
0000
,  // measure 18
1000
0000
0010
0000
1000
0000
0010
0000
0100
0000
0001
0100
0001
0000
0100
0000
,  // measure 19
0010
0000
0000
0010
0001
0010
0001
0000
,  // measure 20
0100
0010
1000
0010
0100
0001
0100
0010
,  // measure 21
1000
0000
0000
1000
0100
0010
0001
0000
,  // measure 22
0000
0000
0000
0000
0100
0000
0010
0100
0010
0000
0000
0000
0010
0000
1000
0000
,  // measure 23
0010
1000
0010
0001
0100
0001
0000
0000
,  // measure 24
1000
0000
0010
1000
0001
0000
0000
0000
0100
0000
0001
1000
0010
0000
0000
0000
,  // measure 25
0001
0010
0100
1000
0010
1000
0000
0000
,  // measure 26
0001
0000
0000
0000
0001
0000
0010
0000
0001
0000
0010
0001
0000
0000
0100
0010
,  // measure 27
0100
0000
0010
0100
0000
0000
1000
0100
1000
0000
0010
1000
0000
0000
0010
0000
,  // measure 28
1001
0000
1000
0010
0001
0010
1000
0000
,  // measure 29
1001
0000
1010
0000
0101
0000
0001
0100
,  // measure 30
0000
0100
0001
0000
0010
0000
0000
0000
1000
0000
0100
0000
0010
0000
0000
0000
,  // measure 31
1000
0010
0000
0010
1000
0000
0010
1000
,  // measure 32
0010
0100
0001
0100
0001
0000
0101
0000
,  // measure 33
1010
0000
0011
0000
1100
0000
0100
1000
,  // measure 34
0000
1000
0100
0000
0001
0000
0000
0000
0010
0000
0001
0000
0100
0000
0000
0000
,  // measure 35
0010
1000
0100
0000
0010
0000
1000
0010
,  // measure 36
0000
0000
1000
0000
0000
0000
0000
0000
1000
0010
1000
0010
0000
0000
0100
0000
,  // measure 37
0001
0000
0000
0000
0100
0000
0000
0000
0010
0000
0000
0000
1000
0000
0000
0010
,  // measure 38
0000
0000
1000
0000
0000
0000
0000
0000
0010
0100
0010
0100
0000
0000
0010
0000
,  // measure 39
0000
0000
0000
0000
0100
0000
0000
0000
0010
0000
0000
0000
1000
0000
0000
0001
,  // measure 40
0000
0000
0001
0000
0000
0000
0000
0000
0001
0100
0001
0100
0000
0000
0001
0000
,  // measure 41
0000
0000
0000
0000
1000
0000
0000
0000
0010
0000
0000
0000
0100
0000
0000
0010
,  // measure 42
0000
0000
1000
0000
0000
0000
0000
0000
1000
0001
1000
0001
0000
0000
0100
0000
,  // measure 43
0000
0000
0000
0000
0010
0000
0000
0000
1000
0000
0000
0000
0010
0000
0000
0100
,  // measure 44
0000
0010
0000
0000
0010
0100
0010
0000
,  // measure 45
1000
0010
0100
0010
1000
0000
1001
0000
,  // measure 46
0002
0023
0032
0003
,  // measure 47
0001
0100
1000
0100
0001
0100
1000
0000
,  // measure 48
1000
0100
0001
0100
1000
0000
0010
0000
,  // measure 49
0100
0010
0100
1000
0100
0000
0010
0000
,  // measure 50
0100
0010
0100
0000
0001
0000
0000
0000
,  // measure 51
0002
0010
0013
0000
0100
0000
0010
0000
,  // measure 52
2000
0100
3100
0000
1000
0010
0100
0000
,  // measure 53
0020
0100
0130
0000
0010
0000
0220
0000
,  // measure 54
0000
0000
0000
0330
,  // measure 55
1001
0000
0101
0000
1010
0000
1000
0010
,  // measure 56
0000
0010
1000
0000
0100
0000
0000
0000
0001
0000
0010
0000
0100
0000
0000
0000
,  // measure 57
0001
0100
0000
0100
0001
0000
0100
0001
,  // measure 58
0100
0010
1000
0010
1000
0000
1010
0000
,  // measure 59
0101
0000
1100
0000
0011
0000
0010
0001
,  // measure 60
0000
0001
0010
0000
1000
0000
0000
0000
0100
0000
1000
0000
0010
0000
0000
0000
,  // measure 61
0100
0001
0010
0000
0100
0000
0001
0100
,  // measure 62
0000
0000
0001
0000
0000
0000
0000
0000
0001
0100
0001
0100
0001
0000
0010
0000
,  // measure 63
1000
0000
0000
0000
0010
0000
0000
0000
0100
0000
0000
0000
0001
0000
0000
0100
,  // measure 64
0000
0000
0001
0000
0000
0000
0000
0000
0100
0010
0100
0010
0000
0000
0100
0000
,  // measure 65
0000
0000
0000
0000
0010
0000
0000
0000
0100
0000
0000
0000
0001
0000
0000
1000
,  // measure 66
0000
0000
1000
0000
0000
0000
0000
0000
1000
0010
1000
0010
0000
0000
1000
0000
,  // measure 67
0000
0000
0000
0000
0001
0000
0000
0000
0100
0000
0000
0000
0010
0000
0000
0100
,  // measure 68
0000
0000
0001
0000
0000
0000
0000
0000
0001
1000
0001
1000
0000
0000
0010
0000
,  // measure 69
0000
0000
0000
0000
0100
0000
0000
0000
0001
0000
0000
0000
0100
0000
0000
0010
,  // measure 70
0000
0000
0100
0000
0000
0000
0000
0000
0001
0100
0001
0100
0000
0000
0010
0000
;
