#TITLE:We Are Done;
#SUBTITLE:;
#ARTIST:Joshua Simon;
#TITLETRANSLIT:;
#SUBTITLETRANSLIT:;
#ARTISTTRANSLIT:;
#CREDIT:;
#BANNER:We Are Done.png;
#BACKGROUND:We Are Done-bg.png;
#LYRICSPATH:;
#CDTITLE:;
#MUSIC:We Are Done.mp3;
#OFFSET:-0.120;
#SAMPLESTART:64.060;
#SAMPLELENGTH:15.000;
#SELECTABLE:YES;
#BPMS:0.000=122.000;
#STOPS:;
#BGCHANGES:;

//---------------dance-single - ----------------
#NOTES:
     dance-single:
     :
     Easy:
     4:
     0.180,0.246,0.052,0.104,0.000:
0000
0000
0000
0000
,
0000
0000
0000
0000
,
0000
0000
0000
0000
,
0000
0000
0000
0000
,
0000
0000
0000
0000
,
0000
0000
0000
0000
,
0000
0000
0000
0000
,
0000
0000
0000
0000
,
0010
0100
0010
1000
,
0010
1000
0001
0001
,
0210
0000
0300
0000
,
1000
0100
1000
0001
,
0100
0010
0010
0001
,
0010
0100
1000
0100
,
0120
0000
0030
0000
,
0100
0001
0010
0001
,
0100
0010
0100
0000
,
1000
0100
1000
0000
,
0010
0001
1000
0000
,
0010
0100
1000
0000
,
0100
0001
0100
0000
,
0010
0010
0010
0000
,
0100
0010
0001
0000
,
0001
0010
0100
0000
,
2002
0000
3003
0000
,
2000
0000
3000
0000
,
0020
0000
0030
0000
,
0200
0000
0300
0000
,
0202
0000
0303
0000
,
0020
0000
0030
0000
,
0200
0000
0300
0000
,
2000
0000
3000
0000
,
0110
0000
0010
0100
,
0010
1000
0000
0010
,
0100
0010
0000
0001
,
1000
0010
0000
1000
,
1000
0001
0000
1000
,
0001
0100
0000
0010
,
0100
0010
0000
0100
,
0010
1000
0000
0001
,
0100
0010
0000
0100
,
0010
1000
0000
1000
,
0100
0010
0000
0100
,
0010
0001
0000
0001
,
1000
0001
0000
0100
,
0001
0100
0000
0010
,
0100
0010
0000
1000
,
0001
1000
0000
0001
,
0010
0100
0000
0100
,
0010
0001
0000
0100
,
0000
0010
0000
1000
,
0000
0010
0000
1000
,
0000
1000
0000
0001
,
0000
0100
0000
0001
,
0000
0010
0000
0001
,
0000
0100
0000
0010
,
0000
0100
0010
0100
,
0110
0000
0000
0000
;

//---------------dance-single - ----------------
#NOTES:
     dance-single:
     :
     Beginner:
     2:
     0.147,0.197,0.043,0.000,0.000:
0000
0000
0000
0000
,
0000
0000
0000
0000
,
0000
0000
0000
0000
,
0000
0000
0000
0000
,
0000
0000
0000
0000
,
0000
0000
0000
0000
,
0000
0000
0000
0000
,
0000
0000
0000
0000
,
0000
0100
0000
0010
,
0000
0100
0000
0010
,
0000
1000
0000
0001
,
0000
0100
0000
0001
,
0000
1000
0000
0010
,
0000
0100
0000
0010
,
0000
1000
0000
0010
,
0000
0100
0000
0001
,
0000
0001
0001
0001
,
0000
0010
0010
0010
,
0000
1000
0010
1000
,
0000
0100
0100
0100
,
0000
0010
0010
0010
,
0000
1000
0001
1000
,
0000
0001
0001
0001
,
0000
1000
1000
1000
,
0000
0000
0000
0000
,
0010
0000
0000
0000
,
0010
0000
0000
0000
,
1000
0000
0000
0000
,
0001
0000
0000
0000
,
1000
0000
0000
0000
,
0001
0000
0000
0000
,
0001
0000
0000
0000
,
1001
0000
0000
0000
,
0000
0010
0100
0010
,
0000
0001
0001
0001
,
0000
1000
0010
1000
,
0000
1000
1000
1000
,
0000
0010
0100
0010
,
0000
0010
0010
0010
,
0000
0100
0001
0100
,
0000
0100
0100
0100
,
0000
0001
1000
0001
,
0000
0001
0001
0001
,
0000
1000
0010
1000
,
0000
0100
0100
0100
,
0000
0010
0100
0010
,
0000
0100
0100
0100
,
0000
0100
1000
0100
,
0000
1001
0110
1001
,
0000
0010
0000
0100
,
0000
0001
0000
1000
,
0000
0010
0000
0100
,
0000
0010
0000
0100
,
0000
0001
0000
1000
,
0000
0010
0000
0100
,
0000
0010
0000
0100
,
0000
0001
1000
0001
,
1001
0000
0000
0000
;

//---------------dance-single - ----------------
#NOTES:
     dance-single:
     :
     Medium:
     8:
     0.274,0.320,0.069,0.000,0.052:
0000
0000
0000
0000
,
0000
0000
0000
0000
,
0000
0000
0000
0000
,
0000
0000
0000
0000
,
0000
0000
0000
0000
,
0000
0000
0000
0000
,
0000
0000
0000
0000
,
0000
0000
0000
0000
,
0001
0100
0010
0100
,
0001
0100
1000
0100
,
1001
0010
0100
1000
,
1000
0001
0010
0001
,
1000
0010
0100
1000
,
0001
0100
0010
0100
,
1010
0010
0100
0010
,
0100
0001
1000
0010
,
0100
0000
0010
0100
0010
0000
0100
0000
,
0001
0000
1000
0010
0001
0000
0001
0000
,
0100
0000
0001
0100
0010
0000
1000
0000
,
0010
0000
0010
1000
0010
0000
0100
0000
,
0010
0000
0001
0001
0001
0000
0001
0000
,
0010
0000
0100
1000
1000
0000
0000
0000
,
0100
0001
0010
0000
,
0100
0010
0100
0000
,
1000
0000
0000
0010
0000
0000
0100
0000
0000
0000
0001
0000
0000
0100
0000
0000
,
0001
0000
0000
0100
0000
0000
0010
0000
0000
0100
0000
0000
0000
0000
0100
0000
,
0010
0000
0000
0000
,
0001
0000
0000
0000
,
0001
0000
0000
0100
0000
0000
0010
0000
0000
0000
1000
0000
0000
0010
0000
0000
,
1000
0000
0000
0010
0000
0000
0100
0000
0000
0010
0000
0000
0000
0000
0010
0000
,
0100
0000
0000
0000
,
1000
0000
0010
0000
0100
0000
0001
1000
,
0001
0000
1000
0010
,
1010
0000
0010
0000
1000
0000
0010
1000
,
0010
0000
0100
0100
0100
0000
0001
0010
,
0100
0000
0001
0000
0100
0000
0001
0100
,
0001
0000
0001
0100
0010
0000
0100
0010
,
0100
0000
0010
0000
1000
0000
0100
1000
,
0100
0000
0010
0100
0010
0000
0001
0010
,
0001
0000
1000
0000
0001
0000
0001
0100
,
0100
0000
0010
0100
0010
0000
1000
0010
,
0100
0000
0001
0000
1000
0000
1000
0010
,
0001
0000
0001
0010
1000
0000
0001
0100
,
1000
0000
0010
0000
0100
0000
0010
0100
,
0010
0000
0100
0010
0100
0000
0001
1000
,
0001
0000
1000
0000
0001
0000
0100
0010
,
0001
0000
1000
0100
0010
0000
0100
0010
,
0001
0000
1000
0000
0010
0000
1000
0001
,
1001
0010
1000
0010
,
1010
0000
0000
0010
0000
0000
0000
0100
,
0010
0000
0100
0000
0000
0000
0000
0010
0000
0000
1000
0000
0000
0000
0000
0000
,
1000
0000
0000
0100
0000
0000
0000
0010
,
0100
0000
0010
0000
0000
0000
0000
0100
0000
0000
0001
0000
0000
0000
0000
0000
,
1001
0000
0000
1000
0000
0000
0000
1000
,
0001
0000
1000
0000
0000
0000
0000
0001
0000
0000
0010
0000
0000
0000
0000
0000
,
0110
0000
0000
0100
0000
0000
0000
0010
,
0100
0000
0010
0000
0000
0000
0000
0100
0000
0000
0010
0000
0100
0000
0000
0000
,
1001
0000
0000
0000
;

//---------------dance-single - ----------------
#NOTES:
     dance-single:
     :
     Hard:
     12:
     0.375,0.494,0.086,0.069,0.155: // measure 1
0000
0000
0000
0000
,  // measure 2
0000
0000
0000
0000
,  // measure 3
0000
0000
0000
0000
,  // measure 4
0000
0000
0000
0000
,  // measure 5
0001
0000
0000
0000
,  // measure 6
1000
0000
0000
0000
,  // measure 7
1000
0000
0000
0000
,  // measure 8
0010
0000
0000
0000
,  // measure 9
0001
0000
0000
0010
0000
0100
0000
0010
,  // measure 10
1000
0000
0010
0000
0000
0000
0000
0100
0001
0000
0010
0000
0000
0000
0000
0000
,  // measure 11
0010
0000
0000
1000
0000
0010
0000
0100
,  // measure 12
0001
0000
0100
0000
0000
0000
0000
0010
1000
0000
0010
0000
0000
0010
0000
0000
,  // measure 13
0100
0000
0000
1000
0000
0010
0000
1000
,  // measure 14
0100
0000
0010
0000
0000
0000
0000
0010
0001
0000
0010
0000
0000
0000
0000
0000
,  // measure 15
0001
0000
0000
1000
0000
0010
0000
1000
,  // measure 16
0001
0000
1000
0000
0000
0000
0000
0010
0100
0000
0010
0000
1000
0010
1000
0010
,  // measure 17
1000
0000
0100
0000
0010
0000
0001
0000
0100
0000
0000
0000
0001
0100
0010
1000
,  // measure 18
0100
0000
1000
0000
0010
0000
0001
0000
0010
0000
0000
0000
1000
0001
0100
0001
,  // measure 19
1000
0000
0100
0000
0001
0000
0100
0000
1000
0000
0000
0000
0001
1000
0010
1000
,  // measure 20
0001
0000
1000
0000
0010
0000
1000
0000
0001
0000
0100
0000
0001
0100
0001
0100
,  // measure 21
0001
0000
0010
0000
0100
0000
1000
0000
1010
0000
1000
0000
1000
0001
0100
0000
,  // measure 22
1100
1000
0100
1000
0100
0000
0000
1000
,  // measure 23
0010
0000
0000
0100
0000
0000
0001
0000
0100
0000
0010
0000
0100
0000
0001
0000
,  // measure 24
0100
1000
0100
0001
2002
0000
3003
0000
,  // measure 25
1000
0000
0000
0010
0000
0000
0100
0000
0000
0010
0000
0000
0100
0000
0000
0001
,  // measure 26
0000
0000
0000
0001
0000
0000
0100
0000
0000
0010
0000
0000
0000
0000
0000
0100
,  // measure 27
0000
0110
0000
0000
0000
0000
0000
0000
0000
0000
0100
0000
0000
0000
0100
0000
,  // measure 28
0010
0000
0000
1000
0100
0010
0001
1000
,  // measure 29
0001
0000
0000
0100
0000
0000
0010
0000
0000
0100
0000
0000
0010
0000
0000
1000
,  // measure 30
0000
0000
0000
1000
0000
0000
0010
0000
0000
0100
0000
0000
0000
0000
0000
0010
,  // measure 31
0000
0110
0000
0000
0000
0000
0000
0000
0000
0000
0010
0000
0000
0000
0010
0000
,  // measure 32
0100
0000
0000
0001
0010
0100
1000
0001
,  // measure 33
2002
3003
0010
0100
,  // measure 34
1010
0000
0000
0000
1000
0010
0001
0010
,  // measure 35
1000
0000
0001
1000
0010
0100
0010
1000
,  // measure 36
0001
0000
0100
0000
0001
0010
1000
0010
,  // measure 37
0001
0000
0100
1000
0001
1000
0010
0100
,  // measure 38
0010
0000
1000
0000
0010
1000
0100
1000
,  // measure 39
0010
0000
0100
0010
0100
0010
1000
0001
,  // measure 40
0100
0000
0010
0000
0001
0100
1000
0100
,  // measure 41
0001
0000
1000
0001
0100
0010
0100
0001
,  // measure 42
1000
0000
0010
0000
1000
0100
0001
0100
,  // measure 43
1000
0000
0010
0001
1000
0001
0100
0010
,  // measure 44
0100
0000
0001
0000
0010
0001
0100
0001
,  // measure 45
0010
0000
0100
0010
0001
1000
0001
0010
,  // measure 46
0100
0000
1000
0000
0100
0001
0010
0001
,  // measure 47
0100
0000
1000
0010
0100
0010
0001
1000
,  // measure 48
0001
0000
0010
0000
0001
0000
1000
1000
,  // measure 49
1000
0010
0100
0010
,  // measure 50
0220
0000
0330
0010
0000
0000
0000
0100
,  // measure 51
0010
0000
1000
0000
0000
0000
0000
0010
1000
0000
0100
0000
0000
0000
0000
0000
,  // measure 52
0100
0000
0000
0001
0000
0100
0000
0010
,  // measure 53
1000
0000
0010
0000
0000
0000
0000
0100
0001
0000
0100
0000
0000
0100
0000
0000
,  // measure 54
0010
0000
0000
0001
0000
0100
0000
0001
,  // measure 55
0010
0000
0100
0000
0000
0000
0000
0100
1000
0000
0100
0000
0000
0000
0000
0000
,  // measure 56
1000
0000
0000
0001
0000
0000
0000
1000
,  // measure 57
0001
0000
0100
0000
0000
0000
0000
0010
0100
0000
0010
0000
0110
0000
0000
0000
,  // measure 58
2002
3003
0000
0000
;
