#TITLE:Wa Da Da;
#SUBTITLE:;
#ARTIST:Kep1er;
#TITLETRANSLIT:;
#SUBTITLETRANSLIT:;
#ARTISTTRANSLIT:;
#CREDIT:;
#BANNER:Wa Da Da.png;
#BACKGROUND:Wa Da Da-bg.png;
#LYRICSPATH:;
#CDTITLE:;
#MUSIC:Wa Da Da.mp3;
#OFFSET:-0.140;
#SAMPLESTART:42.060;
#SAMPLELENGTH:15.000;
#SELECTABLE:YES;
#BPMS:0.000=126.000;
#STOPS:;
#BGCHANGES:-0.440=Wa Da Da.avi=1.000=0=0=0,
99999=-nosongbg-=1.000=0=0=0 // don't automatically add -songbackground-
;

//---------------dance-single - ----------------
#NOTES:
     dance-single:
     :
     Easy:
     4:
     0.305,0.354,0.145,0.476,0.000:
0000
0000
0000
0000
,
0000
0000
0000
0000
,
0000
0000
0000
0000
,
0000
0000
0000
0000
,
0000
0000
0000
0000
,
0000
0000
0000
0000
,
0110
0010
0100
0000
,
1000
0100
0010
0000
,
0001
0010
0001
0000
,
0100
0010
2000
3000
,
1000
0001
0100
0002
,
0003
0100
0020
0030
,
0100
0010
1000
2000
,
3000
0010
1000
0000
,
1001
0000
0010
0000
,
0100
0000
0001
0000
,
1000
0000
0010
0000
,
0100
0000
0010
0000
,
1000
0001
1000
0001
,
0100
0010
0100
0010
,
0100
0001
0010
0100
,
2000
0000
3000
0000
,
2000
3200
0320
0032
,
0103
0101
0001
0000
,
0020
0230
0320
0130
,
0010
0100
0010
0110
,
0200
0302
0203
0302
,
0103
0110
1000
0000
,
0002
2003
3002
1003
,
0001
0000
0100
0000
0010
0100
0010
0000
,
2000
3000
0000
2000
3000
0000
2000
3000
,
1000
0010
1000
1010
,
0200
0300
0000
0002
0003
0000
0200
0300
,
0001
0000
0100
0000
0001
0100
0001
0000
,
0020
0030
0000
0020
0030
0000
0020
0030
,
0010
0100
0010
0110
,
0020
0030
0000
2000
3000
0000
0020
0030
,
1000
0000
0010
0000
1000
0001
1000
0000
,
2002
0000
0000
3003
,
1001
0000
0100
0000
,
0010
0000
1000
0000
,
0110
0000
1001
0000
,
0110
0000
0100
0000
,
1001
0000
1000
0000
,
0010
0000
1000
0000
,
0001
1000
0010
1000
,
0001
0000
0000
0000
0001
1000
0001
0000
,
0002
0023
0230
2300
,
3010
1010
1000
0000
,
0200
0320
0230
0310
,
0100
0010
0100
0110
,
0020
2030
3020
2030
,
3010
0110
0001
0000
,
2000
3002
2003
3001
,
1000
0000
0010
0000
0100
0010
0100
0000
,
0002
0003
0000
0002
0003
0000
0002
0003
,
0001
0100
0001
0101
,
0020
0030
0000
2000
3000
0000
0020
0030
,
1000
0000
0010
0000
1000
0010
1000
0000
,
0200
0300
0000
0200
0300
0000
0200
0300
,
0100
0010
0100
0110
,
0200
0300
0000
0002
0003
0000
0200
0300
,
0001
0000
0100
0000
0001
1000
0001
0000
;

//---------------dance-single - ----------------
#NOTES:
     dance-single:
     :
     Beginner:
     2:
     0.219,0.303,0.282,0.089,0.000:
0000
0000
0000
0000
,
0000
0000
0000
0000
,
0000
0000
0000
0000
,
0000
0000
0000
0000
,
0000
0000
0000
0000
,
0000
0000
0000
0000
,
0000
0001
0000
1000
,
0000
0001
0000
1000
,
0000
0010
0000
0100
,
0000
0010
0000
0100
,
0000
0001
0001
0001
,
0000
0010
0010
0010
,
0000
0001
0001
0001
,
0000
1000
1000
1000
,
0000
0010
0000
1000
,
0000
0010
0000
0110
,
0000
0001
0000
0100
,
0000
0001
0000
1001
,
0000
0010
0010
0010
,
0000
0100
0100
0100
,
0000
0010
0000
0100
,
0200
0000
0300
0000
,
1001
0110
1001
0000
,
0001
0000
1000
0000
,
0110
1001
0110
0000
,
1000
0000
0010
0000
,
1010
0101
1010
0000
,
0010
0000
1000
0000
,
0011
1100
0011
0000
,
1000
0001
1000
0001
,
2002
3003
0000
0010
,
0000
0100
0010
0100
,
0000
0010
0000
1000
,
0001
1000
0001
1000
,
2002
3003
0000
0010
,
0000
1000
0010
1000
,
0000
0010
0000
0100
,
0010
0100
0010
0100
,
0220
0000
0000
0330
,
0110
0000
0010
0000
,
1000
0000
0001
0000
,
1001
0000
0110
0000
,
0010
0000
1000
0000
,
0001
0000
0100
0000
,
0001
0000
1000
0000
,
0010
0100
0010
0100
,
0110
0000
0010
0000
,
1001
0110
1001
0000
,
1000
0000
0001
0000
,
0110
1001
0110
0000
,
0001
0000
0100
0000
,
0101
1010
0101
0000
,
0100
0000
0001
0000
,
1100
0011
1100
0000
,
0001
1000
0001
1000
,
2002
3003
0000
0100
,
0000
0010
0100
0010
,
0000
0100
0000
0001
,
1000
0001
1000
0001
,
2002
3003
0000
0100
,
0000
0001
0100
0001
,
0000
0100
0000
0010
,
0100
0010
0100
0010
;

//---------------dance-single - ----------------
#NOTES:
     dance-single:
     :
     Medium:
     8:
     0.420,0.455,0.121,0.347,0.024:
0000
0000
0000
0000
,
0000
0000
0000
0000
,
0010
0000
0000
0010
0000
0000
0000
0000
0010
0000
0100
0000
0010
0000
0000
0000
,
1000
0000
0000
1000
0000
0000
0000
0000
1000
0000
0010
0000
1000
0000
0000
0000
,
0001
0000
0000
0001
0000
0000
0000
0000
0100
0000
0001
0000
0100
0000
0000
0000
,
0100
0000
0000
0100
0000
0000
0000
0000
0010
0000
0100
0000
0010
0000
0100
0000
,
0010
0000
0100
0010
1000
0000
1000
0010
,
0100
0001
0010
0100
1000
0000
0010
0000
,
1000
0000
0010
1000
0001
0000
0001
0000
,
0100
0001
0100
0001
0020
0000
0030
0000
,
1000
0010
1000
0000
0010
0100
0010
0000
,
0001
0010
0001
0000
0100
0000
1001
0000
,
1000
1000
0010
0000
0100
0010
0100
0000
,
0001
0100
0001
0100
0001
0000
0000
0000
,
0001
0000
0100
0000
,
0010
0000
0000
1000
0000
0000
0010
0000
,
1000
0000
0010
0000
,
0100
0000
0000
0010
0000
0000
0100
0000
,
0001
0001
0100
0010
,
1000
0010
0100
0010
,
1000
0001
0100
0001
,
1000
0000
0010
0000
0100
0010
0100
0000
,
0020
0000
0130
0010
0100
0000
0001
0000
,
1000
0100
0010
0000
0100
0010
0001
0000
,
0002
0000
0103
0001
0100
0000
0010
0100
,
0010
0000
0100
0010
0100
0000
0110
0000
,
0200
0000
0310
1000
0010
0000
1000
0000
,
0010
1000
0010
0000
0100
0010
0100
0000
,
2000
0000
3010
1000
0001
0000
0001
0100
,
0001
0100
0010
1000
0010
1000
0010
0000
,
2000
3010
0000
0200
0301
0000
0002
0013
,
0000
0002
1003
2000
3010
0000
1001
0000
,
0020
0130
0000
0200
0310
0000
0020
0130
,
0010
0100
0010
1000
0001
1000
0001
0000
,
0002
0103
0000
0020
1030
0000
2000
3001
,
0000
0200
0310
0020
0130
0000
1001
0000
,
0200
0310
0000
2000
3100
0000
0002
0013
,
0001
1000
0001
1000
0010
0100
0010
0000
,
2002
0000
0000
3003
,
1000
0000
0010
0000
,
0100
0000
0010
0000
,
1001
0000
0101
0000
,
1010
0000
0000
0000
0000
0000
1000
0010
0100
0001
0000
0000
,
1001
0000
1100
0000
,
0011
0000
0101
0000
,
0001
0001
1000
1000
,
0010
1000
0010
0100
0001
0100
0001
0000
,
0200
0000
0310
0100
0010
0000
1000
0000
,
0001
0010
0100
0000
0010
0100
1000
0000
,
2000
0000
3010
1000
0010
0000
0100
0010
,
0100
0000
0010
0100
0010
0000
0110
0000
,
0020
0000
0130
0001
0100
0000
0001
0000
,
0100
0001
0100
0000
0010
0100
0010
0000
,
0002
0000
0103
0001
1000
0000
1000
0010
,
1000
0010
0100
0001
0100
0001
0100
0000
,
0002
0103
0000
0020
1030
0000
2000
3100
,
0000
2000
3001
0002
0103
0000
1001
0000
,
0200
0310
0000
0020
0130
0000
0200
0310
,
0100
0010
0100
0001
1000
0001
1000
0000
,
2000
3010
0000
0200
0301
0000
0002
1003
,
0000
0020
0130
0200
0310
0000
1001
0000
,
0020
0130
0000
0002
0013
0000
2000
3100
,
1000
0001
1000
0001
0100
0010
0100
0000
;

//---------------dance-single - ----------------
#NOTES:
     dance-single:
     :
     Hard:
     13:
     0.531,0.556,0.161,0.258,0.222: // measure 1
0000
0000
0000
0000
,  // measure 2
0000
0000
0000
1001
,  // measure 3
1000
0000
0000
0010
0000
0000
0010
0000
1000
0000
0010
0000
0100
0000
0000
0000
,  // measure 4
0010
0000
0000
0100
0000
0000
0100
0000
0010
0000
0100
0000
0001
0000
0000
0000
,  // measure 5
0001
0000
0000
1000
0000
0000
0010
0000
1000
0000
0010
0000
0001
0000
0000
0000
,  // measure 6
0001
0000
0000
0001
0000
0000
0100
0000
0001
0000
0100
0000
0001
1000
0001
1000
,  // measure 7
0010
0000
0000
0000
0100
0010
0100
0000
0010
0000
1000
0000
0001
0100
0001
0100
,  // measure 8
0010
0000
0001
0000
0010
0000
0100
0000
1000
0000
0010
0000
1000
0000
0010
1000
,  // measure 9
0010
0000
0000
0000
1000
0010
0100
0000
0010
0000
0000
0000
0100
0000
0001
0000
,  // measure 10
0100
0001
0000
0001
0100
0000
0010
0000
0202
0000
0000
0000
0303
0000
0000
0000
,  // measure 11
0010
0000
0100
0010
0100
0000
0010
0100
0010
0000
1000
0000
0020
0000
0000
0000
,  // measure 12
0030
0010
0100
0001
0002
0000
0003
0000
,  // measure 13
0100
0000
0010
0100
0010
0000
0100
0010
0100
0000
0001
0000
0200
0000
0000
0000
,  // measure 14
0300
0100
0010
1000
2000
0000
3000
0000
,  // measure 15
1000
0000
1010
0000
0010
0100
0010
0100
,  // measure 16
0002
0000
0003
0020
0000
0030
0000
0000
,  // measure 17
0001
0000
0101
0000
0100
0010
0100
0010
,  // measure 18
2000
0000
3000
0200
0000
0300
0000
0000
,  // measure 19
0100
0010
0100
1000
0010
0000
0001
0100
,  // measure 20
0000
0100
0010
1000
0001
0000
0000
0010
,  // measure 21
0000
0000
0100
0000
0010
0000
0001
0000
0010
0000
0000
0100
0000
0000
2000
0000
,  // measure 22
0001
0001
3001
0100
0010
0100
0010
0000
,  // measure 23
1010
0000
0000
0000
0100
0000
0010
0000
0100
0000
0000
0101
0000
0000
0001
0000
,  // measure 24
0000
0100
0000
0010
0000
0000
0100
0000
0010
0000
0100
0000
0001
0000
0010
0000
,  // measure 25
0101
0000
0000
0000
0001
0000
0100
0000
0010
0000
0000
0000
0010
0100
0010
0000
,  // measure 26
0000
0100
0000
0000
0100
0010
0100
0000
0010
0000
0100
0000
1000
0000
0001
0000
,  // measure 27
1001
0000
0000
0000
0010
0000
0100
0000
0010
0000
0000
0110
0000
0000
0100
0000
,  // measure 28
0000
1000
0000
0010
0000
0000
0100
0000
0001
0000
0100
0000
0010
0000
1000
0000
,  // measure 29
1010
0000
0000
0000
1000
0001
1000
0000
0010
0000
0100
0000
0001
1000
0001
0000
,  // measure 30
0100
1000
0100
0001
0100
1000
0100
0000
,  // measure 31
0010
0100
0000
0100
0010
0000
0010
1000
,  // measure 32
0000
2000
3200
0320
0032
0003
1001
0000
,  // measure 33
0001
0100
0000
0010
1000
0000
1000
0001
,  // measure 34
0100
0010
1000
0100
0010
0001
1000
0000
,  // measure 35
0001
0010
0000
0010
0100
0000
0100
1000
,  // measure 36
0000
0002
0023
0230
2300
3000
1010
0000
,  // measure 37
0010
1000
0000
1000
0001
0000
0001
0100
,  // measure 38
0001
0100
0010
1000
0010
1000
0010
0000
,  // measure 39
0020
0000
0000
0230
0000
0000
0320
0000
0000
2030
0000
0000
3002
0000
0000
0003
,  // measure 40
0100
0001
0100
0001
0010
0000
1000
0010
0100
0000
0100
0010
1000
0000
0010
0000
,  // measure 41
0000
0000
0010
0000
0100
0010
0000
0100
0010
0000
0010
0100
0001
0000
0100
0000
,  // measure 42
0000
0000
0010
0000
1000
0010
0000
0000
0100
0000
0001
0100
0000
0000
0001
0000
,  // measure 43
0010
0000
0000
0001
0000
0000
0010
0000
0000
0001
0000
0000
0010
0000
0000
0000
0000
0000
0100
0000
0000
0000
0000
0000
1000
0000
0000
0000
0010
0000
0000
0000
0100
0000
0000
0000
0001
0000
0000
0000
0000
0000
0000
0000
0000
0000
0000
0000
,  // measure 44
0100
0001
0100
0001
0000
0100
0010
0100
,  // measure 45
0000
0010
1000
0010
1000
0100
1000
0010
,  // measure 46
1000
0100
0010
0001
0010
0100
1000
0010
,  // measure 47
0100
0001
0100
0010
1000
0001
1000
0000
,  // measure 48
0101
0000
0000
0000
0010
0000
0100
0000
0010
0000
0000
1010
0000
0000
1000
0000
,  // measure 49
0000
0010
0000
0100
0000
0000
0010
0000
0100
0000
0010
0000
1000
0000
0100
0000
,  // measure 50
1010
0000
0000
0000
1000
0000
0010
0000
0100
0000
0000
0000
0100
0010
0100
0000
,  // measure 51
0000
0010
0000
0000
0010
0100
0010
0000
0100
0000
0010
0000
0001
0000
1000
0000
,  // measure 52
1001
0000
0000
0000
0100
0000
0010
0000
0100
0000
0000
0110
0000
0000
0010
0000
,  // measure 53
0000
0001
0000
0100
0000
0000
0010
0000
1000
0000
0010
0000
0100
0000
0001
0000
,  // measure 54
0101
0000
0000
0000
0001
1000
0001
0000
0100
0000
0010
0000
1000
0001
1000
0000
,  // measure 55
0010
0001
0010
1000
0010
0001
0010
0000
,  // measure 56
0100
0010
0000
0010
0100
0000
0100
0001
,  // measure 57
0000
0002
0023
0230
2300
3000
1001
0000
,  // measure 58
1000
0010
0000
0100
0001
0000
0001
1000
,  // measure 59
0010
0100
0001
0010
0100
1000
0001
0000
,  // measure 60
1000
0100
0000
0100
0010
0000
0010
0001
,  // measure 61
0000
2000
3200
0320
0032
0003
0101
0000
,  // measure 62
0100
0001
0000
0001
1000
0000
1000
0010
,  // measure 63
1000
0010
0100
0001
0100
0001
0100
0000
;
