#TITLE:WHISTLE;
#SUBTITLE:;
#ARTIST:BLACKPINK;
#TITLETRANSLIT:;
#SUBTITLETRANSLIT:;
#ARTISTTRANSLIT:;
#CREDIT:;
#BANNER:WHISTLE.png;
#BACKGROUND:WHISTLE-bg.png;
#LYRICSPATH:;
#CDTITLE:;
#MUSIC:WHISTLE.mp3;
#OFFSET:-0.980;
#SAMPLESTART:117.480;
#SAMPLELENGTH:15.000;
#SELECTABLE:YES;
#BPMS:0.000=103.000;
#STOPS:;
#BGCHANGES:-2.080=WHISTLE.avi=1.000=0=0=0,
99999=-nosongbg-=1.000=0=0=0 // don't automatically add -songbackground-
;

//---------------dance-single - ----------------
#NOTES:
     dance-single:
     :
     Hard:
     14:
     0.514,0.585,0.036,0.245,0.411: // measure 1
0000
0000
0000
0020
,  // measure 2
0130
0000
0000
0000
0000
0000
1000
0000
0010
0000
0000
1000
0010
0000
0100
0000
,  // measure 3
0001
0000
0100
0000
0000
0000
0010
0000
0100
0000
0000
0010
0000
0000
0100
0000
,  // measure 4
0001
0000
1000
0000
0000
0000
0000
0000
0010
0000
0000
1000
0000
0000
0100
0000
,  // measure 5
1000
0010
0100
0010
0100
0000
2000
0000
,  // measure 6
3100
0000
0000
0000
0000
0000
0001
0000
0100
0000
0000
0001
0100
0000
0010
0000
,  // measure 7
1000
0000
0010
0000
0000
0000
0100
0000
0010
0000
0000
0100
0000
0000
0010
0000
,  // measure 8
1000
0000
0001
0000
0000
0000
0000
0000
0100
0000
0000
0001
0000
0000
0010
0000
,  // measure 9
0001
0000
0100
0001
0000
0001
0100
0000
0010
1000
0010
0000
0002
0000
0000
0000
,  // measure 10
0013
0000
0000
0000
0100
0010
0100
0000
0000
0000
0000
1000
0010
1000
0001
0000
,  // measure 11
0000
0000
0000
1000
0001
1000
0001
0000
0000
0000
0000
0000
0010
0000
0010
0000
,  // measure 12
0000
0000
0000
0001
0100
0010
1000
0000
0000
0000
0000
1000
0100
0010
0001
0000
,  // measure 13
0000
0000
0000
0100
0001
1000
0010
1000
0010
0000
1000
0000
0010
0000
1001
0000
,  // measure 14
0100
0000
0000
0000
0010
0100
0010
0000
0000
0000
0000
1000
0010
0000
0100
0000
,  // measure 15
0000
0000
0000
1000
0100
0010
0001
0000
0000
0000
0000
0001
0010
0100
1000
0000
,  // measure 16
0000
0000
0000
0000
0100
0010
1000
0000
0000
0000
0000
0010
0100
0010
0100
0000
,  // measure 17
0010
0000
1000
0100
0000
0100
1000
0000
0001
0010
0001
0000
0200
0000
0000
0000
,  // measure 18
0301
0000
0001
0010
0100
1000
0010
1000
0010
0000
0100
0000
0010
0100
0000
0000
,  // measure 19
1000
0100
0010
0001
0100
0000
0010
1000
0001
0000
0100
0001
1000
0001
1000
0010
,  // measure 20
0100
0000
0001
0010
0001
0010
0001
0010
0100
0010
0001
0010
0100
0000
0010
0000
,  // measure 21
1000
0000
0010
1000
0010
0100
0010
1000
0001
0000
0010
1000
0001
0000
0100
0010
,  // measure 22
0100
0000
0010
0000
1000
0100
0010
0001
0100
0000
0001
0000
1000
0001
1000
0000
,  // measure 23
0010
0000
0100
0000
0010
0000
1000
0010
0000
0100
0001
0000
0001
0010
0100
1000
,  // measure 24
0010
0000
0100
0000
0010
1000
0010
0100
0010
0000
0100
0010
0000
0000
0001
1000
,  // measure 25
0001
0000
0000
1000
0000
0000
0010
0000
0000
0100
0000
0000
0010
0000
0000
0100
0000
0000
0001
0000
0000
1000
0000
0000
0001
0000
0000
0000
0000
0000
1000
0000
0000
0010
0000
0000
1000
0000
0000
0000
0100
0000
0000
0000
0010
0000
0000
0000
,  // measure 26
0001
0000
0100
0000
0001
0000
1000
0100
0000
0000
1000
0000
0010
0000
0100
0010
,  // measure 27
0000
0100
0000
0010
0001
0010
1000
0010
,  // measure 28
1001
0000
0010
0000
1000
0000
0010
1000
0000
0000
0100
0000
0001
0100
0000
0010
,  // measure 29
0000
0000
1000
0000
0010
2000
3200
0320
,  // measure 30
0031
0000
0010
0000
1000
0000
0001
0010
0000
0000
0001
0000
0100
0000
0010
0100
,  // measure 31
0000
0010
0000
0100
1000
0100
0001
0100
,  // measure 32
1001
0100
0001
0100
0001
0010
1000
0010
,  // measure 33
1000
0010
0100
0001
0100
0000
0010
0000
0100
0000
0000
0000
2000
0000
0000
0000
,  // measure 34
3010
0000
0000
0000
0000
0000
0001
0000
1000
0000
0000
0001
1000
0000
0010
0000
,  // measure 35
0100
0000
0010
0000
0000
0000
1000
0000
0010
1000
0000
1000
0010
0000
0010
0100
,  // measure 36
0010
0000
0000
1000
0000
0000
0010
0100
1000
0000
0100
0000
0000
0000
0010
0000
,  // measure 37
0001
1000
0001
1000
0010
0100
0010
0000
0010
0000
0000
0000
0002
0000
0000
0000
,  // measure 38
1003
0000
0000
0000
0000
0000
0100
0000
0001
0000
0000
0100
0001
0000
1000
0000
,  // measure 39
0010
0000
1000
0000
0000
0000
0001
0000
1000
0001
0000
0001
1000
0000
1000
0010
,  // measure 40
1000
0000
0000
0001
0000
0000
1000
0010
0100
0000
0010
0000
0000
0000
1000
0000
,  // measure 41
0100
0001
0100
0001
1000
0010
1000
0000
0001
1000
0010
0000
0200
0000
0000
0000
,  // measure 42
0301
0000
0000
0000
1000
0000
0010
0000
0100
0000
0001
1000
0010
1000
0001
0000
,  // measure 43
2000
0010
3020
0100
0230
0001
0302
1000
,  // measure 44
2003
0100
3200
0010
0320
0001
0032
0010
,  // measure 45
0023
0100
0230
1000
2300
0001
3002
1000
,  // measure 46
2003
0001
3002
0100
0203
0010
0320
0000
,  // measure 47
2030
3010
0002
0103
,  // measure 48
0020
0130
0200
0310
,  // measure 49
1000
0000
0010
1000
0001
0000
0100
0000
0001
0000
1000
0010
0100
0000
0010
0000
,  // measure 50
1000
0100
0010
0000
0100
0010
0001
0000
1001
0000
0000
0000
0200
0000
0000
0000
,  // measure 51
0310
0000
1000
0000
0100
0000
0001
0000
0100
0000
0000
0001
0100
0000
0010
0000
,  // measure 52
1000
0000
0010
0000
1000
0000
0100
0000
0010
0000
0000
0100
0000
0000
0010
0000
,  // measure 53
1000
0000
0001
0000
1000
0000
0010
0000
0100
0000
0000
0001
0000
0000
0010
0000
,  // measure 54
0001
0100
0010
0100
0010
1000
0002
0000
,  // measure 55
0013
0000
0100
0000
0010
0000
1000
0000
0010
0000
0000
1000
0010
0000
0100
0000
,  // measure 56
0001
0000
0100
0000
0001
0000
0010
0000
0100
0000
0000
0010
0000
0000
0100
0000
,  // measure 57
0001
0000
1000
0000
0100
0000
0001
0000
0010
0000
0000
1000
0000
0000
0100
0000
,  // measure 58
1000
0000
0010
1000
0000
1000
0010
0000
0100
0001
0100
0000
2002
0000
0000
0000
,  // measure 59
3003
0000
0000
0000
;

//---------------dance-single - ----------------
#NOTES:
     dance-single:
     :
     Medium:
     6:
     0.248,0.271,0.029,0.014,0.058:
0000
0000
0000
0000
,
1000
0000
0000
1000
0000
0000
1000
0000
0000
0000
0000
0000
0010
0000
0000
0000
,
0000
0100
0000
0001
,
0001
0000
0000
0001
0000
0000
0001
0000
0000
0000
0000
0000
0100
0000
0000
0000
,
0000
0010
0000
0010
,
0100
0000
0000
0100
0000
0000
0100
0000
0000
0000
0000
0000
1000
0000
0000
0000
,
0000
0001
0000
0010
,
0010
0000
0000
0010
0000
0000
0010
0000
0000
0000
0000
0000
0001
0000
0000
0000
,
0000
1000
0000
1000
,
0010
0000
0000
1000
0000
0000
0001
0000
0000
0000
0000
0000
0100
0000
0000
0000
,
0000
0010
0000
1000
,
1000
0000
0000
0010
0000
0000
0001
0000
0000
0000
0000
0000
0100
0000
0000
0000
,
0000
0001
0000
1000
,
0001
0000
0000
0100
0000
0000
0010
0000
0000
0000
0000
0000
1000
0000
0000
0000
,
0000
0100
0000
0001
,
0001
0000
0000
0100
0000
0000
1000
0000
0000
0000
0000
0000
0010
0000
0000
0000
,
0000
1000
0000
0001
,
1000
0010
0100
0010
0100
0000
0001
0000
,
0001
0100
0010
1000
0010
0000
0100
0000
,
0001
1000
0010
1000
0001
0000
1000
0000
,
1000
0010
0001
0010
1000
0000
0100
0000
,
0010
0100
0010
0000
1000
0001
1000
0000
,
0001
0100
0010
1000
,
0010
1000
0010
0001
0100
0000
0010
0000
,
1000
0001
0100
0001
0010
0000
0001
0000
,
1000
0000
0000
0010
0000
0000
1000
0100
,
0010
0000
0000
0001
0000
0000
0001
1000
,
0010
0000
0000
0100
0000
0000
0100
0001
,
1000
0000
0000
0010
0000
0100
0010
0100
,
0001
0000
0100
0001
1000
0000
0010
1000
,
0001
0100
0010
1000
,
1000
0100
0001
0100
1000
0100
0001
0010
,
0001
0100
0010
1000
0100
0000
0010
0000
,
1000
0000
0000
0010
0000
0000
0010
0000
0000
0000
0000
0000
0010
0000
0000
0000
,
0000
1000
0000
0010
,
0100
0000
0000
0001
0000
0000
1000
0000
0000
0000
0000
0000
0010
0000
0000
0000
,
1000
0010
1000
0001
0100
0000
0010
0000
,
0100
0000
0000
1000
0000
0000
1000
0000
0000
0000
0000
0000
1000
0000
0000
0000
,
0000
0100
0000
1000
,
0001
0000
0000
0010
0000
0000
0100
0000
0000
0000
0000
0000
1000
0000
0000
0000
,
0100
1000
0100
0010
0001
0000
1000
0000
,
0000
0010
0000
1000
,
1001
0001
0010
0100
,
0001
1000
0010
0001
,
0101
0010
1000
0010
,
0100
0010
1000
0001
,
0110
0010
2000
3000
,
1000
0001
0200
0300
,
0001
1000
0010
0000
1000
0001
0100
0000
,
0001
1000
0001
1000
0010
0000
0100
0000
,
0001
0000
0000
0100
0000
0000
0100
0000
0000
0000
0000
0000
0100
0000
0000
0000
,
0000
0001
0000
0100
,
0010
0000
0000
1000
0000
0000
0001
0000
0000
0000
0000
0000
0100
0000
0000
0000
,
0001
0100
0001
1000
0010
0000
0100
0000
,
0010
0000
0000
0001
0000
0000
0001
0000
0000
0000
0000
0000
0001
0000
0000
0000
,
0000
0010
0000
0001
,
1000
0000
0000
0100
0000
0000
0010
0000
0000
0000
0000
0000
0001
0000
0000
0000
,
0010
0001
0010
0100
1000
0000
1001
0000
;

//---------------dance-single - ----------------
#NOTES:
     dance-single:
     :
     Easy:
     3:
     0.192,0.291,0.094,0.036,0.000:
0000
0000
0000
2000
,
3001
1000
0000
0010
,
1000
0001
0000
0000
,
0010
0000
0000
1000
,
0000
0001
0000
0100
,
0001
1000
0010
1000
,
0001
0100
0101
0011
,
0001
0010
1000
0010
,
1001
1000
0010
0100
,
0110
0010
0000
1000
,
0000
1000
0000
0010
,
0000
0100
0000
0001
,
0000
1000
0010
0100
,
0110
0010
0000
1000
,
0000
0010
0000
0100
,
0000
0001
0000
0100
,
0000
0001
1000
0010
,
1010
0010
0000
1000
,
0000
0010
0000
1000
,
0000
0001
0000
0100
,
0000
0010
1000
0001
,
0101
0010
0000
0010
,
0000
1000
0000
0010
,
0000
1000
0000
0010
,
0000
0100
0010
1000
,
1010
0010
1000
0010
,
0100
0010
1000
0001
,
0100
0001
1000
0010
,
2000
0000
3000
0000
,
0001
0100
0001
0100
,
0010
0001
0010
0100
,
1000
0010
0100
0010
,
0001
1000
0001
1000
,
0110
0000
0010
0100
,
0010
0000
1000
1000
,
0010
0000
0001
0100
,
0001
0000
0010
1001
,
0100
0000
0010
0001
,
0001
0000
0100
0001
,
1000
0000
0010
1000
,
0001
1000
0010
0100
,
0000
0010
0000
0010
,
0000
1000
0000
0010
,
0000
0100
0000
0001
,
0000
0010
0000
0001
,
0000
1000
0000
0010
,
0000
1000
0000
0010
,
0000
0100
0000
0001
,
0001
0001
0001
0000
1000
1000
1000
0000
,
0020
0030
0020
0030
0020
0030
0000
0000
,
0110
0000
0100
0010
,
0100
0000
0001
0001
,
0100
0000
1000
0010
,
1000
0000
0100
1001
,
0010
0000
0100
1000
,
1000
0000
0010
1000
,
0001
0000
0100
0001
,
1000
0001
0100
0110
;

//---------------dance-single - ----------------
#NOTES:
     dance-single:
     :
     Beginner:
     1:
     0.143,0.167,0.058,0.014,0.000:
0000
0000
0000
0000
,
0000
0010
0000
0010
,
0000
1000
0000
0001
,
0000
0001
0000
1000
,
0000
0010
0000
1000
,
0000
0001
0000
1000
,
0000
0001
0000
0100
,
0000
0001
0000
1000
,
0000
0010
0000
1001
,
0000
0010
0000
0010
,
0000
0001
0000
0001
,
0000
1000
0000
1000
,
0000
0010
0000
0110
,
0000
0100
0000
0100
,
0000
0001
0000
1000
,
0000
0010
0000
1000
,
0000
0001
0000
1001
,
0000
0001
0001
0001
,
0000
1000
0000
0001
,
0000
1000
1000
1000
,
0000
0010
0000
0100
,
0000
0010
0010
0010
,
0000
1000
0000
0010
,
0000
0100
0100
0100
,
0000
0010
0000
0110
,
0000
1000
0000
0010
,
0000
1000
0000
0001
,
0000
0100
0000
0001
,
0000
0100
0000
0001
,
0000
0010
0000
0100
,
0000
1000
0000
0001
,
0000
0001
0001
0001
,
0000
1000
1000
2000
,
3000
1000
0000
0010
,
0000
1000
0000
0001
,
0000
0100
0000
0001
,
0000
0010
0000
0100
,
0000
1000
0000
0001
,
0000
0100
0000
0001
,
0000
1000
0000
0100
,
0000
0010
0100
0110
,
0000
1000
0000
0010
,
0000
1000
1000
1000
,
0000
0010
0010
0010
,
0000
1000
1000
1000
,
0000
0010
0010
0010
,
0000
0100
0100
0100
,
0000
0001
0001
0001
,
0000
1001
0000
0110
,
0000
0010
0010
0020
,
0030
0010
0000
0100
,
0000
0001
0000
1000
,
0000
0010
0000
1000
,
0000
0100
0000
0010
,
0000
0001
0000
1000
,
0000
0010
0000
1000
,
0000
0001
0000
0010
,
0000
0100
0010
0110
;
