#TITLE:WE GO;
#SUBTITLE:;
#ARTIST:fromis_9;
#TITLETRANSLIT:;
#SUBTITLETRANSLIT:;
#ARTISTTRANSLIT:;
#CREDIT:;
#BANNER:WE GO.png;
#BACKGROUND:WE GO-bg.png;
#LYRICSPATH:;
#CDTITLE:;
#MUSIC:WE GO.mp3;
#OFFSET:0.920;
#SAMPLESTART:73.780;
#SAMPLELENGTH:15.000;
#SELECTABLE:YES;
#BPMS:0.000=124.000;
#STOPS:;
#BGCHANGES:1.620=WE GO.avi=1.000=0=0=0,
99999=-nosongbg-=1.000=0=0=0 // don't automatically add -songbackground-
;

//---------------dance-single - ----------------
#NOTES:
     dance-single:
     :
     Easy:
     4:
     0.238,0.275,0.136,0.173,0.000:
0000
0000
0000
0000
,
0000
0000
0000
0000
,
0000
0000
0000
0000
,
0000
0000
0000
0000
,
0000
0000
0000
0000
,
0010
1000
0010
0000
,
0100
0010
0100
0000
,
1000
0001
1000
0000
,
0001
0000
1000
0000
,
1002
1000
1003
0000
,
0010
0100
0010
0000
,
1000
0100
0010
0001
,
1000
0001
0010
0100
,
1001
0010
0000
0100
,
0010
0100
0000
0001
,
1000
0010
0000
1000
,
0100
0010
0000
0001
,
0100
1000
0000
1000
,
0010
0001
0000
0001
,
1000
0001
0000
1000
,
0010
0001
0000
0000
,
2002
0000
3003
0000
,
0010
0100
0010
0100
,
0120
0230
0310
0010
,
0000
1000
0000
0001
,
0000
1000
0001
1000
,
0000
0010
0100
0001
,
1002
2003
3001
1000
,
0000
0010
0000
0100
,
0000
0001
1000
0010
,
1000
0001
0100
0001
,
0002
0000
0003
0000
,
0020
0000
0030
0000
,
0200
0000
0300
0000
,
2000
0000
3000
0000
,
1000
0010
1000
0010
,
0001
0100
0001
1000
,
1000
0010
0100
0001
,
0100
0010
1000
0010
,
0210
0320
0130
0100
,
0000
0001
0000
1000
,
0000
0001
1000
0001
,
0000
0100
0010
1000
,
2001
3002
1003
0001
,
0000
0100
0000
0010
,
0000
1000
0001
0100
,
0001
1000
0010
1000
,
0010
1010
0010
1010
,
1000
0001
1000
0000
,
0100
0101
0100
0101
,
1000
0001
1000
0000
,
0120
0230
0310
0010
,
0000
1000
0001
1000
,
0000
0101
0000
1010
,
0000
0001
1000
2002
,
3003
0000
0000
0000
;

//---------------dance-single - ----------------
#NOTES:
     dance-single:
     :
     Beginner:
     1:
     0.174,0.224,0.082,0.045,0.000:
0000
0000
0000
0000
,
0000
0000
0000
0000
,
0000
0000
0000
0000
,
0000
0000
0000
0000
,
0000
0000
0000
0000
,
1001
0000
0000
0000
,
0001
0000
0000
0000
,
1000
0000
0000
0000
,
0001
0000
0000
0000
,
0110
0000
0000
0000
,
0010
0000
0000
0000
,
0100
0100
0100
0100
,
0100
0000
0000
0000
,
1000
0001
1000
0000
,
0010
0100
0010
0000
,
0001
0100
0001
0000
,
1000
0001
1000
0000
,
0010
0000
0100
0000
,
0001
0000
1000
0000
,
0010
0010
0010
0000
,
1000
0000
0001
0000
,
2000
0000
0000
3000
,
0010
0100
0010
0100
,
0110
0010
0010
0000
,
1000
0001
1000
0000
,
0001
0100
0001
0000
,
1000
0001
1000
0000
,
1001
1000
0001
0000
,
0010
0100
0010
0000
,
1000
0000
0100
0000
,
0010
0000
0001
0000
,
0002
0000
0003
0000
,
2000
0000
3000
0000
,
2000
0000
3000
0000
,
0020
0000
0030
0010
,
0000
0100
0000
1000
,
0000
0001
0000
0001
,
0000
0001
0001
0001
,
0000
1000
1000
1000
,
0110
0100
0100
0000
,
0001
1000
0001
0000
,
1000
0010
1000
0000
,
0001
1000
0001
0000
,
1001
0001
1000
0000
,
0100
0010
0100
0000
,
0001
0000
0010
0000
,
0100
0000
1000
0000
,
1000
0001
1000
0001
,
1000
0001
1000
0000
,
0001
1000
0001
1000
,
0001
1000
0001
0000
,
0110
1001
0110
0000
,
0000
0010
0000
0100
,
0000
0010
0000
1000
,
0000
0010
0010
0010
;

//---------------dance-single - ----------------
#NOTES:
     dance-single:
     :
     Medium:
     8:
     0.337,0.375,0.173,0.300,0.000:
0000
0000
0000
0000
,
0000
0000
0000
0000
,
0000
0000
0000
0000
,
0000
0000
0000
0000
,
0000
0000
0000
0001
,
1000
0001
0000
0010
,
0100
0010
0000
1000
,
0001
1000
0000
0100
,
0010
0100
0000
0000
,
1002
1003
0000
0000
,
2001
3001
0000
0000
,
0100
0010
1000
0001
,
0011
0100
1010
0000
,
1000
0010
0100
0000
0010
0000
1000
0000
,
0001
0100
0010
0000
0100
0000
0001
0000
,
1000
0001
1000
0000
0001
0000
0100
0000
,
0001
1000
0010
1000
,
0001
0001
0001
0000
0100
0000
0010
0000
,
0100
0010
0100
0000
0010
0000
1000
0000
,
0010
1000
0000
1000
,
0000
0100
0000
0010
,
0001
0000
0000
0010
0000
0000
0100
0000
,
0000
0100
0010
0110
,
0002
0003
0002
0003
0002
0003
0101
0000
,
0001
1000
0010
0000
0001
0100
0001
0000
,
1000
0010
0100
0000
0010
0100
1000
0000
,
1000
0001
1000
0000
0001
0100
0010
0000
,
0200
0300
0200
0300
0200
0300
0101
0000
,
0001
1000
0001
1000
0010
0100
1000
0000
,
0101
0000
0000
0110
0000
0000
1010
0000
,
0000
0010
0100
0000
0010
0000
0100
0000
,
0020
0000
0230
0000
,
0302
0000
0023
0000
,
0230
0000
2300
0000
,
3200
0000
0320
0000
,
1030
0010
0010
0000
0100
0000
0010
0000
,
0100
0100
0001
0000
0010
0000
0100
0000
,
2000
3010
0002
0103
,
0010
0100
0010
0100
,
2000
3000
2000
3000
2000
3000
1010
0000
,
1000
0001
0100
0000
1000
0010
1000
0000
,
0001
0100
0010
0000
0100
0010
0001
0000
,
0001
1000
0001
0000
1000
0010
0100
0000
,
0020
0030
0020
0030
0020
0030
1010
0000
,
1000
0001
1000
0001
0100
0010
0001
0000
,
1010
0000
0000
0110
0000
0000
0101
0000
,
0000
0100
0010
0000
0100
0000
0010
0000
,
0010
1000
0010
0000
0010
1000
0010
0000
,
2010
0000
3001
2000
0000
3000
0000
0000
,
0100
0001
0100
0000
0100
0001
0100
0000
,
0102
0000
1003
0002
0000
0003
0000
0000
,
2000
3000
0200
0300
0020
0030
0000
0000
,
1000
0010
0100
0000
0001
0100
0010
0000
,
1000
0001
1000
0000
0001
1000
0001
0000
,
0010
0100
0010
0000
0110
0000
2002
0000
,
3003
0000
0000
0000
;

//---------------dance-single - ----------------
#NOTES:
     dance-single:
     :
     Hard:
     14:
     0.517,0.550,0.218,0.227,0.487: // measure 1
0000
0000
0000
0000
,  // measure 2
0000
0000
0000
0000
,  // measure 3
0000
0000
0000
0000
,  // measure 4
0000
0000
0000
0000
,  // measure 5
0000
0000
1000
0000
0010
1000
0000
0010
0000
0100
0010
0000
0100
0000
0001
0000
,  // measure 6
0100
0001
0100
0001
0010
0000
0001
0000
0000
0000
0000
0000
1000
0010
0100
0010
,  // measure 7
1000
0000
0001
0000
0000
0000
0000
0100
0010
0100
0000
0010
0000
0100
0000
0001
,  // measure 8
0000
0000
0101
0000
0000
0000
0000
1000
0010
1000
0000
0010
0000
1000
0000
0001
,  // measure 9
0000
0000
0100
0000
0000
0000
0001
0100
0010
0000
1000
0000
0010
0000
0200
0000
,  // measure 10
0000
0000
0300
0000
0000
0000
1000
0001
1000
0000
0010
0000
0100
0000
0020
0000
,  // measure 11
0000
0030
0000
1000
0010
0001
0010
1000
,  // measure 12
0001
0100
0000
0000
1000
0010
0000
0000
0010
1000
0000
0000
1010
0000
0000
0000
,  // measure 13
2000
0000
3200
0000
0310
0001
0010
0100
,  // measure 14
1000
0000
0010
0000
0100
0000
0010
0100
0010
0000
0100
0000
0001
0000
1000
0000
,  // measure 15
0001
0000
1000
0000
0010
0000
0100
0010
1000
0000
0010
0000
0100
0000
0001
0000
,  // measure 16
0001
0010
0100
1000
0010
1000
0001
0200
,  // measure 17
0000
0000
0000
0000
0000
0000
0301
0000
0000
0000
0000
0000
0000
0000
0000
0100
0000
0000
0000
0000
0000
0000
0000
0000
0001
0000
0000
0000
0000
0000
0000
0000
1000
0000
0000
0000
0010
0000
0000
0000
1000
0000
0000
0000
0010
0000
0000
0000
,  // measure 18
1000
0000
0001
0000
0100
0000
0001
0000
0000
0100
0000
0000
0000
0000
0000
0000
0001
0000
0010
0000
0100
0000
1000
0000
,  // measure 19
0100
0000
0010
0000
0001
0000
0100
0000
0000
0001
0000
0000
0000
0000
0000
0001
0000
0000
1000
0000
0000
0001
0000
0000
,  // measure 20
0000
0000
0100
0000
0000
0010
0000
0000
0001
0000
0010
0000
0100
0000
1000
0000
,  // measure 21
0000
0000
1010
0000
0000
0000
0010
1000
0010
0000
1000
0000
0100
0000
0010
0000
,  // measure 22
0001
0000
0000
0100
0000
0000
0001
0000
0000
1000
0000
0000
0010
0000
0000
0000
,  // measure 23
0000
0000
1000
0000
0010
1000
0000
0010
0000
0100
0001
0000
0100
0000
0010
0000
,  // measure 24
2000
0000
0000
0000
0001
0000
0000
0000
3001
0000
0000
0000
1010
0000
0000
1000
,  // measure 25
0010
1000
0000
0100
0000
0010
0000
1000
0000
0001
0000
0100
0000
0000
0101
0000
,  // measure 26
0000
0000
0001
0100
0001
0100
0000
0010
0000
0000
0110
0000
0000
0000
1000
0010
,  // measure 27
1000
0001
0000
0100
0000
0000
1001
0000
0000
0000
1000
0000
0100
0000
0010
0000
,  // measure 28
0002
0000
0000
0000
0100
0000
0000
0000
1003
0000
0000
0000
1010
0000
0000
0001
,  // measure 29
0100
0010
0000
0100
0000
0001
0000
1000
0000
0010
0000
0100
0000
0000
0000
0000
,  // measure 30
0000
0010
0100
0010
0100
0000
0000
0100
,  // measure 31
0010
0100
0010
0000
0110
0000
1001
0000
,  // measure 32
2002
0000
0000
3003
0000
0000
1000
0000
0001
0000
1000
0000
0001
0000
0100
0000
0010
0000
0100
0000
0000
0000
0000
0000
,  // measure 33
0010
0000
0000
0001
1000
0001
1000
0010
0100
0010
0000
0000
,  // measure 34
0100
0000
0000
0000
0001
0000
0000
0100
0001
0000
0000
0000
0010
0000
0000
0000
,  // measure 35
0001
0000
0000
0000
1000
0000
0000
0010
1000
0000
0000
0000
0010
0000
0000
0000
,  // measure 36
1000
0000
0010
0000
1000
0000
0001
0000
0100
0000
0001
0010
0000
0000
0000
0000
,  // measure 37
1000
0000
0100
0000
0010
0000
0001
0000
1000
0000
0001
1000
0000
0000
0000
0000
,  // measure 38
0001
0000
0101
0000
1000
0000
1010
0100
,  // measure 39
0000
0000
1000
0000
0010
1000
0000
0001
0000
0000
1000
0000
0010
0000
0100
0000
,  // measure 40
0002
0000
0000
0000
1000
0000
0000
0000
1003
0000
0000
0000
0101
0000
0000
0001
,  // measure 41
0100
0001
0000
0010
0000
0100
0000
0001
0000
0000
1000
0000
0010
0000
1010
0000
,  // measure 42
0000
0000
1000
0010
1000
0010
0000
0100
0000
0000
0110
0000
0000
0000
0001
0100
,  // measure 43
0001
1000
0000
0010
0000
0000
1001
0000
0000
0000
0001
0000
0010
0000
0100
0000
,  // measure 44
2000
0000
0000
0000
0010
0000
0000
0000
3001
0000
0000
0000
0101
0000
0000
1000
,  // measure 45
0010
0100
0000
0010
0000
1000
0000
0001
0000
0000
0001
0000
0010
0000
0100
0000
,  // measure 46
2010
0000
3000
0120
0000
0030
0102
0000
,  // measure 47
0003
0000
0001
0000
0001
0100
0000
0001
0000
0000
1000
0000
0001
0000
1000
0000
,  // measure 48
0010
0000
1000
0010
0000
1000
0010
0000
0010
0000
1000
0010
0000
1000
0010
0000
,  // measure 49
2000
3200
0320
0032
0003
0001
1000
0001
,  // measure 50
0100
0000
0001
0100
0000
0001
0100
0000
0100
0000
0001
0100
0000
0001
0100
0000
,  // measure 51
0002
0023
0230
2300
3000
1000
0010
1000
,  // measure 52
0020
0000
0000
0000
0100
0000
0000
0000
0130
0000
0000
0000
0110
0000
0000
0010
,  // measure 53
1000
0010
0000
0100
0000
0010
0000
0001
0000
0000
1000
0000
0001
0000
0000
0000
,  // measure 54
0000
0001
0010
0100
1000
0000
0000
1000
,  // measure 55
0100
0010
0001
0000
0110
0000
2002
0000
,  // measure 56
3003
0000
0000
0000
;
