#TITLE:ViViD;
#SUBTITLE:;
#ARTIST:LOONA;
#TITLETRANSLIT:;
#SUBTITLETRANSLIT:;
#ARTISTTRANSLIT:;
#CREDIT:;
#BANNER:ViViD.png;
#BACKGROUND:ViViD-bg.png;
#LYRICSPATH:;
#CDTITLE:;
#MUSIC:ViViD.mp3;
#OFFSET:-0.020;
#SAMPLESTART:45.600;
#SAMPLELENGTH:15.000;
#SELECTABLE:YES;
#BPMS:0.000=106.000,136.000=53.000,140.000=106.000;
#STOPS:;
#BGCHANGES:-0.220=ViViD.avi=1.000=0=0=0,
99999=-nosongbg-=1.000=0=0=0 // don't automatically add -songbackground-
;

//---------------dance-single - ----------------
#NOTES:
     dance-single:
     :
     Easy:
     3:
     0.209,0.253,0.024,0.161,0.000:
0000
0001
0000
0001
,
0000
1000
0000
0010
,
0000
1000
0000
0010
,
0020
0230
0320
0030
,
0010
0100
0010
0000
,
1000
0100
1000
0000
,
0001
0100
0010
0000
,
0001
0001
0010
0000
,
0100
0010
0100
0000
,
0010
0001
1000
0000
,
0100
0010
1000
0000
,
0002
2003
3002
0003
,
0100
0001
0100
0010
,
0100
0010
2000
3000
,
0010
0100
0001
0010
,
0001
1000
0002
0000
,
0003
0100
0010
0001
,
0000
0010
0100
1000
,
0000
0101
0000
1100
,
2000
0000
3200
0000
2300
0000
3100
0100
,
0000
0010
1000
0010
,
0000
0100
0001
0010
,
0000
0001
0001
0100
,
0000
1000
2000
0002
,
3003
0001
0100
1000
,
0000
0001
0100
0010
,
0000
0100
0001
0010
,
0000
0001
1000
0010
,
0000
0100
0001
1000
,
0000
1000
1000
0100
,
0000
0010
0100
1000
,
0000
0100
0010
0001
,
0000
0010
1000
0001
,
0000
0100
0001
1000
,
2000
3002
2003
0000
,
3001
0000
0100
0000
0001
0000
1000
1000
,
0000
0100
0001
0100
,
0000
0010
1000
0100
,
0000
1000
1000
0010
,
0000
0001
0002
2000
,
3003
1000
0010
0001
,
0000
1000
0010
0100
,
0000
0010
1000
0100
,
0000
1000
0001
0100
,
0000
0010
0010
0010
0000
0010
0010
0010
,
0000
1000
0000
0010
,
0000
0100
0000
0001
,
0000
1000
0000
0010
,
0000
1000
1000
1000
0000
1000
1000
1000
,
0000
0010
0000
1000
,
0000
0001
0000
0100
,
0000
0001
0000
0100
,
2002
3003
0000
0000
;

//---------------dance-single - ----------------
#NOTES:
     dance-single:
     :
     Beginner:
     1:
     0.131,0.147,0.016,0.032,0.000:
0000
0000
0000
0000
,
0000
0000
0000
0000
,
0000
0000
0000
0000
,
0000
0000
0000
0000
,
0000
0100
0000
0010
,
0000
1000
0000
0001
,
0000
0100
0000
0001
,
0000
1000
0000
0010
,
0000
0100
0000
0010
,
0000
1000
0000
0001
,
0000
0100
0000
0001
,
0000
0010
0000
0001
,
0000
0001
0000
0001
,
0000
0001
0001
0001
,
0000
0010
0000
1000
,
0000
1000
1000
1000
,
0000
0010
0000
1000
,
0000
0100
0100
0100
,
0000
1001
0000
0110
,
0000
0020
0000
0030
,
0000
0010
0000
1000
,
0000
0001
0000
0100
,
0000
0100
0100
0100
,
0000
0010
0010
0010
,
0000
1000
0000
0010
,
0000
0100
0000
0001
,
0000
1000
1000
1000
,
0000
0001
0001
0001
,
0000
1000
0000
0010
,
0000
1000
0000
0001
,
0000
0100
0000
0001
,
0000
1000
0000
0010
,
0000
1000
0000
0001
,
0000
0100
0000
0001
,
0002
0003
2000
3000
,
1000
1000
1000
0000
,
0000
0100
0000
0001
,
0000
1000
0000
0010
,
0000
0010
0010
0010
,
0000
0100
0100
0100
,
0000
0001
0000
0100
,
0000
0010
0000
1000
,
0000
0001
0001
0001
,
0000
1000
1000
1000
,
0000
0010
0000
0100
,
0000
0001
0000
1000
,
0000
0001
0000
0100
,
0000
0001
0000
1000
,
0000
0010
0000
0100
,
0000
0001
0000
1000
,
0000
0010
0000
1000
,
0000
0010
0000
0100
,
0200
0300
0000
0000
;

//---------------dance-single - ----------------
#NOTES:
     dance-single:
     :
     Medium:
     6:
     0.297,0.295,0.040,0.081,0.004:
0000
0000
0000
0000
0100
0010
0100
0000
,
0010
0100
0010
0000
1000
0001
1000
0000
,
0001
1000
0001
0000
1000
0010
1000
0000
,
0001
0100
0001
1000
,
0010
1000
0010
0000
0100
0001
0100
0000
,
0001
0001
0001
0000
1000
1000
1000
0000
,
0010
1000
0001
0100
,
0002
0203
0302
0103
,
0001
0010
0100
0000
0100
0010
1000
0000
,
1000
0010
0001
0000
0001
0100
1000
0000
,
1000
0010
1000
0010
,
2000
3002
2003
3010
,
1000
0010
0100
0001
,
0100
0001
0110
1001
,
0010
0100
0001
1000
,
0010
1000
0001
0100
,
0001
0100
0010
1000
,
0100
1000
0001
0100
,
0010
0010
0010
0000
1000
0001
0001
0000
,
1001
0000
0110
0000
1001
0000
0100
0010
,
0000
0000
0100
0010
1000
0000
1000
1000
,
0000
0000
0010
1000
0001
0000
0001
0001
,
0000
0001
0010
0100
0000
0010
0010
0000
,
1000
0010
1000
0001
,
1000
0000
0010
0001
0100
0000
0100
0100
,
0000
0000
0001
0100
1000
0000
1000
1000
,
0000
1000
0001
0010
0000
0001
0001
1000
,
0000
0010
0001
0000
0100
0000
1000
0000
,
0010
1000
0010
0100
,
0001
0100
0010
1000
,
0001
0100
0001
1000
,
0010
0100
0010
1000
,
0001
0100
0001
1000
,
0010
0100
0010
1000
,
0002
0023
0230
0000
,
0310
0000
1000
0000
0010
0000
1000
0001
,
0000
0000
0010
0100
0001
0000
0001
0001
,
0000
0000
0100
0001
1000
0000
1000
1000
,
0000
0000
1000
0000
0100
0000
0010
0000
0100
0000
0000
0010
0000
0000
0000
0000
,
0001
0100
0001
1000
,
0001
0000
0100
1000
0010
0000
0010
0010
,
0000
0000
1000
0010
0001
0000
0001
0001
,
0000
0001
1000
0100
0000
1000
1000
0001
,
0000
0100
1000
0000
0010
0000
0001
0000
,
0100
0001
0100
0001
0000
1000
0010
1000
,
0000
1000
0010
0100
,
0001
0100
0001
1000
,
0010
1000
0010
1000
,
0001
0010
0100
1000
0000
0100
0010
0001
,
0000
0001
0100
0010
,
0100
0001
1000
0010
,
0100
0001
1000
0010
,
2000
3000
0000
0000
;

//---------------dance-single - ----------------
#NOTES:
     dance-single:
     :
     Hard:
     12:
     0.395,0.379,0.032,0.121,0.222: // measure 1
0000
0100
0001
0010
0001
0100
0010
0001
,  // measure 2
0000
0100
0010
1000
0010
1000
0010
0100
,  // measure 3
0000
0001
1000
0010
1000
0001
0100
0001
,  // measure 4
2000
3020
2030
3001
,  // measure 5
1000
0010
1000
0000
0100
0010
0001
0000
,  // measure 6
0010
0001
0010
0000
0100
0010
0100
0000
,  // measure 7
1000
0100
1000
0100
0001
0010
0001
0010
,  // measure 8
0001
0100
0010
1000
0100
1000
0001
0000
,  // measure 9
0001
0100
0001
0000
0010
0100
1000
0000
,  // measure 10
0100
1000
0100
0000
0010
0100
0010
0000
,  // measure 11
0001
0010
0001
0010
1000
0100
1000
0100
,  // measure 12
2000
3200
0320
0032
,  // measure 13
1003
0000
0000
0010
0001
0010
1000
0010
,  // measure 14
0000
0100
0010
0100
0010
0000
1000
0000
,  // measure 15
1001
0010
0100
1000
0100
0010
0100
1000
,  // measure 16
0000
0001
0100
0002
0000
0000
0000
0003
,  // measure 17
0000
0010
0001
0010
0001
0000
0100
0000
,  // measure 18
0000
0010
1000
0001
0100
0000
0010
0000
,  // measure 19
0100
0000
1000
0100
0000
1000
0000
0000
0001
0000
0100
0001
0000
0100
0000
0000
,  // measure 20
1001
0000
0110
0000
1001
0000
0010
0010
,  // measure 21
0000
0000
0100
0000
0010
0100
0000
0010
0000
0000
0000
0000
1000
0000
0001
0000
,  // measure 22
0000
0000
1000
0000
0001
0000
1000
0001
0000
0100
0000
0000
0001
0000
0010
0000
,  // measure 23
0000
0000
0001
0000
0100
0001
0000
0000
0010
0000
0000
0100
0000
0000
0001
0000
,  // measure 24
0010
0000
0100
0000
1000
0010
0000
2000
0000
0000
0000
0000
3001
0000
1000
0000
,  // measure 25
0000
0000
0010
0000
0001
0010
0000
0001
0000
0000
0000
0000
0100
0000
1000
0000
,  // measure 26
0000
0000
0100
0000
1000
0000
0100
1000
0000
0010
0000
0000
1000
0000
0001
0000
,  // measure 27
1000
0010
1000
0010
0000
0100
0000
0000
0001
0100
0001
0100
0000
0001
0000
0000
,  // measure 28
0000
0000
0010
0000
0100
0000
0000
0100
0010
0000
0000
0010
0100
0000
0000
0100
,  // measure 29
0010
0000
1000
0000
0010
0000
0010
0001
,  // measure 30
0000
0100
0010
0001
0100
0000
1000
0000
,  // measure 31
0002
0000
0003
0000
0000
0010
0010
0100
,  // measure 32
0010
0000
0000
1000
0000
0000
0010
0000
0000
0000
0100
0000
1000
0000
0000
0000
,  // measure 33
0100
0000
0001
0000
0100
0000
0100
1000
,  // measure 34
0000
0010
0100
1000
0010
1000
0000
0001
,  // measure 35
2000
3020
2030
0000
,  // measure 36
3000
0000
1000
0000
0100
0000
0010
0001
,  // measure 37
0000
0000
0010
0000
0100
0010
0000
0100
0000
0000
0000
0000
0001
0000
1000
0000
,  // measure 38
0000
0000
0001
0000
1000
0000
0001
1000
0000
0010
0000
0000
1000
0000
0100
0000
,  // measure 39
0000
0000
1000
0000
0010
1000
0000
0000
0100
0000
0000
0010
0000
0000
1000
0000
,  // measure 40
0100
0000
0010
0000
0001
0100
0000
0002
0000
0000
0000
0000
1003
0000
0001
0000
,  // measure 41
0000
0000
0100
0000
1000
0100
0000
1000
0000
0000
0000
0000
0010
0000
0001
0000
,  // measure 42
0000
0000
0010
0000
0001
0000
0010
0001
0000
0100
0000
0000
0001
0000
1000
0000
,  // measure 43
0001
0100
0001
0100
0000
0010
0000
0000
1000
0010
1000
0010
0000
1000
0000
0000
,  // measure 44
0000
0000
0100
0000
0010
0000
0000
0010
0100
0000
0000
0100
0010
0000
0000
0010
,  // measure 45
0100
0010
0001
0100
0000
0010
1000
0010
,  // measure 46
0000
1000
0100
1000
0010
0000
0001
0000
,  // measure 47
0000
0001
0100
0001
0100
0010
1000
0100
,  // measure 48
0000
0001
0100
1000
0010
0000
0100
0000
,  // measure 49
0010
0100
1000
0010
0000
0100
0001
0100
,  // measure 50
0000
0001
0010
0001
0100
0000
1000
0000
,  // measure 51
1000
0010
1000
0010
0000
0100
0000
0000
0010
0001
0100
0001
0000
0100
0000
0000
,  // measure 52
0000
0000
1000
0000
0010
0000
0000
0001
0100
0000
1000
0000
0010
0000
0000
0001
,  // measure 53
2000
3000
0000
0000
;
