#TITLE:Touch Me (All Night Long) [7" Mix];
#SUBTITLE:;
#ARTIST:Cathy Dennis;
#TITLETRANSLIT:;
#SUBTITLETRANSLIT:;
#ARTISTTRANSLIT:;
#CREDIT:;
#BANNER:Touch Me (All Night Long) [7 Mix].png;
#BACKGROUND:Touch Me (All Night Long) [7 Mix]-bg.png;
#LYRICSPATH:;
#CDTITLE:;
#MUSIC:Touch Me (All Night Long) [7 Mix].mp3;
#OFFSET:1.060;
#SAMPLESTART:114.900;
#SAMPLELENGTH:15.000;
#SELECTABLE:YES;
#BPMS:0.000=118.000;
#STOPS:;
#BGCHANGES:;

//---------------dance-single - ----------------
#NOTES:
     dance-single:
     :
     Easy:
     4:
     0.186,0.214,0.125,0.000,0.000:
0000
0000
0000
0000
,
0000
0000
0000
0000
,
0000
0000
0000
0000
,
0000
0000
0000
0000
,
0000
0000
0000
0000
,
0001
0000
0100
0000
,
0001
0000
1000
0000
,
0010
0000
1000
0000
,
0001
0100
0001
0000
,
1001
0000
0010
0100
,
0010
0000
1000
0010
,
0100
0000
0001
0010
,
0001
0000
0100
0010
,
0101
0000
0010
0100
,
0010
0000
0100
0001
,
1000
0000
0100
1000
,
0001
0000
0100
0010
,
0110
0000
0001
0100
,
0001
0000
1000
0100
,
0010
0000
0100
0010
,
1000
0000
0100
0010
,
0001
0000
1000
0001
,
1000
0000
1000
0010
,
0001
0000
0001
0100
,
0001
0000
0100
0010
,
1000
0000
1000
0000
,
1000
0100
1000
0000
,
0010
0000
0100
0000
,
0010
0001
0100
0000
,
1001
0110
0000
0010
,
0100
0010
0100
0000
,
0001
0001
0000
0000
,
1000
0010
1000
0000
,
1010
0101
0000
0001
,
0010
0100
1000
0000
,
0010
0010
0000
0000
,
0100
0001
0100
0000
,
0110
1001
0000
0001
,
1000
0001
1000
0000
,
0100
0100
0000
0000
,
0010
0001
0010
0000
,
0011
1100
0000
0100
,
0001
1000
0010
0000
,
0001
0001
0000
0000
,
1000
0100
1000
0000
,
1001
0000
0001
0000
,
0100
0000
0010
0000
,
1000
0000
0010
0000
,
0100
0000
0010
0000
,
0001
0000
1000
0000
,
0010
0000
0001
0000
,
0010
0000
1000
0000
,
0010
0000
0100
0000
,
0001
0000
0001
0000
,
0001
0010
0001
0000
,
0100
0000
0010
0000
,
0100
1000
0010
0000
,
1001
0110
0000
0100
,
0010
0100
0010
0000
,
1000
1000
0000
0000
,
0001
0100
0001
0000
,
0101
1010
0000
1000
,
0100
0010
0001
0000
,
0100
0100
0000
0000
,
0010
1000
0010
0000
,
0110
1001
0000
1000
,
0001
1000
0001
0000
,
0010
0010
0000
0000
,
0100
1000
0100
0000
;

//---------------dance-single - ----------------
#NOTES:
     dance-single:
     :
     Beginner:
     1:
     0.156,0.143,0.049,0.000,0.000:
0000
0000
0000
0000
,
0000
0000
0000
0000
,
0000
0000
0000
0000
,
0000
0000
0000
0000
,
0000
0000
0000
0000
,
0000
1000
0000
0001
,
0000
0100
0000
0001
,
0000
0010
0000
1000
,
0000
0010
0000
0001
,
0000
1000
0000
0001
,
0000
1000
0000
0001
,
0000
0100
0000
0010
,
0000
0100
0000
0010
,
0000
1000
0000
0001
,
0000
0100
0000
0001
,
0000
1000
0000
1000
,
0000
0010
0000
0100
,
0000
0010
0000
1000
,
0000
0001
0000
1000
,
0000
0010
0000
0100
,
0000
0010
0000
1000
,
0000
0010
0000
0100
,
0000
0001
0000
0100
,
0000
0010
0000
1000
,
0000
0010
0000
0100
,
0000
0001
0001
0001
,
0000
1000
1000
1000
,
0000
0010
0010
0010
,
0000
0100
0100
0100
,
0000
0010
0010
0010
,
0000
0100
0100
0100
,
0000
0100
0000
0010
,
0000
1000
0000
1001
,
0000
1000
1000
1000
,
0000
0001
0001
0001
,
0000
1000
0000
0001
,
0000
1000
0000
0110
,
0000
1000
1000
1000
,
0000
0001
0001
0001
,
0000
0001
0000
1000
,
0000
0100
0000
0110
,
0000
0100
0100
0100
,
0000
0010
0010
0010
,
0000
0100
0000
0010
,
0000
0100
0000
1001
,
0000
0001
0000
1000
,
0000
0001
0000
1000
,
0000
0010
0000
0100
,
0000
0001
0000
0100
,
0000
0010
0000
1000
,
0000
0001
0000
0100
,
0000
0001
0000
1000
,
0000
0001
0000
1000
,
0000
1000
1000
1000
,
0000
0001
0001
0001
,
0000
0100
0100
0100
,
0000
0010
0010
0010
,
0000
0100
0100
0100
,
0000
0010
0010
0010
,
0000
0010
0000
0100
,
0000
0001
0000
1001
,
0000
0001
0001
0001
,
0000
1000
1000
1000
,
0000
0001
0000
1000
,
0000
0001
0000
0110
,
0000
0001
0001
0001
,
0000
1000
1000
1000
,
0000
1000
0000
0001
,
0000
0010
0000
0110
;

//---------------dance-single - ----------------
#NOTES:
     dance-single:
     :
     Medium:
     7:
     0.308,0.309,0.062,0.271,0.076:
0000
0000
0000
0000
,
0000
0000
0000
0000
,
0000
0000
0000
0000
,
0000
0000
0000
0000
,
0000
0000
0000
0000
,
1000
0000
0000
0000
0010
0000
0000
0000
1000
0000
0000
0010
0000
1000
0000
0000
,
0001
0000
0000
0000
0100
0000
0000
0000
0001
0000
0000
0100
0000
0001
0000
0000
,
0001
0000
0000
0000
0010
0000
0000
0000
0100
0000
0000
1000
0000
0010
0000
0000
,
1000
0000
0000
0000
0010
0000
0000
0000
0001
0000
0000
0010
0000
1000
0000
0000
,
0010
0000
0100
0000
0010
1000
0010
0000
,
0100
0000
0001
0000
0010
0001
0010
0000
,
0001
0000
0010
0000
0100
0010
1000
0000
,
0002
0003
0002
0003
0002
0003
0002
0003
,
1000
0000
0000
0000
1000
0010
1000
0000
,
0010
0000
0100
0000
0001
0010
0001
0000
,
0100
0000
0010
0000
1000
0100
1000
0000
,
1000
0000
0010
0000
1000
0000
0010
1000
,
0100
0000
0010
0000
0100
0001
0100
0000
,
0010
0000
1000
0000
0100
1000
0100
0000
,
1000
0000
0100
0000
0010
0100
0001
0000
,
0000
1000
0000
1000
,
0001
0000
1000
0000
0001
0100
0001
0000
,
0100
0000
0010
0000
1000
0100
1000
0000
,
0010
0000
0100
0000
0001
0010
0001
0000
,
0001
0000
0100
0000
0001
0100
0010
0000
,
1000
0100
1000
0000
,
0001
0100
0010
0000
,
0100
0001
0001
0000
,
1000
0001
1000
0000
,
0120
0000
0000
0000
0130
0000
0000
0000
0010
0000
0000
0100
0000
0000
0000
0000
,
0002
0000
0000
0000
0013
0000
0000
0000
0001
0000
0000
0100
0000
0000
0000
0000
,
0010
0010
0100
0100
,
0002
0003
0200
0300
0002
0003
0000
0000
,
2001
0000
0000
0000
3001
0000
0000
0000
1000
0000
0000
0001
0000
0000
0000
0000
,
0020
0000
0000
0000
1030
0000
0000
0000
0010
0000
0000
0001
0000
0000
0000
0000
,
1000
1000
0001
0001
,
0020
0030
0002
0003
0020
0030
0000
0000
,
0201
0000
0000
0000
0301
0000
0000
0000
0100
0000
0000
0001
0000
0000
0000
0000
,
2000
0000
0000
0000
3100
0000
0000
0000
1000
0000
0000
0001
0000
0000
0000
0000
,
0100
0100
0001
0001
,
2000
3000
0002
0003
2000
3000
0000
0000
,
1020
0000
0000
0000
1030
0000
0000
0000
0010
0000
0000
1000
0000
0000
0000
0000
,
0200
0000
0000
0000
0310
0000
0000
0000
0100
0000
0000
1000
0000
0000
0000
0000
,
0010
0010
1000
1000
,
0200
0300
2000
3000
0200
0300
0000
0000
,
1001
0000
0000
0010
1000
0010
0000
0000
,
0000
0100
0000
0001
0100
0010
0100
0001
,
1000
0000
0000
0010
0100
0001
0000
0000
,
0000
0100
0000
0001
1000
0010
1000
0001
,
1001
0000
0000
0100
0001
0100
0000
0000
,
0000
0010
0000
1000
0010
0100
0010
1000
,
0001
0000
0000
0100
0010
1000
0000
0000
,
0000
0010
0000
1000
0001
0100
0001
0000
,
0001
0010
0001
0000
,
1000
0010
0100
0000
,
0010
1000
1000
0000
,
0001
1000
0001
0000
,
0210
0000
0000
0000
0310
0000
0000
0000
0100
0000
0000
0010
0000
0000
0000
0000
,
2000
0000
0000
0000
3100
0000
0000
0000
1000
0000
0000
0010
0000
0000
0000
0000
,
0100
0100
0010
0010
,
2000
3000
0020
0030
2000
3000
0000
0000
,
1002
0000
0000
0000
1003
0000
0000
0000
0001
0000
0000
1000
0000
0000
0000
0000
,
0200
0000
0000
0000
0301
0000
0000
0000
0100
0000
0000
1000
0000
0000
0000
0000
,
0001
0001
1000
1000
,
0200
0300
2000
3000
0200
0300
0000
0000
,
1020
0000
0000
0000
1030
0000
0000
0000
0010
0000
0000
1000
0000
0000
0000
0000
,
0002
0000
0000
0000
0013
0000
0000
0000
0001
0000
0000
1000
0000
0000
0000
0000
,
0010
0010
1000
1000
,
0002
0003
2000
3000
0002
0003
0000
0000
;

//---------------dance-single - ----------------
#NOTES:
     dance-single:
     :
     Hard:
     10:
     0.353,0.333,0.139,0.250,0.146: // measure 1
0000
0000
0000
0000
,  // measure 2
0000
0000
0000
0000
,  // measure 3
0000
0000
0000
0000
,  // measure 4
0000
0000
0000
0000
,  // measure 5
0000
0000
0000
0000
,  // measure 6
0001
0000
0000
0000
0100
0000
0000
0000
0001
0000
0000
0100
0000
1000
0000
0000
,  // measure 7
1000
0000
0000
0000
0010
0000
0000
0000
0001
0000
0000
0010
0000
0001
0000
0000
,  // measure 8
0100
0000
0000
0000
0010
0000
0000
0000
0100
0000
0000
0010
0000
1000
0000
0000
,  // measure 9
0100
0000
0000
0000
0001
0000
0000
0000
1000
0000
0000
0010
0000
0100
0000
0000
,  // measure 10
1001
0000
0001
0000
0100
0010
0010
0000
,  // measure 11
1000
0000
0010
0000
1000
0010
0100
0000
,  // measure 12
0001
0100
0010
0100
0001
0100
1000
0000
,  // measure 13
2000
3000
0002
0003
2000
3000
0020
0030
,  // measure 14
1000
0000
0001
0000
0100
0010
0001
0000
,  // measure 15
0100
0000
0001
0000
0010
0001
1000
0000
,  // measure 16
1000
0000
0000
0000
0100
0000
0000
0000
1000
0000
0000
0010
0000
0000
1000
0000
,  // measure 17
0000
0000
0010
0010
0100
0000
0010
1000
,  // measure 18
1010
0000
1000
0000
0010
0100
0100
0000
,  // measure 19
0001
0000
0100
0000
0001
0100
0010
0000
,  // measure 20
1000
0010
0100
0010
1000
0010
0001
0000
,  // measure 21
0001
1000
0001
0100
,  // measure 22
0001
0000
1000
0000
0010
0100
1000
0000
,  // measure 23
0010
0000
1000
0000
0100
1000
0001
0000
,  // measure 24
0001
0000
0000
0000
0010
0000
0000
0000
0001
0000
0000
0100
0000
0000
0001
0000
,  // measure 25
0000
0000
0100
0100
0010
0000
0100
0000
,  // measure 26
0101
0000
0001
0100
0010
0000
0100
0010
,  // measure 27
1000
0000
0000
0000
0010
0000
0000
0000
1000
0000
0000
0010
0000
0000
1000
0000
,  // measure 28
0010
0000
0000
0100
0000
0000
0001
0000
0010
0000
0000
0000
0100
0000
0000
0000
,  // measure 29
0010
1000
0001
1000
,  // measure 30
0120
0000
0000
0000
0130
0000
0000
0000
0100
0000
0000
0010
0000
1000
0000
0000
,  // measure 31
0001
0000
0000
0000
0100
0000
0000
0000
0001
0000
0000
0100
0000
0001
0000
0000
,  // measure 32
0010
0101
0010
1000
,  // measure 33
2000
3000
0020
0030
2000
3000
0000
0000
,  // measure 34
2001
0000
0000
0000
3001
0000
0000
0000
0001
0000
0000
1000
0000
0100
0000
0000
,  // measure 35
0010
0000
0000
0000
0001
0000
0000
0000
0010
0000
0000
0001
0000
0010
0000
0000
,  // measure 36
1000
0011
1000
0100
,  // measure 37
0200
0300
2000
3000
0200
0300
0000
0000
,  // measure 38
0201
0000
0000
0000
0301
0000
0000
0000
0001
0000
0000
0100
0000
0010
0000
0000
,  // measure 39
1000
0000
0000
0000
0001
0000
0000
0000
1000
0000
0000
0001
0000
1000
0000
0000
,  // measure 40
0100
1001
0100
0010
,  // measure 41
0020
0030
0200
0300
0020
0030
0000
0000
,  // measure 42
1020
0000
0000
0000
1030
0000
0000
0000
1000
0000
0000
0010
0000
0001
0000
0000
,  // measure 43
0100
0000
0000
0000
1000
0000
0000
0000
0100
0000
0000
1000
0000
0100
0000
0000
,  // measure 44
0010
1100
0010
0001
,  // measure 45
0002
0003
0020
0030
0002
0003
0000
0000
,  // measure 46
0202
0303
0000
0001
0010
0100
0000
0000
,  // measure 47
0000
0010
0000
1000
0010
0001
0010
1000
,  // measure 48
0010
0000
0000
1000
1000
0010
0000
0000
,  // measure 49
0000
0100
0000
0010
0100
0010
0100
0010
,  // measure 50
2002
3003
0000
1000
0100
0010
0000
0000
,  // measure 51
0000
0100
0000
0001
0100
1000
0100
0001
,  // measure 52
0100
0000
0000
0001
0001
0100
0000
0000
,  // measure 53
0000
0010
0000
0100
0010
0100
0010
0100
,  // measure 54
1001
0000
1000
0010
0100
0000
0010
0100
,  // measure 55
0001
0000
0000
0000
0100
0000
0000
0000
0001
0000
0000
0100
0000
0000
0001
0000
,  // measure 56
0100
0000
0000
0010
0000
0000
1000
0000
0100
0000
0000
0000
0010
0000
0000
0000
,  // measure 57
0100
0001
1000
0001
,  // measure 58
0210
0000
0000
0000
0310
0000
0000
0000
0010
0000
0000
0100
0000
0001
0000
0000
,  // measure 59
1000
0000
0000
0000
0010
0000
0000
0000
1000
0000
0000
0010
0000
1000
0000
0000
,  // measure 60
0100
1010
0100
0001
,  // measure 61
0002
0003
0200
0300
0002
0003
0000
0000
,  // measure 62
1002
0000
0000
0000
1003
0000
0000
0000
1000
0000
0000
0001
0000
0010
0000
0000
,  // measure 63
0100
0000
0000
0000
1000
0000
0000
0000
0100
0000
0000
1000
0000
0100
0000
0000
,  // measure 64
0001
1100
0001
0010
,  // measure 65
0020
0030
0002
0003
0020
0030
0000
0000
,  // measure 66
1020
0000
0000
0000
1030
0000
0000
0000
1000
0000
0000
0010
0000
0100
0000
0000
,  // measure 67
0001
0000
0000
0000
1000
0000
0000
0000
0001
0000
0000
1000
0000
0001
0000
0000
,  // measure 68
0010
1001
0010
0100
,  // measure 69
0200
0300
0020
0030
0200
0300
0000
0000
;
