#TITLE:Top Of The World (feat. Dev);
#SUBTITLE:;
#ARTIST:The Cataracs;
#TITLETRANSLIT:;
#SUBTITLETRANSLIT:;
#ARTISTTRANSLIT:;
#CREDIT:;
#BANNER:Top Of The World (feat. Dev).png;
#BACKGROUND:Top Of The World (feat. Dev)-bg.png;
#LYRICSPATH:;
#CDTITLE:;
#MUSIC:Top Of The World (feat. Dev).mp3;
#OFFSET:-0.440;
#SAMPLESTART:71.460;
#SAMPLELENGTH:15.000;
#SELECTABLE:YES;
#BPMS:0.000=125.000;
#STOPS:;
#BGCHANGES:;

//---------------dance-single - ----------------
#NOTES:
     dance-single:
     :
     Easy:
     5:
     0.234,0.308,0.079,0.337,0.000:
0000
0000
0000
0000
,
0000
0000
0000
0000
,
0000
0000
0000
0000
,
0000
0000
0000
0000
,
0000
0000
0000
0000
,
2002
0000
0000
0000
,
3003
0000
0000
0000
,
0220
0000
0000
0000
,
0330
0000
0000
0000
,
0001
0000
1000
0000
,
0001
0000
1000
0000
,
2000
3100
0002
0013
,
0001
1000
0200
0310
,
0000
0100
0010
1000
,
0000
0001
0100
0001
,
0200
0301
0020
1030
,
0010
0100
0002
1003
,
0000
0001
1000
0100
,
0000
0010
0001
0010
,
0002
0013
2000
3100
,
1000
0001
0020
0130
,
0000
0010
0100
0001
,
0000
1000
0010
1000
,
2000
0100
3100
0000
,
0200
1000
1300
0000
,
0002
0010
0013
0000
,
0020
0001
0031
0000
,
0020
0030
0002
0003
,
2000
3000
0020
0030
,
0010
0100
0010
0000
,
1000
1000
0100
0000
,
0001
0010
0100
0000
,
0010
0100
1000
0000
,
0100
0200
0001
0302
,
0200
0303
0100
0010
,
0100
0020
1000
2030
,
0002
3003
0000
0001
,
0100
0001
0000
0010
,
0001
0100
0000
0010
,
1000
0100
0000
1000
,
0100
0010
0000
0100
,
0010
0001
0000
0010
,
0001
0001
0000
0100
,
0010
0100
0000
0010
,
1000
2000
0000
0000
,
3001
1000
0001
0000
0000
0000
0000
0000
,
0002
0000
0003
0000
,
0020
0000
0030
0000
,
0002
0000
0003
0000
,
2000
0000
3000
0000
,
0200
0000
0300
0000
,
2000
0000
3000
0000
,
0020
0000
0030
0000
,
2000
0000
3000
0000
,
2010
0010
3010
0000
,
0120
0100
0130
0000
,
0102
0100
0103
0000
,
2001
0001
3001
0000
,
1002
1000
1003
0000
,
0120
0100
0130
0000
,
0210
0010
0310
0000
,
0220
0000
0330
0000
,
0000
0000
0000
0000
,
1000
0100
1000
0000
,
0100
0010
0100
0000
,
0001
0100
0010
0000
,
0100
0010
1000
0000
,
0100
0010
0001
0000
,
0100
0010
1000
0000
,
0001
1000
0001
0000
,
1000
0001
1000
0000
,
2002
0000
3003
0000
;

//---------------dance-single - ----------------
#NOTES:
     dance-single:
     :
     Beginner:
     2:
     0.155,0.205,0.050,0.072,0.000:
0000
0000
0000
0000
,
0000
0000
0000
0000
,
0000
0000
0000
0000
,
0000
0000
0000
0000
,
0000
0000
0000
0000
,
2002
0000
0000
0000
,
3003
0000
0000
0000
,
0220
0000
0000
0000
,
0330
0000
0000
0000
,
0000
0000
0000
0000
,
0000
0000
0000
0000
,
0000
1000
0000
0001
,
0000
1000
0000
0001
,
0000
0100
0000
0010
,
0000
0100
0000
0010
,
0000
0001
0000
0001
,
0000
0100
0000
0100
,
0000
0010
0000
1000
,
0000
0010
0000
0000
,
0000
1000
0000
0001
,
0000
0010
0000
0001
,
0000
0100
0000
1000
,
0000
0100
0000
0000
,
1000
1000
1000
0000
,
0001
0001
0001
0000
,
0001
0001
0001
0000
,
0100
0100
0100
0000
,
0010
0000
0010
0000
,
0100
0000
0100
0000
,
2002
0000
3003
0000
,
1000
0000
0001
0000
,
0100
0000
0010
0000
,
1000
0000
0001
0000
,
0001
0001
0001
0000
,
1000
1000
1000
0000
,
0010
0010
0010
0000
,
0100
0100
0100
0000
,
0000
1001
0000
0010
,
0000
0100
0000
0001
,
0000
0100
0000
0010
,
0000
1000
0000
0001
,
0000
0001
0000
0100
,
0000
0010
0000
1000
,
0000
0010
0000
1000
,
2000
0000
0000
0000
,
3000
0000
0000
0000
,
1000
0000
0001
0000
,
0001
0000
0100
0000
,
0010
0000
1000
0000
,
0100
0000
1000
0000
,
0010
0000
0100
0000
,
0010
0000
0100
0000
,
0001
0000
0010
0000
,
0001
0000
1000
0000
,
0110
1001
0000
1000
,
0000
0001
0001
0001
,
0000
0001
0000
0100
,
0000
0010
0010
0010
,
0000
1000
0000
0010
,
0000
0100
0100
0100
,
0000
0010
0000
0001
,
0002
0000
0000
0000
,
0003
0000
0000
0000
,
0001
1000
0001
0000
,
1000
0001
1000
0000
,
0010
0100
0010
0000
,
0100
0010
0100
0000
,
0010
0100
0010
0000
,
1000
0100
1000
0000
,
0001
0010
0001
0000
,
0001
1000
0001
0000
,
2002
0000
3003
0000
;

//---------------dance-single - ----------------
#NOTES:
     dance-single:
     :
     Medium:
     8:
     0.360,0.436,0.029,0.495,0.022:
0000
0000
0000
0000
,
0000
0000
0000
0000
,
0000
0000
0000
0000
,
0000
0000
0000
0000
,
0000
0000
0000
0000
,
2002
0000
0000
0000
,
3003
0000
0000
0000
,
0020
0000
0000
0000
,
0030
0000
0000
0000
,
0010
0100
0010
0000
0100
0010
0100
0000
,
0002
0000
2003
0000
,
3001
0000
0100
0000
0001
0100
0001
0000
,
1000
0000
0010
0000
1000
0010
0001
0000
,
0010
0000
0100
0000
1000
0010
0100
0000
,
0001
0000
0100
0000
0001
1000
0010
0000
,
0100
0010
0100
0000
0001
0010
0001
0000
,
1000
0100
1000
0000
0001
1000
0001
0000
,
0100
0001
0010
0000
0100
0010
1000
0000
,
1000
0001
1000
0000
1000
0100
0010
0000
,
0100
0000
0001
0000
0001
0010
0001
0000
,
0100
0000
0010
0000
1000
0100
1000
0000
,
1000
0000
0100
0000
0010
0100
0010
0000
,
0100
0000
0010
0000
0100
0010
0100
0000
,
0002
0010
0010
0013
,
0200
0010
0010
0310
,
2000
0100
0100
3100
,
0200
0010
0010
0310
,
0001
0010
0001
0000
0010
0001
0010
0000
,
1000
0100
1000
0000
0100
1000
0100
0000
,
1000
0000
0000
0000
0100
0000
0000
0000
1000
0000
0000
0010
0000
0000
1000
0000
,
0000
0010
0100
0010
,
0100
0000
0000
0000
0001
0000
0000
0000
0100
0000
0000
0001
0000
0000
0100
0000
,
0000
0010
1000
0010
,
0200
0300
0020
0030
2000
3000
0002
0003
,
0002
0003
0020
0030
0200
0300
0020
0030
,
2000
3000
0002
0003
0200
0300
0002
0003
,
0200
0300
0020
0030
2000
3000
0200
0300
,
2000
3000
1000
0000
0020
0030
0010
0000
,
0200
0300
0001
0000
0002
0003
0100
0000
,
0002
0003
1000
0000
2000
3000
0001
0000
,
0100
0000
0001
0100
0010
0000
1000
0010
,
0100
0002
0203
0320
,
2030
0000
3010
1000
0100
0000
0010
0001
,
1000
0020
0230
0320
,
2030
3002
0000
0000
,
1003
0000
0001
0000
1000
0000
0000
0000
0010
0100
0010
0100
0000
0000
0000
0000
,
0002
0100
0100
0103
,
2000
0010
0010
3010
,
0020
0100
0100
0130
,
0020
0100
0100
0130
,
0002
0010
0010
0013
,
2000
0100
0100
3100
,
0002
1000
1000
1003
,
0200
0001
0001
0301
,
0002
0003
0200
0300
0002
0003
0200
0300
,
0020
0030
1000
0010
0100
0000
1001
0000
,
2000
3000
0020
0030
0200
0300
0002
0003
,
0200
0300
0001
1000
0001
0000
0101
0000
,
2000
3000
0020
0030
2000
3000
0020
0030
,
0200
0300
0001
0100
0010
0000
1001
0000
,
0002
0003
0200
0300
0020
0030
2000
3000
,
0010
0000
1000
0000
0001
0000
0000
0000
0100
0001
1000
0010
0000
0000
0000
0000
,
0000
0000
0000
0000
,
1000
0010
0100
0010
,
0100
0010
0001
0100
,
0001
1000
0010
0100
,
0010
0000
1000
0000
0010
0100
0010
0000
,
0001
0100
0010
0100
,
0010
0100
1000
0010
,
1000
0001
0100
0010
,
0100
0001
0200
0000
,
0320
0000
0030
0000
;

//---------------dance-single - ----------------
#NOTES:
     dance-single:
     :
     Hard:
     13:
     0.467,0.513,0.072,0.452,0.140: // measure 1
0000
0000
0000
0000
,  // measure 2
0000
0000
0000
0000
,  // measure 3
0000
0000
0000
0000
,  // measure 4
0000
0000
0000
0000
,  // measure 5
0000
0000
0000
0000
,  // measure 6
2000
3200
2300
3200
,  // measure 7
2300
0000
0000
3000
,  // measure 8
0002
0023
0032
0023
,  // measure 9
0031
2002
0000
3003
,  // measure 10
0010
0010
0010
0000
0100
0100
0100
0000
,  // measure 11
0010
0100
0010
1000
0001
1000
0001
1000
,  // measure 12
0002
0000
0013
0000
0001
0100
0010
0100
,  // measure 13
1000
0100
1000
0010
0100
0001
0100
0000
,  // measure 14
0100
0010
0100
0010
0001
0010
0001
0000
,  // measure 15
0001
0100
1000
0000
0010
1000
0001
0001
,  // measure 16
2000
0100
3100
0000
0020
0100
0130
0000
,  // measure 17
0002
0010
0013
0000
0010
0001
1000
0000
,  // measure 18
1000
0100
1000
0000
1000
0100
0001
0000
,  // measure 19
0001
1000
0001
1000
0010
0100
0010
0100
,  // measure 20
0010
0000
0101
0000
0001
0010
0010
0000
,  // measure 21
0100
0010
0100
0010
1000
0100
0010
0000
,  // measure 22
0001
0010
0001
0010
0100
0010
0001
0000
,  // measure 23
0100
0001
0010
0000
0100
0010
0100
0010
,  // measure 24
2000
0000
0010
0000
0001
0000
0010
0010
,  // measure 25
3000
0010
0000
0100
0010
0000
0100
0010
,  // measure 26
0002
0000
0100
0000
0000
1000
1003
2000
,  // measure 27
0000
3000
0100
0020
0000
0030
0010
0200
,  // measure 28
0000
0300
1000
0002
0000
0003
0010
0002
,  // measure 29
0000
0003
0001
0200
0000
0310
0100
0010
,  // measure 30
1000
0000
0000
0000
0100
0000
0000
0000
0010
0000
0000
0100
0000
0000
1000
0000
,  // measure 31
0000
0000
0010
0000
0000
0100
0000
0000
0010
0000
0000
0100
0000
0000
0001
0000
,  // measure 32
0010
0000
0000
0000
0001
0000
0000
0000
0010
0000
0000
0001
0000
0000
0100
0000
,  // measure 33
0000
0000
0010
0000
0000
1000
0000
0000
0001
0000
0000
0100
0000
0000
0010
0000
,  // measure 34
2000
3000
0020
0030
0200
0300
0020
0030
,  // measure 35
0200
0300
0002
0003
0020
0030
0002
0003
,  // measure 36
0020
0030
0002
0003
0200
0300
0020
0030
,  // measure 37
0002
0003
0200
0300
2000
3000
0200
0300
,  // measure 38
0002
0003
0101
0000
0020
0030
0110
0000
,  // measure 39
2000
3000
1001
0000
1000
0010
0001
0010
,  // measure 40
2000
3000
1100
0000
0002
0003
0011
0000
,  // measure 41
0200
0300
0110
0000
0001
0010
0100
1000
,  // measure 42
1000
2000
3020
2030
,  // measure 43
3002
0000
0103
0010
1000
0001
0100
0001
,  // measure 44
0020
0032
0203
0302
,  // measure 45
2003
0000
3020
0000
0000
0000
0000
0030
,  // measure 46
0100
0000
0010
0000
0100
0000
0001
0100
0001
0100
0001
0100
0000
0000
0000
0000
,  // measure 47
0012
1000
0010
1000
,  // measure 48
0013
0000
0100
0010
1000
0010
0100
0010
,  // measure 49
2000
0001
0010
0001
,  // measure 50
3010
0000
0001
0100
1000
0100
0001
0100
,  // measure 51
1000
0200
0302
0203
,  // measure 52
0301
0000
0010
0100
0001
0100
0010
0100
,  // measure 53
0002
1000
0100
1000
,  // measure 54
0103
0000
1000
0010
0001
0010
1000
0010
,  // measure 55
0001
0000
0001
0100
1000
0000
0000
0100
,  // measure 56
0000
1000
0010
0100
0010
0000
1000
0000
,  // measure 57
0010
0000
1000
0010
0001
0000
0000
0100
,  // measure 58
0000
0001
1000
0100
1000
0000
0001
0000
,  // measure 59
0100
0000
0001
0010
0001
0000
0000
0100
,  // measure 60
0000
0000
0010
0000
1000
0000
0010
0000
0100
0000
0000
0000
0010
0000
1000
0010
,  // measure 61
1000
0000
0010
0000
0100
0000
0001
0000
0010
0000
0001
0100
0000
0000
0000
0000
,  // measure 62
0001
0000
0100
0000
0001
0000
0100
0010
0100
0010
0100
0010
0000
0000
0000
0000
,  // measure 63
0000
0000
0000
0000
,  // measure 64
1000
0000
0010
1000
0000
1000
0010
0000
0100
0000
0001
0000
0010
0000
0001
0010
,  // measure 65
0000
0000
0010
0001
0000
0100
0010
0000
0010
0100
0010
0000
1000
0000
0100
1000
,  // measure 66
0001
0000
0100
0001
0000
0001
0100
0000
0010
0000
1000
0000
0100
0000
1000
0100
,  // measure 67
0000
0000
0100
1000
0000
0010
0100
0000
0100
0010
0100
0000
0001
0000
0000
0000
,  // measure 68
1000
0000
0010
1000
0000
1000
0010
0000
0100
0000
0001
0000
0010
0000
0001
0010
,  // measure 69
0000
0000
0010
0001
0000
0100
0010
0000
0010
0100
0010
0000
1000
0000
0100
1000
,  // measure 70
0001
0000
0100
0001
0000
0001
0100
0000
0010
0000
1000
0000
0100
0000
1000
0100
,  // measure 71
0000
0000
0100
1000
0000
0010
0100
0000
0100
0000
0010
0000
0100
0000
0000
0000
,  // measure 72
0202
0000
0303
0000
;
