#TITLE:Thunderous;
#SUBTITLE:;
#ARTIST:Stray Kids;
#TITLETRANSLIT:;
#SUBTITLETRANSLIT:;
#ARTISTTRANSLIT:;
#CREDIT:;
#BANNER:Thunderous.png;
#BACKGROUND:Thunderous-bg.png;
#LYRICSPATH:;
#CDTITLE:;
#MUSIC:Thunderous.mp3;
#OFFSET:-0.480;
#SAMPLESTART:90.720;
#SAMPLELENGTH:15.000;
#SELECTABLE:YES;
#BPMS:0.000=86.000,80.000=172.000,112.000=86.000,144.000=172.000;
#STOPS:79.000=1.400
;
#BGCHANGES:;

//---------------dance-single - ----------------
#NOTES:
     dance-single:
     :
     Easy:
     4:
     0.273,0.337,0.318,0.120,0.000:
0000
0000
0000
0000
,
0000
0000
0000
0000
,
0000
0000
0000
0000
,
0000
0000
0000
0000
,
0001
0100
0001
1000
,
0010
1000
0010
0110
,
0010
0100
0010
1000
,
0001
0000
0100
0000
0101
0000
0100
0010
,
0100
1000
0010
1000
,
0010
0100
0001
0100
,
0001
0000
0100
0000
0010
0000
0100
0010
,
0110
0110
0000
0000
1001
1001
0000
0000
,
2002
3003
1000
0100
,
0010
0001
0100
0001
,
0100
0010
1000
0010
,
1000
0010
0100
0010
,
0200
0302
0203
0302
,
0103
0101
0010
1000
,
0010
1000
0010
0100
,
0010
0100
0010
0100
0010
0100
0110
0010
,
0100
0010
0100
0010
,
1010
1010
0000
0000
,
0100
0001
0010
0001
,
0101
0101
0101
0000
,
1000
0010
0001
0010
,
1010
0101
0000
0000
,
0011
1100
0000
0000
,
0110
1001
0000
0000
,
0001
0001
0010
0010
,
0100
0100
1000
1000
,
0010
1001
0010
1001
,
0100
1001
0100
1001
,
0002
0003
0001
0100
,
2000
3000
1000
0010
,
0200
0300
0100
0010
,
0020
0000
0030
0000
0010
0100
0110
0000
,
0010
0100
0010
0100
,
0101
0101
0000
0000
,
0010
1000
0100
1000
,
1010
1010
1010
0000
,
0001
0100
1000
0100
,
0101
1010
0000
0000
,
1100
0011
0000
0000
,
0220
0000
0000
0000
,
0330
0001
0010
0100
,
1000
1000
0000
0000
,
1000
0100
0010
0001
,
1001
0000
0010
0100
,
0010
0000
1000
1000
,
0001
0010
1000
0010
,
0001
1000
0010
0100
,
0010
1000
0010
0100
,
0220
0330
0000
0000
;

//---------------dance-single - ----------------
#NOTES:
     dance-single:
     :
     Beginner:
     1:
     0.168,0.202,0.146,0.034,0.000:
0000
0000
0000
0000
,
0000
0000
0000
0000
,
0000
0000
0000
0000
,
0000
0000
0000
0000
,
0000
0100
0000
0010
,
0000
0100
0000
0001
,
0000
1000
0000
0010
,
0000
1000
0000
0001
,
0000
0001
0000
0100
,
0000
0010
0000
0100
,
0000
0001
0000
0100
,
0110
0010
0000
1000
,
1001
0001
0000
0010
,
0000
0001
0000
0100
,
0000
0010
0000
0100
,
0000
0001
0000
1000
,
0000
1000
0000
0010
,
0000
0100
0000
0010
,
0000
0100
0000
0001
,
0000
0000
1000
0000
0001
1000
1001
0000
,
1001
0000
0010
0000
,
0100
0000
0001
0000
,
1000
0000
0010
0000
,
0110
0110
0110
0000
,
0010
0000
0100
0000
,
0001
0000
0010
0000
,
1001
1001
0000
0000
,
0110
0110
0000
0000
,
0010
0000
1000
0000
,
0010
0000
0100
0000
,
0001
0000
0100
0000
,
0010
0000
0100
0000
,
0010
0000
1000
0000
,
0001
0000
0000
0000
,
0100
0000
0010
0000
,
0100
0000
0000
0000
1000
0001
1001
0000
,
1001
0001
0001
0000
,
0100
0010
0100
0000
,
0010
0100
0010
0000
,
1000
0001
1000
0000
,
0010
1000
0010
0000
,
0100
0001
0100
0000
,
1001
1001
0000
0000
,
0220
0000
0330
0000
,
1000
0001
1000
0000
,
0010
0100
0010
0000
,
0100
0010
0100
0000
,
0001
1000
0001
0000
,
0100
0001
0100
0000
,
0010
1000
0010
0000
,
0001
0100
0001
0000
,
0010
0100
0010
0000
,
2002
3003
0000
0000
;

//---------------dance-single - ----------------
#NOTES:
     dance-single:
     :
     Medium:
     7:
     0.319,0.471,0.223,0.069,0.017:
0000
0000
0000
0000
,
0000
0000
0000
0000
,
0000
0000
0000
0000
,
0000
0000
0000
0000
,
0100
0010
0100
0000
0010
0100
0010
0000
,
1000
0001
1000
0000
0001
1000
0001
0000
,
0001
0100
0010
1000
,
0010
0000
0100
0000
1001
0000
0110
0110
,
0010
0100
0010
1000
,
0001
0100
0001
1000
,
0010
0100
0100
0000
0001
0010
1000
0000
,
1000
0010
0001
0000
0001
0001
0001
0000
,
0100
0010
1000
0010
,
0100
0001
0100
0001
,
1000
0010
0100
0010
,
1000
0001
0100
1000
,
2000
3002
2003
3020
,
0130
0000
0010
0000
1000
0001
1000
0000
,
0001
0100
0001
1000
0010
1000
0100
0010
,
0001
0010
0100
1000
0001
1000
1001
0000
,
0010
0000
1000
0000
0010
0100
0010
0000
,
0001
0000
0100
0000
0001
0100
0001
0000
,
0010
0000
1000
0000
0010
1000
0010
0000
,
0110
1001
0110
0000
,
0010
0000
0001
0000
1000
0010
1000
0000
,
0001
0000
0100
0000
0001
0100
0001
0000
,
1001
0110
0000
0000
,
0101
1010
0000
0000
,
2000
3010
0100
0010
,
0002
0103
0010
0100
,
1000
0010
1010
0010
1010
0010
1010
0000
,
0010
0001
0011
0001
0011
0001
0011
0000
,
0010
0100
0010
0000
0100
1000
0010
0000
,
0100
0001
0010
0000
1000
0001
1000
0000
,
0010
0010
0000
0000
0001
0001
0000
0000
,
1000
1000
0001
0001
1001
0110
1001
0000
,
0010
0010
0010
0010
,
0100
0100
0100
0100
,
0010
0010
0010
0010
,
1000
0001
1000
0001
0000
0000
0000
0000
,
0001
0000
0100
0000
0001
1000
0001
0000
,
0010
0000
0100
0000
1000
0010
1000
0000
,
1010
1010
0010
0000
,
1000
0000
1000
0000
0100
0000
0100
0000
0010
0000
0010
0000
,
0001
0100
0001
0010
,
0011
0011
0001
1000
,
1010
1000
0001
0100
,
0010
1000
0010
0001
,
0010
1000
0001
1000
,
0010
1000
0001
0100
,
0010
0100
0010
1000
,
0001
1000
0001
0100
,
2002
3003
0000
0000
;

//---------------dance-single - ----------------
#NOTES:
     dance-single:
     :
     Hard:
     13:
     0.497,0.673,0.455,0.163,0.318: // measure 1
0000
0000
0000
0000
,  // measure 2
0000
0000
0000
0000
,  // measure 3
0000
0000
0000
0000
,  // measure 4
2002
0000
0000
0000
0000
0000
3003
0000
0001
0100
0001
0100
0010
1000
0010
0000
,  // measure 5
0100
0010
0100
0010
0000
1000
0001
0100
0001
1000
0010
1000
0000
0000
0001
1000
,  // measure 6
0010
1000
0001
0100
0010
0100
0001
1000
0010
0100
0010
1000
0000
0000
1010
0000
,  // measure 7
0000
0000
0101
0000
1000
0010
0100
0010
1000
0100
0010
0001
0100
0001
1000
0010
,  // measure 8
0000
0000
0110
0000
0010
0100
0010
0100
2002
0000
3003
0000
1001
0000
0220
0000
,  // measure 9
0330
0000
0000
0100
0010
0000
0100
0000
0000
0001
0100
0000
0001
0100
0001
0000
,  // measure 10
0000
0000
0000
0010
0100
0000
0010
0000
0000
1000
0010
0000
1000
0010
1000
0000
,  // measure 11
1010
0000
1000
0100
0010
0000
0001
0100
0010
0100
0001
1000
0001
1000
0010
0100
,  // measure 12
1001
1001
0000
0000
0110
0110
0000
0000
,  // measure 13
0010
0100
0010
1000
0010
1000
0001
0100
,  // measure 14
0001
0010
0100
0010
0001
1000
0100
0010
,  // measure 15
0001
0000
0000
0000
0001
0000
0100
0001
0100
0000
0000
0000
1000
0000
0010
0000
,  // measure 16
0100
0000
0010
0000
1000
0000
0010
0000
1000
0000
0001
0000
0100
0000
0001
0000
0100
0000
0010
0000
0000
0110
0000
0000
,  // measure 17
0220
0330
2200
3300
,  // measure 18
0022
0000
0000
0000
0033
0000
0000
0000
1000
0010
0000
1000
0010
1000
0000
0000
,  // measure 19
0000
0000
0001
0000
0100
0001
0100
0010
1000
0010
0100
0010
0100
0010
1001
0000
,  // measure 20
1000
0100
0010
0001
1000
0001
1001
0100
,  // measure 21
1001
0000
0001
0000
0100
0010
0100
0000
,  // measure 22
0110
0000
0110
0000
1000
0010
0100
0010
,  // measure 23
1000
0000
0010
0000
1000
0010
0001
0000
,  // measure 24
0101
0000
0110
0000
1001
0000
1000
0100
,  // measure 25
0001
0000
1000
0000
0010
1000
0100
0000
,  // measure 26
1010
0000
1010
0000
0010
0100
0010
0100
,  // measure 27
0101
0000
0000
0000
0011
0000
0000
0000
0001
0000
0000
0010
0000
0000
0100
0000
,  // measure 28
1001
0110
2002
0000
,  // measure 29
3003
0000
0000
0000
0010
0000
0100
0000
0010
0000
0000
0000
0100
0000
0001
1000
,  // measure 30
0002
0000
0000
0000
0103
0000
0001
0000
0100
0000
0000
0000
0010
1000
0100
1000
,  // measure 31
0010
0100
0010
0100
1001
0000
0000
0000
0001
1000
0010
1000
0101
0000
0100
0001
,  // measure 32
2000
0000
0000
0000
3010
0000
0010
0000
0010
0100
0001
0000
0101
0000
0000
0000
,  // measure 33
0001
0100
0101
0000
1000
0010
1010
0000
,  // measure 34
0010
0100
0110
0000
1000
0001
1001
0000
,  // measure 35
0001
0100
0010
0100
1000
0010
1000
0010
,  // measure 36
0001
0000
0010
0000
0100
0000
1000
0000
0001
0000
1000
0000
1001
0000
0001
1000
,  // measure 37
1001
0000
1000
0000
0010
0100
0010
0000
,  // measure 38
0110
0000
0110
0000
0001
0100
0010
0100
,  // measure 39
0001
0000
0100
0000
0001
0100
1000
0000
,  // measure 40
1010
0000
0110
0000
1001
0000
0001
0010
,  // measure 41
1000
0000
0001
0000
0100
0001
0010
0000
,  // measure 42
0101
0000
0101
0000
0100
0010
0100
0010
,  // measure 43
1010
0000
0000
0000
1100
0000
0000
0000
1000
0000
0000
0100
0000
0000
0010
0000
,  // measure 44
0001
0000
0100
0000
1000
0000
0100
0000
0001
0000
0100
0000
,  // measure 45
1001
0000
0000
0000
0010
0000
0000
0001
0100
0000
0000
0000
0010
0000
0000
0000
,  // measure 46
0010
0000
0000
1000
0000
0000
0001
0000
1000
0000
0001
0000
,  // measure 47
1000
0000
0000
0000
0000
0000
0000
1000
0010
0000
0000
0000
0100
0000
0000
0000
,  // measure 48
0100
0000
0000
0001
0000
0000
1000
0000
0001
0000
1000
0000
,  // measure 49
0001
0001
0101
0010
,  // measure 50
1010
0000
2000
0000
0000
3001
0100
0000
,  // measure 51
0001
0000
0000
0000
0001
0000
1000
0000
0010
0000
0000
0100
0000
0000
0000
0000
,  // measure 52
0001
0010
0100
1000
,  // measure 53
2002
3003
0000
0000
;
