#TITLE:The Weekend;
#SUBTITLE:;
#ARTIST:Michael Gray;
#TITLETRANSLIT:;
#SUBTITLETRANSLIT:;
#ARTISTTRANSLIT:;
#CREDIT:;
#BANNER:The Weekend.png;
#BACKGROUND:The Weekend-bg.png;
#LYRICSPATH:;
#CDTITLE:;
#MUSIC:The Weekend.mp3;
#OFFSET:0.620;
#SAMPLESTART:53.460;
#SAMPLELENGTH:15.000;
#SELECTABLE:YES;
#BPMS:0.000=127.000;
#STOPS:;
#BGCHANGES:;

//---------------dance-single - ----------------
#NOTES:
     dance-single:
     :
     Easy:
     5:
     0.251,0.469,0.189,0.111,0.000:
0000
0000
0000
0000
,
0000
0000
0000
0000
,
0000
0000
0000
0000
,
0000
0000
0000
0000
,
0000
0000
0000
0000
,
0000
0010
0100
0010
,
0110
0100
0010
0100
,
0110
0001
1000
0001
,
1001
1000
0001
1000
,
1001
0001
0000
1000
,
0000
0010
0000
1000
,
0000
0010
0000
0010
,
0000
0100
0000
0001
,
0000
1000
0000
0010
,
0000
1000
0000
0010
,
0000
0100
0000
0001
,
0000
1000
0000
0001
,
0100
0001
0100
0000
,
0010
1000
0010
0000
,
0100
0010
0001
0000
,
0010
0100
1000
0000
,
2000
0000
3200
0000
,
0320
0000
0032
0000
,
1003
0010
1000
0010
,
1000
0020
0000
0000
,
2030
0000
3010
0001
,
0100
0001
0100
0010
,
0100
0010
1000
0010
,
1000
0100
1000
0001
,
2000
0000
3001
0001
,
0100
0010
0100
0001
,
1000
0010
0100
0010
,
1000
1000
0001
0001
,
1001
0110
1001
0110
,
1001
0110
1001
0110
,
1001
0110
1001
0110
,
1001
0110
1001
0110
,
2002
0000
0000
0000
,
3003
0000
0000
0000
,
0220
0000
0000
0000
,
0330
0000
0000
0000
,
0001
0100
0001
1000
,
0010
1000
0001
0100
,
0001
0000
1000
0000
,
0010
0000
0100
0000
,
0010
0000
1000
0000
,
0001
0000
1000
0000
,
0010
0100
0010
0100
,
0010
1000
0001
1000
,
0001
1000
0010
1000
,
0001
0100
0001
0100
,
0010
1000
0010
0100
,
0010
0100
0010
0100
,
0002
0000
0103
1000
,
0010
1000
0010
0100
,
0010
0100
0001
0100
,
0001
0010
0001
1000
,
0002
0000
1003
1000
,
0010
0100
0010
1000
,
0001
0100
0000
0100
,
0000
0001
1000
0001
;

//---------------dance-single - ----------------
#NOTES:
     dance-single:
     :
     Beginner:
     2:
     0.178,0.235,0.009,0.034,0.000:
0000
0000
0000
0000
,
0000
0000
0000
0000
,
0000
0000
0000
0000
,
0000
0000
0000
0000
,
0000
0000
0000
1000
,
0000
0001
0000
0100
,
0000
0010
0000
0100
,
0000
0010
0000
1000
,
0000
1000
0000
0001
,
0000
1000
0000
0010
,
0000
0100
0000
0001
,
0000
1000
1000
1000
,
0000
0001
0000
0100
,
0000
0010
0000
0100
,
0000
0001
0000
0001
,
0000
1000
0000
0100
,
0000
0010
0000
0001
,
0000
0001
0001
0001
,
0000
0010
0010
0010
,
0000
1000
1000
1000
,
0000
1000
0000
0001
,
0000
0100
0100
0100
,
0000
0010
0010
0010
,
0000
1000
0000
0001
,
0000
0010
0000
0100
,
0000
1000
0010
1000
,
0000
0001
1000
0001
,
0000
0100
0010
0100
,
0000
0010
0100
0010
,
0000
1000
0001
1000
,
0000
0010
0100
0010
,
0000
0001
0100
0001
,
0000
0100
0000
0000
,
0100
0100
0100
0100
,
0100
0100
0100
0100
,
0100
0100
0100
0100
,
0100
0100
0100
0100
,
0200
0000
0000
0000
,
0000
0000
0300
0000
,
0020
0000
0000
0000
,
0000
0000
0030
0000
,
0000
0010
0000
0100
,
0000
0001
0000
0010
,
0000
1000
0000
1000
,
0000
0010
0000
0000
,
0001
0001
0001
0001
,
1000
1000
1000
1000
,
0010
0010
0010
0010
,
0100
0100
0100
0100
,
0000
0010
0000
1000
,
0000
0001
0000
1000
,
0000
0010
0000
0100
,
0000
0001
0000
1000
,
0000
0001
0100
0001
,
0000
1000
0001
1000
,
0000
0010
0100
0010
,
0000
0100
0010
0100
,
0000
0001
1000
0001
,
0000
0100
0010
0100
,
0000
1000
0000
0010
,
0000
1000
0000
2002
,
3003
0000
0000
0000
;

//---------------dance-single - ----------------
#NOTES:
     dance-single:
     :
     Medium:
     8:
     0.356,0.861,0.137,0.480,0.017:
0000
0000
0000
0000
,
0000
0000
0000
0000
,
0000
0000
0000
0000
,
0000
0000
0000
0000
,
0000
0000
0000
0000
,
2000
0100
0001
0100
,
3002
0100
1000
0100
,
2003
0001
0010
0001
,
3020
1000
0100
1000
,
0130
0010
0000
0100
,
0000
0001
0000
1000
,
0000
0000
0001
0000
0000
0000
0100
0001
,
1000
0000
0001
1000
0001
0000
0100
0000
,
0000
0010
0000
1000
,
0000
0001
0000
0100
,
0000
0000
1000
0000
0000
0000
0100
0001
,
0010
0000
0001
1000
0001
0000
1000
0000
,
0020
0100
1000
0100
,
2030
0100
0001
0100
,
3002
0010
0100
0010
,
0203
0010
0010
0010
,
0320
1030
0200
0301
,
0002
1003
2000
3001
,
0001
0001
0001
1000
,
0001
0010
0100
1000
,
2000
0000
0000
0000
3010
0000
1000
0010
,
1000
0000
0010
0000
0100
0000
0010
0100
,
0010
0100
0001
1000
,
0002
0000
0000
0000
0103
0000
0010
1000
,
0010
0000
1000
0000
0001
0000
0001
0010
,
0100
0000
1000
0000
0010
0000
1000
0001
,
1000
0010
0100
0010
,
1000
0001
0100
0001
,
2020
3030
0202
0303
0220
0330
2020
3030
,
2002
3003
0202
0303
0022
0033
0202
0303
,
0220
0330
2020
3030
2200
3300
2002
3003
,
0010
0100
0010
0100
0010
0100
0010
0100
,
0020
0000
0000
0000
,
2030
0000
0000
0000
,
3002
0000
0000
0000
,
0203
0000
0000
0000
,
0310
0100
0010
1000
,
0001
1000
0001
1000
,
0001
1000
0010
1000
,
0001
0100
0001
1000
,
0101
0000
0002
0003
0002
0003
0002
0003
,
1001
0000
2000
3000
2000
3000
2000
3000
,
1010
0000
0020
0030
0020
0030
0020
0030
,
0110
0000
0200
0300
0200
0300
0200
0300
,
0010
1000
0010
1000
,
0001
0100
0001
0100
,
0001
1000
0001
0100
,
0001
1000
0010
1000
,
0002
0000
0000
0000
0103
0000
0001
0100
,
0001
0000
0100
0000
0010
0000
0100
0010
,
0100
0010
1000
0001
,
1000
0010
1000
0010
,
2000
0000
0000
0000
3010
0000
0100
0001
,
0100
0000
0001
0000
1000
0000
1000
0100
,
0010
0000
0001
0000
0100
0000
0001
1000
,
0001
0000
0000
0100
0000
0000
0010
0100
0010
0100
0010
0100
;

//---------------dance-single - ----------------
#NOTES:
     dance-single:
     :
     Hard:
     13:
     0.444,0.887,0.146,0.617,0.180: // measure 1
0000
0000
0000
0000
,  // measure 2
0000
0000
0000
0000
,  // measure 3
0000
0000
0000
0000
,  // measure 4
0000
0000
0000
0000
,  // measure 5
0000
0000
0000
0000
0000
0000
0000
0000
0000
0000
1000
0000
0000
0010
0000
0000
,  // measure 6
0020
0000
0100
0000
0130
0000
1000
0010
,  // measure 7
0002
0000
1000
0000
1003
0000
0001
1000
,  // measure 8
0200
0000
0310
0010
,  // measure 9
1000
0000
0000
0010
0000
0000
1000
0010
1000
0001
0100
0001
,  // measure 10
1000
0000
0010
0000
0100
0010
0100
0000
,  // measure 11
0001
0000
0000
0000
0100
0000
0000
0000
0001
0000
0000
0010
0000
0000
0200
0000
,  // measure 12
0000
0000
1300
0000
1000
0010
1000
0000
,  // measure 13
1000
0010
0001
0010
1000
0000
0001
0000
,  // measure 14
0100
0000
0100
0000
0010
0100
0010
0000
,  // measure 15
1000
0000
0000
0000
0001
0000
0000
0000
1000
0000
0000
0100
0000
0000
0020
0000
,  // measure 16
0000
0000
0031
0000
0001
0100
0001
0000
,  // measure 17
0001
0100
1000
0100
0001
0000
1000
0000
,  // measure 18
0010
1000
0010
1000
0001
0000
1000
0001
,  // measure 19
1000
0000
0010
0100
0010
0000
0100
0000
,  // measure 20
0001
0010
1000
0010
0001
0000
1000
0001
,  // measure 21
1000
0000
0001
0010
0100
0000
0001
0000
,  // measure 22
1000
2000
3100
0200
,  // measure 23
0310
0020
0031
0002
,  // measure 24
1003
0010
1000
0001
,  // measure 25
1001
0000
0000
0001
0000
0000
0001
1000
0010
1000
0001
0100
,  // measure 26
0020
0000
0000
0000
1000
0000
0000
0000
1030
0000
0000
0000
0010
0000
0000
1000
,  // measure 27
0200
0000
0000
0000
0010
0000
0000
0000
1300
0000
0000
0000
0100
0000
0000
0010
,  // measure 28
0002
0100
0103
0010
,  // measure 29
0100
0000
0000
0010
0000
0000
1000
0100
0010
0001
0010
0100
,  // measure 30
2000
0000
0000
0000
0010
0000
0000
0000
3001
0000
0000
0000
0100
0000
0000
0001
,  // measure 31
0020
0000
0000
0000
0100
0000
0000
0000
0031
0000
0000
0000
1000
0000
0000
0001
,  // measure 32
0200
0000
0000
0000
0001
0000
0000
0000
0301
0000
0000
0000
1000
0000
0000
1000
,  // measure 33
0010
0000
0000
0010
0000
0000
0100
0010
1000
0100
0010
0001
,  // measure 34
2000
3000
0020
0030
2000
3000
0002
0003
,  // measure 35
0020
0030
0200
0300
2000
3000
0200
0300
,  // measure 36
2000
3000
0002
0003
0020
0030
0002
0003
,  // measure 37
1000
0010
0001
0010
1000
0010
0001
0010
,  // measure 38
0002
0000
0000
0000
,  // measure 39
0023
0000
0000
0000
,  // measure 40
0230
0000
0000
0000
,  // measure 41
2300
0000
0000
0000
,  // measure 42
3001
0100
0001
0100
,  // measure 43
0010
1000
0010
1000
,  // measure 44
0001
1000
0001
1000
,  // measure 45
0010
0100
0010
0100
,  // measure 46
0220
0330
2020
3030
0220
0330
0202
0303
,  // measure 47
0022
0033
2200
3300
2002
3003
0220
0330
,  // measure 48
2020
3030
0202
0303
0022
0033
2200
3300
,  // measure 49
2002
3003
0220
0330
2002
3003
2200
3300
,  // measure 50
2000
0000
0000
0000
0010
0000
0000
0000
3001
0000
0000
0000
1000
0000
0000
0001
,  // measure 51
0200
0000
0000
0000
0010
0000
0000
0000
0310
0000
0000
0000
0100
0000
0000
0100
,  // measure 52
0002
1000
1003
0010
,  // measure 53
1000
0000
0000
0010
0000
0000
1000
0010
1000
0100
1000
0001
,  // measure 54
0200
0000
0000
0000
0001
0000
0000
0000
0301
0000
0000
0000
0100
0000
0000
0001
,  // measure 55
0020
0000
0000
0000
0100
0000
0000
0000
0031
0000
0000
0000
0010
0000
0000
0100
,  // measure 56
2000
0010
3010
0100
,  // measure 57
0010
0000
0000
0100
0000
0000
0001
0010
0100
1000
0100
0010
,  // measure 58
0002
0000
0000
0000
0100
0000
0000
0000
1003
0000
0000
0000
0010
0000
0000
1000
,  // measure 59
0200
0000
0000
0000
0010
0000
0000
0000
1300
0000
0000
0000
0001
0000
0000
1000
,  // measure 60
0020
1000
1030
0001
,  // measure 61
0100
0000
0000
0100
0000
0000
0010
0100
0001
0010
0100
1000
;
