#TITLE:The Weekend (MILLI Remix);
#SUBTITLE:;
#ARTIST:88rising & BIBI;
#TITLETRANSLIT:;
#SUBTITLETRANSLIT:;
#ARTISTTRANSLIT:;
#CREDIT:;
#BANNER:The Weekend (MILLI Remix).png;
#BACKGROUND:The Weekend (MILLI Remix)-bg.png;
#LYRICSPATH:;
#CDTITLE:;
#MUSIC:The Weekend (MILLI Remix).mp3;
#OFFSET:1.960;
#SAMPLESTART:29.000;
#SAMPLELENGTH:15.000;
#SELECTABLE:YES;
#DISPLAYBPM:101.000;
#BPMS:0.000=101.500;
#STOPS:;
#BGCHANGES:;

//---------------dance-single - ----------------
#NOTES:
     dance-single:
     :
     Easy:
     3:
     0.183,0.285,0.062,0.143,0.000:
0000
0000
0000
0000
,
0000
0000
0000
0000
,
0000
0100
0010
0100
,
0000
0001
0001
0010
,
0000
1000
0010
0100
,
0000
0010
0100
1000
,
1100
0000
0010
0100
,
0101
0000
1000
0001
,
1001
0000
0001
0010
,
0011
0000
0100
0000
,
0001
1000
0001
0000
,
1000
0010
0100
0000
,
0010
1000
0001
0000
,
0001
0002
0203
0310
,
0020
0030
0000
0010
,
0000
1000
0010
0001
,
0020
0030
0000
0100
,
0000
0001
1000
0010
,
2000
3000
0000
1000
,
0000
1000
0001
0100
,
0000
0010
0100
0010
,
0100
0001
0010
0100
,
2000
0000
3000
0000
,
0020
0000
0030
0000
,
0200
0000
0300
0000
,
1000
0100
0010
0001
,
1001
1000
0000
0010
,
0100
0010
0000
1000
,
0001
1000
0001
1000
0001
1000
0002
0000
,
0000
2003
3020
0130
,
0200
0300
0000
0100
,
0000
0001
0100
1000
,
0200
0300
0000
0010
,
0000
1000
0001
0100
,
0002
0003
0000
0001
,
0000
0001
1000
0010
,
0000
0100
0010
0100
,
0010
1000
0100
0010
,
1001
0000
0100
0000
,
0010
0000
1000
0000
,
0001
0000
0100
0000
,
0001
0001
1000
1000
,
0020
0000
0000
0030
,
0200
0000
0000
0300
,
0000
0010
0000
0100
,
0010
0100
0010
1001
;

//---------------dance-single - ----------------
#NOTES:
     dance-single:
     :
     Beginner:
     1:
     0.151,0.163,0.098,0.160,0.000:
0000
0000
0000
0000
,
0000
0000
0000
0000
,
0000
0001
0000
1000
,
0000
0010
0000
1000
,
0000
0001
0000
0100
,
0000
0001
0000
1000
,
0000
1000
1000
1000
,
0000
0010
0000
0100
,
0000
0010
0010
0010
,
0000
0100
0000
0001
,
0000
0001
0001
0001
,
0000
1000
0000
0010
,
0000
0100
0100
0100
,
0000
0010
0000
1001
,
0000
2002
0000
3003
,
0000
0100
0010
0100
,
0000
2002
0000
3003
,
0000
1000
0001
1000
,
0000
0220
0000
0330
,
0000
0010
0100
0010
,
0000
0220
0000
0330
,
0000
0100
0100
0100
,
0100
0000
0000
0000
,
0010
0000
0000
0000
,
1000
0000
0000
0000
,
0001
1000
0001
1000
,
1001
0000
0000
0100
,
0000
0010
0000
1000
,
0000
0001
0000
2000
,
0000
3000
0000
0001
,
0000
2002
0000
3003
,
0000
0010
0100
0010
,
0000
2002
0000
3003
,
0000
0001
1000
0001
,
0000
0220
0000
0330
,
0000
0100
0010
0100
,
0000
0220
0000
0330
,
0000
0010
0010
0010
,
0010
0000
0000
0100
,
0000
0001
0000
1000
,
0000
0010
0000
1000
,
0000
0001
0000
0001
,
0002
0000
0000
0003
,
0000
0100
0000
0010
,
0000
1000
0000
0100
,
0000
1000
0001
1001
;

//---------------dance-single - ----------------
#NOTES:
     dance-single:
     :
     Medium:
     7:
     0.319,0.346,0.125,0.232,0.000:
0000
0000
0000
0000
,
0010
0010
0010
0010
,
1000
0010
0100
0010
1000
0000
0100
0000
,
1000
0010
0001
0010
0100
0000
0001
0000
,
0001
1000
0010
1000
0001
0000
0100
0000
,
0010
1000
0010
0001
0010
0000
0100
0000
,
0101
0001
1000
0010
,
1010
1000
0010
0100
,
0110
0010
0100
0001
,
1001
0000
0001
0100
1000
0100
0001
0100
,
1000
0000
0100
0100
0100
0000
0010
0000
,
0100
0000
0001
0001
0001
0000
0010
0000
,
1000
0000
1000
0000
0010
0100
0010
0100
,
0000
0001
0010
0100
1000
0100
0010
0001
,
2002
3003
0100
0010
,
1000
0010
0001
0010
1000
0000
0001
0000
,
0100
0001
0100
0101
,
0001
1000
0010
1000
0001
0000
0100
1000
,
0010
1000
0001
1001
,
1000
0100
0010
0001
1000
0000
0001
0000
,
0001
0100
0010
0110
,
0020
0030
0200
0300
,
0002
0000
0003
0000
,
2000
0000
3000
0000
,
0200
0000
0300
0000
,
0020
0230
0302
2003
,
3001
0001
0100
0100
,
0010
0010
1000
1000
,
0001
1000
0001
1000
0010
0100
0020
0000
,
0000
1030
0100
0010
0001
0010
0100
1000
,
2002
3003
0010
0100
,
0001
0100
1000
0100
0001
0000
1000
0000
,
0010
1000
0010
1010
,
1000
0001
0100
0001
1000
0000
0010
0001
,
0100
0001
1000
1001
,
0001
0010
0100
1000
0001
0000
1000
0000
,
1000
0010
0100
0110
,
0010
1000
0010
0100
0001
0100
0010
0100
,
0220
0330
0010
1000
,
0001
1000
0010
0100
,
0010
1000
0001
0100
,
0001
0100
0010
1000
,
2000
0000
0000
0000
0000
0002
3203
0320
,
0000
0000
0030
0000
0200
0320
2030
3002
,
2003
0002
0000
0000
3003
0010
0100
0010
,
0000
1000
0100
0010
0001
1000
1001
0000
;

//---------------dance-single - ----------------
#NOTES:
     dance-single:
     :
     Hard:
     13:
     0.453,0.515,0.196,0.116,0.183: // measure 1
0000
0000
0000
0000
,  // measure 2
0010
0010
0100
0100
,  // measure 3
0010
0000
0100
0001
0010
0001
0100
0000
0010
0000
0000
0000
1000
0000
0000
0000
,  // measure 4
0001
0000
1000
0010
1000
0000
0010
0000
0100
0000
0000
0001
0000
0000
0000
0000
,  // measure 5
0100
0000
0010
0100
0010
1000
0001
0000
1000
0000
0000
0000
0010
0000
0100
0001
,  // measure 6
0010
0000
0010
0000
0100
0000
0100
0001
0010
0000
0000
1000
0000
0000
0010
0000
,  // measure 7
1001
0000
0000
0000
0001
1000
0001
0000
1000
0001
1000
0010
0100
0000
1000
0000
,  // measure 8
1001
0000
0000
0000
0100
0010
0100
0000
0010
0100
0010
0100
0001
0000
1000
0000
,  // measure 9
1010
0000
0000
0000
0001
1000
0010
1000
0001
0100
0001
1000
0010
0000
1000
0000
,  // measure 10
1001
0000
0001
0100
0000
0010
1000
0010
1000
0000
0001
0100
0000
1000
0010
0000
,  // measure 11
1000
0010
0100
0010
1000
0000
1000
0000
1000
0000
0000
0000
0010
0000
0100
0000
,  // measure 12
0001
0000
0100
0000
0010
0100
0010
0000
0200
0000
0000
0000
0310
0000
0000
0000
,  // measure 13
0100
0010
0000
0100
0010
0000
0100
0000
0010
1000
0001
1000
0001
0000
0100
0000
,  // measure 14
0001
0100
0010
1000
0001
0000
0010
0000
0100
0000
1000
0000
1001
0000
0000
0000
,  // measure 15
2010
0010
3010
0100
,  // measure 16
0100
0001
0100
1000
0100
0010
0001
1000
,  // measure 17
1002
1000
1003
0010
,  // measure 18
0010
0001
0010
1000
0010
0001
0010
1000
,  // measure 19
2100
0100
3100
0010
,  // measure 20
1000
0001
0100
0001
1000
0010
0100
0010
,  // measure 21
0000
0001
0100
0010
1000
0001
1000
0100
,  // measure 22
0001
0101
1000
1010
,  // measure 23
1000
0010
0100
0010
1000
0001
0100
0001
,  // measure 24
0100
0010
1000
0010
0100
0001
1000
0010
,  // measure 25
1000
0001
0100
0001
1000
0001
0100
1000
,  // measure 26
0001
0010
0100
1000
0100
0010
0001
1000
,  // measure 27
1001
0000
0001
0000
0100
0001
0100
0010
1000
0000
0001
0000
0001
0000
0000
0000
,  // measure 28
0001
0000
0100
0000
1000
0000
0100
0000
0010
1000
0010
0100
0001
0000
0100
0000
,  // measure 29
0010
0010
0010
1000
0001
1000
2002
0000
,  // measure 30
0000
3000
1003
0100
0010
0001
1001
0000
,  // measure 31
0102
0100
0103
0010
,  // measure 32
0010
1000
0010
0001
0010
0100
1000
0001
,  // measure 33
2001
0001
3001
0100
,  // measure 34
0100
1000
0100
0001
0100
1000
0100
0001
,  // measure 35
0012
0010
0013
0100
,  // measure 36
0001
1000
0010
1000
0001
0100
0010
0100
,  // measure 37
0000
1000
0010
0100
0001
1000
0001
0010
,  // measure 38
0000
0100
0010
0100
0001
1000
0001
1000
,  // measure 39
0220
0000
0000
0000
0330
0000
0000
0000
0010
0000
0000
0000
0100
0000
0000
0010
,  // measure 40
0000
0000
0001
0000
0000
0100
0000
0000
0010
0000
0100
0000
1000
0000
0100
0000
,  // measure 41
0010
0000
0100
0000
1000
0010
1000
0010
,  // measure 42
0100
0101
0001
0011
0010
0110
1000
1001
,  // measure 43
0120
0000
0000
0000
0100
0000
0000
0000
0130
0000
0000
0000
0010
0000
0000
0100
,  // measure 44
0000
0000
1000
0000
0000
0010
0000
0000
0100
0000
0010
0000
0001
0000
0010
0000
,  // measure 45
0100
0010
0001
1000
,  // measure 46
1000
1000
0100
0100
0010
0010
0002
0000
,  // measure 47
0000
0003
0000
0000
;
