#TITLE:The Other Side;
#SUBTITLE:;
#ARTIST:SZA & Justin Timberlake;
#TITLETRANSLIT:;
#SUBTITLETRANSLIT:;
#ARTISTTRANSLIT:;
#CREDIT:;
#BANNER:The Other Side.png;
#BACKGROUND:The Other Side-bg.png;
#LYRICSPATH:;
#CDTITLE:;
#MUSIC:The Other Side.mp3;
#OFFSET:-0.260;
#SAMPLESTART:32.140;
#SAMPLELENGTH:15.000;
#SELECTABLE:YES;
#BPMS:0.000=106.000;
#STOPS:;
#BGCHANGES:;

//---------------dance-single - ----------------
#NOTES:
     dance-single:
     :
     Easy:
     4:
     0.207,0.236,0.060,0.194,0.000:
0000
0000
0000
0000
,
0000
0000
0000
0000
,
0001
0000
0100
0000
,
0001
0100
0001
0000
,
1000
0000
0010
0000
,
0010
1000
0010
0000
,
0100
0000
0010
0000
,
0010
0100
1000
0000
,
0010
0000
1000
0000
,
1000
0001
1000
0000
,
0001
0101
0010
0110
,
0010
1000
0010
1000
,
2000
0000
3000
0000
,
2000
0000
3000
0010
,
1000
1010
0010
1000
,
0000
0010
1000
0010
,
0100
0101
0001
1000
,
0000
0001
0100
0010
,
0200
0000
0310
0010
,
1000
0001
0100
0001
,
1000
0010
1000
0010
,
1000
0001
0100
0001
,
0002
0003
0020
0030
,
0200
0300
2000
3000
,
2000
3000
0200
0300
,
0020
0030
0002
0003
,
0001
1000
0010
1000
,
0000
0100
0010
0100
,
0020
0000
0230
0000
,
0310
0100
0010
0000
,
1000
0000
0010
0000
,
1000
0010
1000
0000
,
0001
0000
0100
0000
,
0100
0001
0100
0000
,
0010
0000
0100
0000
,
0100
0010
0001
0000
,
0100
0000
0001
0000
,
0001
1000
0001
0000
,
1000
1010
0100
0110
,
0100
0001
0100
0001
,
0002
0000
0003
0000
,
0002
0000
0003
0100
,
0001
0101
0100
0001
,
0000
0100
0001
0100
,
0010
1010
1000
0001
,
0000
1000
0010
0100
,
0020
0000
0130
0100
,
0001
1000
0010
1000
,
0001
0100
0001
0100
,
0001
1000
0010
1000
,
2000
3000
0200
0300
,
0020
0030
0002
0003
,
0002
0003
0020
0030
,
0200
0300
2000
3000
,
1000
0001
0100
0001
,
0000
0010
0100
0010
,
0200
0000
0320
0000
,
0130
0010
0100
0000
;

//---------------dance-single - ----------------
#NOTES:
     dance-single:
     :
     Beginner:
     1:
     0.167,0.194,0.104,0.142,0.000:
0000
0000
0000
0000
,
0000
0000
0000
0000
,
0000
0001
0000
0001
,
0000
1000
0000
0010
,
0000
1000
0000
0010
,
0000
0100
0000
0010
,
0000
0100
0000
0010
,
0000
1000
0000
0001
,
0000
1000
0000
0001
,
0000
0100
0000
0010
,
0000
0110
1001
0110
,
0000
0001
0000
0001
,
0002
0000
0003
1000
,
2000
0000
3000
1000
,
1000
1000
0000
0010
,
0010
0010
0000
0100
,
0100
0100
0000
0001
,
0001
0001
0000
0100
,
0200
0000
0300
0100
,
0010
0100
0000
0110
,
0000
1000
0000
0001
,
0000
1000
0000
1001
,
2002
0000
3003
0000
,
0220
0000
0330
0000
,
2000
0000
3000
0000
,
0002
0000
0003
0001
,
0001
0001
0000
1000
,
0000
0001
0000
0100
,
0100
0100
0000
0010
,
0010
0010
0000
1000
,
0000
1000
0000
1000
,
0000
0001
0000
0100
,
0000
0001
0000
0100
,
0000
0010
0000
0100
,
0000
0010
0000
0100
,
0000
0001
0000
1000
,
0000
0001
0000
1000
,
0000
0010
0000
0100
,
0000
0110
1001
0110
,
0000
1000
0000
1000
,
2000
0000
3000
0001
,
0002
0000
0003
0001
,
0001
0001
0000
0100
,
0100
0100
0000
0010
,
0010
0010
0000
1000
,
1000
1000
0000
0010
,
0020
0000
0030
0010
,
0100
0010
0000
0110
,
0000
0001
0000
1000
,
0000
0001
0000
1001
,
2002
0000
3003
0000
,
0220
0000
0330
0000
,
0002
0000
0003
0000
,
2000
0000
3000
1000
,
1000
1000
0000
0001
,
0000
1000
0000
0010
,
0010
0010
0000
0100
,
0100
0100
0200
0300
;

//---------------dance-single - ----------------
#NOTES:
     dance-single:
     :
     Medium:
     6:
     0.287,0.279,0.075,0.179,0.000:
0000
0000
0000
0000
,
0000
0000
0000
0000
,
1000
0001
1000
0010
,
1000
0001
0101
0000
,
0001
0100
0001
1000
,
0010
0000
0000
0000
0010
0100
0010
0000
,
0001
1000
0001
0100
,
0001
1000
1010
0000
,
1000
0010
1000
0001
,
0100
0000
0000
0000
0100
0010
0100
0000
,
0002
0103
2000
3010
,
1000
0100
0010
0001
,
0200
0000
0320
0000
,
0230
0000
0000
0000
0310
0100
0010
0000
,
0010
1000
0010
0000
0001
0100
0001
0000
,
0010
0000
0100
0000
1000
0001
1000
0000
,
0001
0010
0100
0000
0010
0100
1000
0000
,
0001
0100
0001
1000
,
1020
0000
1030
0010
,
0100
0001
1000
0001
,
0100
0010
0001
0000
0001
0100
0001
0000
,
0001
1000
0010
1000
,
0002
0103
0020
1030
,
2000
0000
3100
0000
0010
0100
1000
0000
,
2000
3010
0020
0130
,
0002
0000
1003
0000
1000
0001
1000
0000
,
0001
0101
1000
1100
,
1000
0100
1000
0001
,
0100
0010
0100
0001
,
1000
0010
1000
0001
,
0001
1000
0001
0100
,
0001
1000
1010
0000
,
1000
0000
0010
0000
1000
0000
0001
1000
,
0001
1000
0001
1000
0100
0010
0100
0000
,
1000
0001
1000
0010
,
1000
0001
0101
0000
,
0001
0100
0001
1000
,
0010
0000
0000
0000
0010
0100
0010
0000
,
2000
3010
0002
0103
,
0001
0010
0100
1000
,
0020
0000
0230
0000
,
0320
0000
0000
0000
0130
0010
0100
0000
,
0100
0001
0100
0000
1000
0010
1000
0000
,
0100
0000
0010
0000
0001
1000
0001
0000
,
1000
0100
0010
0000
0100
0010
0001
0000
,
1000
0010
1000
0001
,
0201
0000
0301
0100
,
0010
1000
0001
1000
,
0010
0100
1000
0000
1000
0010
1000
0000
,
1000
0001
0100
0001
,
2000
3010
0200
0301
,
0002
0000
0013
0000
0100
0010
0001
0000
,
0002
0103
0200
0310
,
2000
0000
3001
0000
0001
1000
0001
0000
,
1000
1010
0001
0011
,
0001
0010
0001
1000
,
0010
0100
0010
1000
,
0001
0100
0001
0000
;

//---------------dance-single - ----------------
#NOTES:
     dance-single:
     :
     Hard:
     8:
     0.330,0.387,0.097,0.142,0.045: // measure 1
0000
0000
0000
0000
,  // measure 2
0000
0000
0000
0000
,  // measure 3
1000
0010
0100
0010
,  // measure 4
1000
0010
0000
0000
1000
0010
0000
0000
1010
0000
0000
0000
0100
0000
0000
0000
,  // measure 5
0010
0001
0100
0001
,  // measure 6
0001
0100
0000
0000
0010
0000
0000
0000
1000
0000
0010
0000
0010
1000
0010
0000
,  // measure 7
0100
0010
1000
0100
,  // measure 8
0010
1000
0000
0000
1000
0010
0000
0000
0100
0000
0000
0000
0010
0000
0000
0000
,  // measure 9
0100
0010
0001
0000
1000
0100
0010
0000
,  // measure 10
1000
0001
0100
0001
,  // measure 11
0010
0110
0100
1001
,  // measure 12
0001
0100
0001
1000
,  // measure 13
0020
0000
2030
0000
,  // measure 14
3001
0000
0001
0000
0001
1000
0010
1000
,  // measure 15
0010
1000
0100
0000
0010
0100
0010
0000
,  // measure 16
0200
0000
0301
0001
0000
0001
0010
0100
,  // measure 17
1000
0010
1000
0000
0100
0001
0100
0000
,  // measure 18
2000
0000
3001
1000
0000
0010
0100
0010
,  // measure 19
0200
0000
0301
0101
,  // measure 20
0010
1010
1000
1010
,  // measure 21
1000
0010
0001
0010
1000
0010
0001
0010
,  // measure 22
1000
0001
1000
0001
0001
0100
0001
0200
,  // measure 23
0000
0010
0000
0301
,  // measure 24
0000
0000
1000
0000
0000
1000
0100
0020
,  // measure 25
0000
1000
0000
0130
,  // measure 26
0000
1000
0000
0001
,  // measure 27
0100
0001
1000
0010
,  // measure 28
0100
0000
0000
0010
0000
0000
1010
0000
0000
0000
1000
0000
0000
0000
0000
0000
,  // measure 29
0100
0010
1000
0001
0100
0001
0010
0001
,  // measure 30
1000
0000
0001
0000
0100
0000
0020
0000
0000
0000
0100
0000
0130
0010
0100
0000
,  // measure 31
0001
2000
3010
0100
,  // measure 32
0001
0010
1000
0010
,  // measure 33
0001
0000
0002
0000
0013
0000
0001
0001
,  // measure 34
0010
0000
0010
0000
0100
0000
0100
0000
1000
0000
1000
0000
1000
0001
0100
0000
,  // measure 35
0010
1000
0001
0100
0001
0000
0010
0000
,  // measure 36
0100
0001
0000
0000
0001
0100
0000
0000
0010
0000
0000
0000
0100
0000
0000
0000
,  // measure 37
0010
0100
1000
0000
0001
0010
0100
0000
,  // measure 38
0001
1000
0010
1000
,  // measure 39
0100
0110
0010
1001
,  // measure 40
1000
0010
1000
0001
,  // measure 41
0200
0000
0302
0000
,  // measure 42
1003
0000
1000
0000
1000
0001
0100
0001
,  // measure 43
0100
0001
0010
0000
0100
0010
0100
0000
,  // measure 44
0020
0000
1030
1000
0000
1000
0100
0010
,  // measure 45
0001
0100
0001
0000
0010
1000
0010
0000
,  // measure 46
0002
0000
1003
0001
0000
0100
0010
0100
,  // measure 47
0020
0000
1030
1010
,  // measure 48
0100
0101
0001
0101
,  // measure 49
0001
0100
1000
0100
0001
0100
1000
0100
,  // measure 50
0001
1000
0001
1000
1000
0010
1000
0020
,  // measure 51
0000
0100
0000
1030
,  // measure 52
0000
0000
0001
0000
0000
0001
0010
0200
,  // measure 53
0000
0001
0000
0310
,  // measure 54
0000
0001
0000
1000
,  // measure 55
0010
1000
0001
0100
,  // measure 56
0010
0000
0000
0000
0100
0000
0000
0000
0010
0000
0000
0000
1000
0000
0001
1000
,  // measure 57
0001
0010
0100
1000
0010
1000
0001
0100
,  // measure 58
0001
0100
0010
0220
0000
0330
0000
0000
;
