#TITLE:The Motto;
#SUBTITLE:;
#ARTIST:Tiƫsto & Ava Max;
#TITLETRANSLIT:;
#SUBTITLETRANSLIT:;
#ARTISTTRANSLIT:;
#CREDIT:;
#BANNER:The Motto.png;
#BACKGROUND:The Motto-bg.png;
#LYRICSPATH:;
#CDTITLE:;
#MUSIC:The Motto.mp3;
#OFFSET:-0.080;
#SAMPLESTART:38.216;
#SAMPLELENGTH:15.000;
#SELECTABLE:YES;
#DISPLAYBPM:117.000;
#BPMS:0.000=117.980;
#STOPS:;
#BGCHANGES:-0.280=The Motto.avi=1.000=0=0=0,
99999=-nosongbg-=1.000=0=0=0 // don't automatically add -songbackground-
;

//---------------dance-single - ----------------
#NOTES:
     dance-single:
     :
     Easy:
     3:
     0.231,0.283,0.201,0.091,0.000:
0000
0000
0000
0000
,
0000
0000
0000
0000
,
0000
0000
0000
0000
,
1010
1000
0010
1000
,
0101
0001
0100
0001
,
0110
0100
0010
0100
,
1001
1000
0001
1000
,
1010
0010
1000
0010
,
0011
0001
0010
0001
,
1100
1000
0100
1000
,
0110
0100
0010
0100
,
0102
0000
0103
0000
,
0010
0000
1000
0000
,
2010
0000
3010
0000
,
0120
0000
0130
0000
,
0010
0000
0100
0000
,
0012
0000
0013
0000
,
2100
0000
3100
0000
,
1000
1000
1000
1001
,
0110
0010
0000
0100
,
0010
0100
0001
0010
,
0001
1000
0000
1000
,
0100
0010
0100
0001
,
0010
0200
0000
0300
,
1000
0010
0100
0000
,
0010
0100
0001
0000
,
1000
0010
0100
0110
,
1001
0001
0000
0100
,
0010
0100
0001
1000
,
0010
1000
0000
0001
,
0010
1000
0010
0001
,
0010
2000
0000
3000
,
0100
0001
0100
0000
,
0100
0010
0100
0000
,
0010
1000
0001
1001
,
0110
0100
0000
0010
,
0100
0010
1000
0100
,
1000
0001
0000
0001
,
0010
0100
0010
1000
,
0100
0020
0000
0030
,
0001
0100
0010
0000
,
0100
0010
1000
0000
,
0001
0100
0010
0110
,
1001
1000
0000
1000
,
0000
0010
0000
0100
,
0000
0001
0000
1000
,
0000
0010
0000
0100
,
0000
0010
0000
1000
,
0000
0001
0000
0100
,
0000
0001
0000
1000
,
0000
0010
0000
0220
,
0000
0000
0330
0000
;

//---------------dance-single - ----------------
#NOTES:
     dance-single:
     :
     Beginner:
     1:
     0.171,0.188,0.064,0.037,0.000:
0000
0000
0000
0000
,
0000
0000
0000
0000
,
0000
0000
0000
0000
,
0110
0000
0100
0000
,
0010
0000
1000
0000
,
1001
0000
0100
0000
,
1000
0000
0001
0000
,
0110
0000
0010
0000
,
0100
0000
0010
0000
,
1001
0000
1000
0000
,
0100
0000
0010
0000
,
0110
0000
0010
0000
,
1000
0000
0010
0000
,
1000
0000
0001
0000
,
0001
0000
0100
0000
,
0001
0000
0001
0000
,
0100
0000
0010
0000
,
0100
0000
0001
0000
,
0010
0010
0010
0000
,
0220
0330
0000
0010
,
0000
0100
0100
0100
,
0000
0010
0010
0010
,
0000
1000
1000
1000
,
0000
0001
0001
0001
,
0000
0100
0100
0100
,
0000
0001
0001
0001
,
0000
0010
0010
0010
,
0000
1000
1000
1000
,
0000
0001
0001
0001
,
0000
0100
0100
0100
,
0000
0010
0010
0010
,
0000
1000
1000
1000
,
0000
0001
0001
0001
,
0000
0100
0100
0100
,
0000
0010
0010
0010
,
0000
1000
0001
1000
,
0000
0001
0100
0001
,
0000
0100
0010
0100
,
0000
0010
0100
0010
,
0000
1000
0001
1000
,
0000
0001
0100
0001
,
0000
1000
0010
1000
,
0000
0010
1000
0010
,
0000
0100
0000
0010
,
0000
0100
0000
0001
,
0000
1000
0000
0010
,
0000
0100
0000
0010
,
0000
0100
0000
0001
,
0000
1000
0000
1000
,
0000
0010
0000
0100
,
0000
0010
0000
2002
,
0000
0000
3003
0000
;

//---------------dance-single - ----------------
#NOTES:
     dance-single:
     :
     Medium:
     7:
     0.354,0.377,0.210,0.037,0.000:
0000
0000
0000
0000
,
0001
0001
0100
0001
,
1000
0010
1000
1000
,
0001
0000
0000
0001
0100
0000
0010
0000
,
0100
0010
1000
0001
,
0100
0000
0000
0100
0010
0000
0000
0000
,
0010
0001
0100
1000
,
0100
0000
0000
0100
0001
0000
0000
0000
,
0001
0100
0002
0003
,
0100
0010
0200
0300
,
1000
0010
2000
3000
,
1001
0000
0001
0000
,
0100
0010
1000
0010
,
0110
0000
0010
0000
,
1000
0010
0001
0010
,
1010
0000
0100
0000
,
0001
0100
1000
0100
,
0101
0000
0010
0000
,
0100
0000
0010
0000
0100
0000
0010
1000
,
1010
0000
0010
1000
0010
0000
1000
0000
,
1000
0100
0010
0001
0100
0010
1000
0001
,
0101
0000
0001
0100
0001
0000
0101
0000
,
0001
0100
1000
0100
0001
0100
1000
0100
,
1001
0000
0010
0100
1000
0000
1000
0000
,
1000
0100
0010
0100
0010
0000
0110
0000
,
0001
0010
0100
1000
0010
0000
0101
0000
,
0001
1000
0010
1000
0001
0000
0100
0010
,
0110
0000
0010
0100
0010
0000
1010
0000
,
1000
0010
0100
0001
0100
0010
1000
0010
,
0100
0000
1000
0010
0100
0000
0110
0000
,
1000
0100
0010
0100
1000
0100
0010
0100
,
1000
0000
1000
0010
0010
0000
0101
0000
,
0001
1000
0100
1000
0001
0000
0101
0000
,
0001
0010
1000
0010
0001
0000
1010
0000
,
1000
0010
0100
0010
0100
0001
0100
0001
,
0101
0000
0100
0001
0100
0000
0001
0000
,
0001
0010
0100
1000
0010
0100
0001
1000
,
1010
0000
1000
0010
1000
0000
1010
0000
,
1000
0010
0001
0010
1000
0010
0001
0010
,
1001
0000
0100
0010
0001
0000
0001
0000
,
0001
0010
0100
0010
0100
0000
0110
0000
,
1000
0100
0010
0001
0100
0000
1010
0000
,
1000
0001
0100
0001
1000
0000
0010
0100
,
0110
0010
0100
0001
,
1000
0010
1000
1000
,
0100
1000
0001
0100
,
0001
0100
0010
0100
,
0001
1000
0010
1000
,
0010
0100
0100
0001
,
0100
0010
0100
0100
,
0001
0000
1000
0000
0001
1000
0002
0000
,
0000
0000
0003
0000
;

//---------------dance-single - ----------------
#NOTES:
     dance-single:
     :
     Hard:
     12:
     0.491,0.448,0.146,0.055,0.247: // measure 1
0000
0000
0000
0000
,  // measure 2
0001
0001
0001
0001
,  // measure 3
1000
0000
1000
0000
1000
0000
1000
0001
,  // measure 4
1000
0001
0000
0000
0100
0000
0010
0000
0100
0000
0000
0000
0001
0000
0000
0000
,  // measure 5
0001
0100
0010
0100
0010
1000
0010
1000
,  // measure 6
0010
0100
0000
0000
0010
0000
0100
0000
0010
0000
0000
0000
0100
0000
0000
0000
,  // measure 7
0001
0100
0001
0000
1000
0000
0010
0000
0100
0001
0010
0000
1000
0000
0010
0000
,  // measure 8
1000
0001
0000
0000
0100
0000
0001
0000
0100
0000
0000
0000
0001
0000
0000
0000
,  // measure 9
0001
0100
0010
0000
0100
0000
0001
0000
1000
0010
0000
0000
1000
0000
0000
0000
,  // measure 10
1000
0010
0100
0000
0010
0000
1000
0000
0001
0100
0000
0000
0010
0000
0000
0000
,  // measure 11
0100
0010
0100
0000
0010
0000
1000
0000
0010
0100
0000
0000
0100
0000
0002
0000
,  // measure 12
0000
1003
0000
0000
0010
0000
1000
0000
,  // measure 13
1000
0010
0001
0010
1000
0000
0001
2000
,  // measure 14
0000
3010
1000
0010
0000
0000
0100
0000
,  // measure 15
0100
0010
0001
1000
0100
1000
0010
0200
,  // measure 16
0000
0301
0100
0001
0000
0000
0001
0000
,  // measure 17
0001
0100
1000
0100
0001
0000
1000
0002
,  // measure 18
0000
0103
0001
0100
0000
0000
0010
1000
,  // measure 19
0010
1000
0000
0000
1000
0001
0000
0000
0001
0100
0000
0000
0100
0000
0010
0000
,  // measure 20
1000
0010
0000
0000
1000
0000
0010
0000
0100
0000
0000
0000
1010
0000
0000
0000
,  // measure 21
1000
0001
0100
0000
0010
0000
0100
0000
1000
0001
1000
0000
0010
0000
0001
0000
,  // measure 22
1000
0010
0000
0000
0100
0000
0001
0000
0010
0000
0000
0000
0101
0000
0000
0000
,  // measure 23
0001
1000
0010
0000
0010
0000
0100
0000
1000
0100
1000
0000
1000
0000
0010
0000
,  // measure 24
0100
0010
0000
0000
0100
0000
0010
0000
0100
0000
0000
0000
1001
0000
0000
0000
,  // measure 25
1000
0010
1000
0000
0010
0000
0100
0000
0100
0001
0000
0000
0011
0000
0000
0000
,  // measure 26
0001
1000
0010
0000
0010
0000
1000
0000
1000
0010
0000
0000
1010
0000
0000
0000
,  // measure 27
0100
0010
0100
0000
0001
0000
0100
0000
0010
1000
0000
0000
0010
0000
0100
0000
,  // measure 28
0001
0100
0000
0000
0001
0000
0100
0000
0010
0000
0000
0000
0101
0000
0000
0000
,  // measure 29
0001
1000
0010
0000
0100
0000
0010
0000
0001
1000
0001
0000
0100
0000
1000
0000
,  // measure 30
0001
0100
0000
0000
0010
0000
1000
0000
0100
0000
0000
0000
1010
0000
0000
0000
,  // measure 31
1000
0001
0100
0000
0100
0000
0010
0000
0001
0010
0001
0000
0001
0000
0100
0000
,  // measure 32
0010
0100
0000
0000
0010
0000
0100
0000
0010
0000
0000
0000
1001
0000
0000
0000
,  // measure 33
0001
0100
0001
0000
0100
0000
0010
0000
0010
1000
0000
0000
1100
0000
0000
0000
,  // measure 34
1000
0001
0100
0000
0100
0000
0001
0000
0001
0100
0000
0000
0101
0000
0000
0000
,  // measure 35
0010
0100
0010
0000
1000
0000
0010
0000
0100
0001
0000
0000
1000
0000
0010
0000
,  // measure 36
0001
0010
0000
0000
0001
0000
0010
0000
1000
0000
0000
0000
0011
0000
0000
0000
,  // measure 37
0001
0100
0010
0000
0010
0000
1000
0000
0001
0100
0001
0000
0010
0000
0100
0000
,  // measure 38
0001
0010
0000
0000
1000
0000
0100
0000
0010
0000
0000
0000
1100
0000
0000
0000
,  // measure 39
0100
0001
0010
0000
0010
0000
1000
0000
0001
1000
0001
0000
0001
0000
0010
0000
,  // measure 40
1000
0010
0000
0000
1000
0000
0010
0000
1000
0000
0000
0000
0101
0000
0000
0000
,  // measure 41
0001
0010
0001
0000
0010
0000
1000
0000
1000
0100
0000
0000
0110
0000
0000
0000
,  // measure 42
0100
1000
0010
0000
0010
0000
0001
0000
0001
0010
0000
0000
0011
0000
0000
0000
,  // measure 43
1000
0010
1000
0000
0100
0000
1000
0000
0010
0001
0000
0000
0100
0000
0010
0000
,  // measure 44
0100
0010
0000
0000
0100
0000
0010
0000
1000
0000
0010
0000
0100
0000
0000
0000
,  // measure 45
0010
0000
1000
0010
0001
0010
1000
0000
,  // measure 46
0001
0000
0001
1000
0010
1000
0001
0000
,  // measure 47
0100
0000
0010
0100
0010
1000
0001
0000
,  // measure 48
0100
0000
0001
0010
0100
1000
0010
0000
,  // measure 49
1000
0000
1000
0100
0010
0001
0100
0000
,  // measure 50
1000
0000
1000
0001
1000
0001
1000
0000
,  // measure 51
0010
0000
0010
0001
0100
1000
2002
0000
,  // measure 52
0000
0000
3003
0000
;
