#TITLE:The Light;
#SUBTITLE:;
#ARTIST:FAKY;
#TITLETRANSLIT:;
#SUBTITLETRANSLIT:;
#ARTISTTRANSLIT:;
#CREDIT:;
#BANNER:The Light.png;
#BACKGROUND:The Light-bg.png;
#LYRICSPATH:;
#CDTITLE:;
#MUSIC:The Light.mp3;
#OFFSET:0.720;
#SAMPLESTART:44.140;
#SAMPLELENGTH:15.000;
#SELECTABLE:YES;
#BPMS:0.000=123.000;
#STOPS:;
#BGCHANGES:;

//---------------dance-single - ----------------
#NOTES:
     dance-single:
     :
     Beginner:
     2:
     0.168,0.170,0.041,0.061,0.000:
0000
0000
0000
0000
,
0000
0000
0000
0000
,
0000
0000
0000
0000
,
1001
0000
0001
0000
,
0001
0000
1000
0000
,
1000
0000
0010
0000
,
0010
0000
0100
0000
,
0100
0000
0010
0000
,
1000
0000
0001
0000
,
0100
0000
0001
0000
,
0001
0000
1000
0000
,
0010
0000
1000
0000
,
0010
0000
0100
0000
,
0100
0000
0010
0000
,
0010
0000
1000
0000
,
1001
0000
0001
0001
,
0001
0000
1000
1000
,
1000
0000
0010
0010
,
0010
0000
0100
0100
,
0100
0000
0001
0000
,
0100
0000
0001
0000
,
0100
0000
0010
0000
,
1000
0000
0001
0000
,
1000
0010
1000
0000
,
0010
0100
0001
0000
,
1000
0001
0100
0000
,
0010
0100
0010
0000
,
0002
0000
0003
0000
,
2000
0000
3000
0000
,
0200
0000
0300
0000
,
0020
0000
0030
0000
,
0110
0010
0100
0000
,
1000
0001
0100
0000
,
0001
0100
0001
0000
,
1000
0010
1000
0000
,
0010
0010
0010
0000
,
1000
0100
1000
0000
,
0001
0010
0001
0000
,
1000
0000
0001
0000
,
0100
0000
0010
0000
,
1000
1000
1000
0000
,
0010
0010
0010
0000
,
0100
0100
0100
0000
,
0001
0001
0001
0000
,
0010
0100
0010
0000
,
1000
0000
0001
0000
,
0100
0000
0010
0000
,
2002
0000
3003
0000
;

//---------------dance-single - ----------------
#NOTES:
     dance-single:
     :
     Easy:
     3:
     0.220,0.289,0.092,0.154,0.000:
0000
0000
0000
0000
,
0010
0000
0000
0000
,
0100
0000
0220
0000
,
0330
0000
0010
0000
,
1000
0000
0001
0000
,
0100
0000
0001
0000
,
1000
0001
0100
0001
,
1001
1000
0001
0000
,
0100
1000
0010
0000
,
1000
0001
0100
0000
,
1000
0000
0001
0000
,
0100
0001
0100
0000
,
0010
0100
0010
0000
,
1000
0010
1000
0000
,
0100
0000
0001
0000
,
1000
0010
1000
0001
,
0100
0001
2000
3000
,
0001
0100
0010
0100
,
0001
1000
0020
0030
,
1000
0000
1010
0000
,
0001
0000
0101
0000
,
0001
1000
0100
0000
,
0010
0100
0010
0100
,
0110
0000
0010
1000
,
0001
0000
0100
0001
,
1000
0000
0010
0100
,
0002
0023
0230
1300
,
2000
0000
3000
0010
,
0200
0000
0300
1000
,
0002
0000
0003
1000
,
0020
0000
0030
1000
,
1001
0000
0010
1000
,
0001
0000
0100
0010
,
1000
0000
0001
0010
,
2000
3200
0320
0031
,
1001
0000
0001
1000
,
0100
0000
0010
1000
,
0002
0000
0003
0000
,
0001
0100
1000
0000
,
1010
0000
0100
0000
,
1000
0010
0100
0000
,
0010
0001
1000
0000
,
0010
0100
0010
0000
,
0001
0100
0001
0000
,
1000
0001
1000
0000
,
0001
0010
0100
0000
,
1000
0000
0010
0000
,
1001
0000
0000
0000
;

//---------------dance-single - ----------------
#NOTES:
     dance-single:
     :
     Medium:
     6:
     0.331,0.340,0.092,0.164,0.005:
0000
0000
0000
0000
,
1000
0000
0000
0100
0000
0000
0010
0000
,
0000
0000
0100
0000
0000
0001
0000
0000
2001
0000
0000
0000
0000
0000
0000
0000
,
3010
0000
1000
0000
,
0001
0000
0100
0000
,
0010
0000
0000
0000
1000
0000
0000
1001
,
0000
0010
0000
0000
0001
0010
0100
1000
,
0010
0000
1000
0000
0001
0000
0010
0100
,
0010
0200
0000
0000
0310
0000
1000
0010
,
1000
0002
0000
0000
1003
0000
0010
0000
,
1000
0000
0010
0000
1000
0001
1000
0020
,
0000
0130
0010
1000
,
0001
0000
0001
1000
,
0001
0000
0100
0010
,
1000
0000
0001
0100
1000
0100
0001
0100
,
1000
0010
0100
0000
,
1000
0001
0100
0000
,
0001
1000
0010
0000
,
1000
1000
0010
0000
,
2000
0000
3001
0000
,
0020
0000
0031
0000
,
1000
0000
0010
0000
0100
0000
0001
1001
,
0000
0001
0001
0010
0100
1000
0010
1000
,
1010
0000
0010
0000
0000
0010
1000
0000
,
0001
0000
0001
0000
0000
0010
0100
0000
,
0010
0000
0100
0000
0000
0001
0010
0000
,
0002
0000
0023
0000
0230
0000
1300
0002
,
0000
0000
1003
0000
0000
0010
0100
0010
,
1000
0000
0001
0000
0100
0001
0100
0000
,
0010
0000
1000
0000
0000
0100
0010
0000
,
0010
0001
0100
1000
0100
1000
0001
0000
,
0101
0000
0100
0000
0000
0100
0001
0000
,
1000
0000
1000
0000
0000
0100
0010
0000
,
0100
0000
0010
0000
0000
1000
0100
0000
,
2000
0000
3200
0000
0320
0000
0031
1000
,
0001
0000
0100
0000
0000
0100
0010
0100
,
0001
1000
0010
1000
,
0001
0000
0100
0000
0000
0000
0100
0010
,
0100
1000
0010
0001
0010
0001
1000
0010
,
1001
0001
0001
0100
,
0100
1000
0100
0010
0100
0010
0001
0001
,
0101
1000
1000
0100
,
0100
0100
0010
1000
0010
0001
0100
0001
,
0101
0001
1000
0010
,
1000
0010
0100
0010
,
0200
0310
1000
0010
,
0100
0000
0010
0001
0100
1000
0001
1000
,
2002
0000
0000
3003
0000
0000
0000
0000
;

//---------------dance-single - ----------------
#NOTES:
     dance-single:
     :
     Hard:
     12:
     0.496,0.462,0.092,0.287,0.179: // measure 1
0000
0000
0000
0000
,  // measure 2
0001
1000
0010
1000
0000
0000
1000
0010
0100
0010
0000
0000
1000
0001
1000
0001
,  // measure 3
0000
0000
0100
0000
0000
0010
0000
0000
2002
0000
0000
0000
0000
0000
3003
0000
,  // measure 4
1000
0000
0010
0000
0200
0000
0000
0000
0301
0000
1000
0000
1000
0010
0100
0000
,  // measure 5
0001
0000
0010
0000
0200
0000
0000
0000
0310
0000
1000
0000
0001
1000
0010
0000
,  // measure 6
0100
0000
0010
0000
2000
0000
0000
0000
3010
0000
1000
0000
0001
0100
0010
0000
,  // measure 7
0000
0010
0000
0000
0001
0010
0100
1000
,  // measure 8
1010
0000
0000
0000
0010
0000
1000
0000
0100
0000
1000
0000
0001
0000
1000
0010
,  // measure 9
0000
0000
0200
0000
0000
0000
0300
0000
0000
0000
1000
0000
0010
0000
0001
0100
,  // measure 10
0000
0000
0020
0000
0000
0000
0030
0000
0000
0000
1000
0000
0100
0000
0010
0100
,  // measure 11
0000
0001
1000
0010
0000
0100
0010
0100
,  // measure 12
0000
0000
0000
0000
0100
0000
0000
0000
0010
0000
1000
0000
0001
0000
0100
0001
,  // measure 13
0000
0000
0000
0000
1000
0000
0000
0000
0001
0000
1000
0000
0010
0000
0100
0010
,  // measure 14
0000
0000
0000
0000
0100
0000
0000
0000
0010
0000
0000
0000
1000
0000
0010
0100
,  // measure 15
0000
0010
1000
0001
0000
0000
0001
0100
,  // measure 16
1000
0000
0100
0000
0001
0000
1000
0010
0000
0000
0100
0000
0001
0000
1000
0000
,  // measure 17
0010
0000
0100
0000
0010
0000
1000
0000
0001
0000
0000
0100
0000
0000
0001
1000
,  // measure 18
0010
0000
1000
0000
0001
0000
0100
0010
0000
0000
1000
0000
0001
0000
0100
0000
,  // measure 19
0000
0010
1000
0010
0200
0000
0310
0000
,  // measure 20
2000
0000
3010
1000
0000
0010
1000
0001
,  // measure 21
0100
0001
0000
0000
0100
0000
0000
0000
,  // measure 22
0010
0000
1000
0100
0010
0001
0100
0010
,  // measure 23
0000
1000
1000
0001
0100
0010
0001
0100
,  // measure 24
1001
0000
0010
1000
0000
0001
1000
0000
0010
0000
1000
0000
0100
0000
0010
0000
,  // measure 25
0001
0000
0100
0010
0000
1000
0010
0000
0100
0000
0001
0000
0100
0000
0010
0000
,  // measure 26
0100
0000
0010
0100
0000
0010
0100
0000
1000
0000
0010
0000
1000
0000
0001
0000
,  // measure 27
0002
0000
0023
0000
0230
0000
1300
2000
,  // measure 28
0000
0000
3001
0000
1000
0000
1000
0010
0000
0000
0100
0000
0001
0000
0002
0000
,  // measure 29
0000
0000
1003
0000
0001
0000
0001
0100
0000
0000
0010
0000
0010
0000
0020
0000
,  // measure 30
0000
0000
1030
0000
0010
0000
0010
0100
0000
0000
1000
0000
0001
0000
0101
0000
,  // measure 31
0000
0001
0001
0100
0010
0001
0100
1000
,  // measure 32
1001
0000
0100
0001
0000
1000
0001
0000
0100
0000
0001
0000
0010
0000
0100
0000
,  // measure 33
1000
0000
0010
0100
0000
0001
0100
0000
0010
0000
1000
0000
0010
0000
0100
0000
,  // measure 34
0010
0000
0100
0010
0000
0100
0010
0000
0001
0000
0100
0000
0001
0000
2000
0000
,  // measure 35
0000
3002
0000
0203
0000
0320
0000
1030
,  // measure 36
0000
0010
1000
0010
0000
0100
0001
0010
,  // measure 37
0000
1000
0010
0100
0000
0110
0000
2002
,  // measure 38
0000
0000
0000
0000
0000
3003
0000
0020
,  // measure 39
0000
0130
0001
0100
1000
0100
0001
0100
,  // measure 40
1000
0000
0010
0000
0010
0000
0010
0200
,  // measure 41
0000
0301
0010
0001
0010
1000
0010
0001
,  // measure 42
0010
0000
1000
0000
1000
0000
1000
0001
,  // measure 43
0100
0001
0100
0001
0010
1000
0010
1000
,  // measure 44
0001
0000
0001
0000
0001
0100
0010
0200
,  // measure 45
0000
0310
0000
0010
0100
0010
0100
0001
,  // measure 46
0010
0100
1000
0000
0001
0000
1000
2002
,  // measure 47
0000
3003
1000
0100
0010
0100
0010
0001
,  // measure 48
0220
0000
0330
0000
;
