#TITLE:The Feels;
#SUBTITLE:;
#ARTIST:TWICE;
#TITLETRANSLIT:;
#SUBTITLETRANSLIT:;
#ARTISTTRANSLIT:;
#CREDIT:;
#BANNER:The Feels.png;
#BACKGROUND:The Feels-bg.png;
#LYRICSPATH:;
#CDTITLE:;
#MUSIC:The Feels.mp3;
#OFFSET:-0.680;
#SAMPLESTART:56.620;
#SAMPLELENGTH:15.000;
#SELECTABLE:YES;
#BPMS:0.000=120.000;
#STOPS:;
#BGCHANGES:-1.480=The Feels.avi=1.000=0=0=0,
99999=-nosongbg-=1.000=0=0=0 // don't automatically add -songbackground-
;

//---------------dance-single - ----------------
#NOTES:
     dance-single:
     :
     Easy:
     5:
     0.261,0.359,0.215,0.111,0.021:
0000
0000
0000
0000
,
0000
0000
0000
0000
,
0000
0000
0000
0000
,
0000
0000
0000
0000
,
0000
0100
0010
0100
,
0000
0001
1000
0010
,
0000
0001
0100
0001
,
0202
0303
0000
0100
,
0000
0010
1000
0100
,
0000
1000
1000
0010
,
0000
0100
0001
0010
,
0022
0033
0000
1000
,
0000
0001
0100
0001
,
0000
0100
0010
0100
,
0000
0010
0000
0110
,
0000
0010
0000
1000
,
0000
0001
1000
0010
,
0000
0100
0010
0100
,
0000
0010
0000
1001
,
0000
0100
0000
0110
,
0020
0100
0100
0130
,
0000
1000
0100
1000
,
0000
0001
0100
0010
,
0000
0100
0010
1000
,
0001
0001
0001
0000
0100
0000
0001
0000
,
1000
1000
1000
0000
0001
0000
1000
0000
,
0010
0000
1000
0000
0001
0000
0000
1001
,
0000
0110
0000
1001
0000
0220
0330
0000
,
1001
0100
0010
1000
,
0010
0100
0001
0010
,
0001
0000
0000
0001
0000
0000
0001
0000
0000
0000
0000
0000
0100
0000
0000
0000
,
0010
1010
0101
1010
,
0110
0100
0010
1000
,
0001
0100
0010
0100
,
1000
0000
0000
1000
0000
0000
1000
0000
0000
0000
0000
0000
0100
0000
0000
0000
,
0010
0110
1001
0110
,
0010
0010
0010
0000
,
0100
0010
2000
0000
,
3001
0001
0001
0000
,
0100
0010
0100
0101
,
1000
1000
1000
0000
,
0010
1000
0200
0000
,
0310
0010
0010
0000
,
0100
0010
1000
1001
,
0100
0001
0000
0100
,
0010
1000
0000
1000
,
1000
0001
0000
0010
,
0100
0001
0000
0100
,
0110
0010
1000
0010
,
0100
0001
0100
0010
,
2002
0000
0000
3003
,
0010
0000
0000
0010
0000
0000
0010
0000
0100
0000
0000
0100
0000
0000
0100
0000
,
0200
0000
0000
0300
,
1001
0010
0100
0001
,
0100
0010
1000
0100
,
1000
0000
0000
1000
0000
0000
1000
0000
0000
0000
0000
0000
0010
0000
0000
0000
,
0100
0101
1010
0101
,
0110
0010
0100
0001
,
1000
0010
0100
0010
,
0001
0000
0000
0001
0000
0000
0001
0000
0000
0000
0000
0000
0010
0000
0000
0000
,
0100
0110
1001
0110
,
0100
0100
0100
0000
,
0010
0100
0002
0000
,
1003
1000
1000
0000
,
0010
0100
0010
1010
,
0001
0001
0001
0000
,
0100
0001
0020
0000
,
0130
0100
0100
0000
,
0010
0100
0001
0220
,
0330
0000
0000
0000
;

//---------------dance-single - ----------------
#NOTES:
     dance-single:
     :
     Beginner:
     3:
     0.172,0.263,0.055,0.055,0.000:
0000
0000
0000
0000
,
0000
0000
0000
0000
,
0000
0000
0000
0000
,
0000
0000
0000
0000
,
0000
0010
0000
0100
,
0000
0010
0000
1000
,
0000
0010
0000
0001
,
0000
0001
0000
0001
,
0000
0100
0000
0010
,
0000
1000
0000
0010
,
0000
0100
0000
0001
,
0000
1000
0000
0001
,
0000
1000
1000
1000
,
0000
0001
0000
0001
,
0000
0100
0100
0100
,
0000
0010
0000
0010
,
0000
0001
0001
0001
,
0000
1000
0000
0010
,
0000
0100
1000
0100
,
0000
0001
0100
0001
,
0000
0001
0000
0100
,
0000
0001
0000
1000
,
0000
0010
0000
1000
,
0000
0100
0000
0000
,
1000
0001
1000
0000
,
0001
0100
0001
0000
,
0010
0100
0010
0000
,
1001
0110
1001
0110
,
0000
1000
0000
1000
,
0000
1000
0010
1000
,
0000
0100
0000
0010
,
0000
0001
0001
0001
,
0000
0100
0000
0001
,
0000
0001
0100
0001
,
0000
0100
0000
0010
,
0000
0100
0100
0100
,
0000
0010
0100
0010
,
0000
1000
2000
3000
,
0000
0001
1000
0001
,
0000
0100
0000
0110
,
0000
0010
1000
0010
,
0000
0001
0002
0003
,
0000
0100
0001
0100
,
0000
0010
0000
1000
,
0000
0100
0000
1000
,
0000
0001
0000
0001
,
0000
0100
0000
0010
,
0000
1000
0000
0010
,
0000
0100
0010
0100
,
0000
1000
1000
1000
,
0000
0001
0010
0001
,
0000
0100
0100
0100
,
0220
0000
0000
0330
,
0000
0001
0000
0001
,
0000
0001
0100
0001
,
0000
0010
0000
0100
,
0000
1000
1000
1000
,
0000
0010
0000
1000
,
0000
1000
0010
1000
,
0000
0010
0000
0100
,
0000
0010
0010
0010
,
0000
0100
0010
0100
,
0000
0001
0002
0003
,
0000
1000
0001
1000
,
0000
0010
0000
0110
,
0000
0100
0001
0100
,
0000
1000
2000
3000
,
0000
0010
1000
0010
,
0000
0100
0000
2002
,
3003
0000
0000
0000
;

//---------------dance-single - ----------------
#NOTES:
     dance-single:
     :
     Medium:
     9:
     0.381,0.407,0.146,0.187,0.049:
0000
0000
0000
0000
,
0000
0000
0000
0000
,
0000
0000
0000
0000
,
0000
0000
0000
0000
0001
1000
0001
1000
,
0001
0000
0100
0000
0010
0000
0100
0010
,
1000
0000
0001
0000
0100
0010
0100
0000
,
0001
0010
1000
1000
,
1001
0000
0000
0000
0001
1000
0001
0000
,
0100
0000
0010
0000
1000
0000
0010
0100
,
0010
0000
1000
0000
0010
1000
0001
0000
,
0010
0100
0010
0001
,
0101
0000
0000
0000
0100
0001
0010
0000
,
2010
0000
0020
0000
0000
3030
1000
0000
,
0001
0000
0100
0000
0001
0001
0001
0000
,
0100
0010
1000
0010
,
0100
0000
0001
0000
1000
1000
1000
0000
,
0102
0000
0200
0000
0000
0303
0001
0000
,
1000
0000
0010
0000
1000
1000
1000
0000
,
0010
0100
0001
0100
,
0010
0000
1000
0000
0010
0010
0010
0000
,
0000
0000
1000
0000
0000
0010
0000
0000
0100
0000
0000
0010
0000
0000
1000
0000
,
0001
0100
0001
1000
0000
0001
0100
0010
,
0100
0000
0000
0100
0000
0000
0100
0000
0000
0000
0010
0000
0100
0000
0010
0000
,
1000
0000
0000
0001
0000
0000
1000
0000
0000
0000
0010
0000
0000
0000
1010
0000
,
0010
1000
0010
0000
0010
0000
1000
0000
,
0010
1000
0100
0000
1000
0000
0001
0000
,
0000
0001
0100
0010
1000
0001
0100
0010
,
0000
0110
0000
1010
0000
0202
0300
0003
,
0202
0303
0001
0000
0100
0010
0100
0000
,
0010
0000
1000
0000
1000
0100
0010
0000
,
0100
0000
0000
0010
0000
0000
0001
0000
0000
0000
1000
0000
0010
0000
0100
0000
,
0010
0000
1000
0010
0001
0010
1000
0000
,
2200
3300
1000
0000
0001
0010
0100
0000
,
0010
0000
1000
0000
1000
0010
0100
0000
,
1000
0000
0000
0001
0000
0000
0010
0000
0000
0000
0100
0000
1000
0000
0001
0000
,
1000
0010
1000
0001
0100
0010
0001
0000
,
1000
0001
1000
0001
1000
0001
1000
0000
,
0010
0100
0010
0100
0220
0000
0330
0000
,
0100
0001
0100
0001
0100
0001
0100
0000
,
0001
0000
0000
0010
0000
0000
0100
0000
1000
0000
0100
0000
0010
0000
0000
0000
,
0010
0001
0010
1000
0010
0001
0010
0000
,
0100
0001
1000
0010
2020
0000
3030
0000
,
0001
0100
0001
1000
0010
0100
0010
0000
,
0100
0000
0000
0010
0000
0000
1000
0000
0001
0000
0100
0000
0010
0000
0000
0000
,
0100
0000
0000
0000
0010
0100
0010
0000
,
0110
0000
0000
0000
0100
0001
0100
0000
,
1001
0000
1000
0000
,
1010
0000
0010
0000
,
0110
0010
1000
0001
,
0100
0001
1000
0010
,
0200
0000
0000
0000
0000
0300
0000
0100
,
0100
0000
0000
0010
0000
0000
1000
0000
0001
0000
0000
0100
0000
0000
0010
0000
,
2000
0002
0000
3003
,
2020
3030
1000
0000
0010
0100
0010
0000
,
0100
0000
0001
0000
0001
0010
0100
0000
,
0010
0000
0000
0100
0000
0000
1000
0000
0000
0000
0001
0000
0100
0000
0010
0000
,
0100
0000
0001
0100
1000
0100
0001
0000
,
0022
0033
0001
0000
1000
0100
0010
0000
,
0100
0000
0001
0000
0001
0100
0010
0000
,
0001
0000
0000
1000
0000
0000
0100
0000
0000
0000
0010
0000
0001
0000
1000
0000
,
0001
0100
0001
1000
0010
0100
1000
0000
,
0001
1000
0001
1000
0001
1000
0001
0000
,
0100
0010
0100
0010
0220
0000
0330
0000
,
0010
1000
0010
1000
0010
1000
0010
0000
,
1000
0000
0000
0100
0000
0000
0010
0000
0001
0000
0010
0000
0100
0000
0000
0000
,
0100
1000
0100
0001
0100
1000
0100
0000
,
0010
1000
0001
0100
0202
0000
0303
0000
,
1000
0010
1000
0001
0100
0010
0100
0000
,
0010
0000
0000
0100
0000
0000
0001
0000
1000
0000
0010
0000
2002
0000
0000
0000
,
3003
0000
0000
0000
;

//---------------dance-single - ----------------
#NOTES:
     dance-single:
     :
     Hard:
     13:
     0.496,0.431,0.236,0.222,0.295: // measure 1
0000
0000
0000
0000
,  // measure 2
0000
0000
0000
0000
,  // measure 3
0000
0000
0000
0000
,  // measure 4
0000
0010
0000
0000
0001
0010
0100
1000
,  // measure 5
1010
0000
0000
0000
1000
0000
0010
1000
0000
0000
0010
1000
0001
0000
0100
0000
,  // measure 6
0001
0000
0000
0000
0100
0000
0100
0010
0000
0000
0001
1000
0010
0000
1000
0000
,  // measure 7
0010
0000
0000
0000
1000
0000
1000
0010
0000
0000
0100
0000
0001
0000
0000
0000
,  // measure 8
0202
0000
0303
0000
0000
0000
0001
0000
0100
0000
1000
0000
0100
0000
0001
1000
,  // measure 9
0000
0000
0000
0000
0001
0000
0100
0001
0000
0000
0100
0001
1000
0000
0010
0000
,  // measure 10
1000
0000
0000
0000
0010
0000
0010
0100
0000
0000
1000
0001
0100
0000
0001
0000
,  // measure 11
0100
0000
0000
0000
0001
0000
0001
0100
0001
0000
0010
0000
1000
0000
0000
0000
,  // measure 12
2020
3030
0000
1000
0010
0001
0010
1000
,  // measure 13
0100
0000
0010
0000
0002
0000
1000
0000
1003
0000
0000
0000
0100
0000
0010
0100
,  // measure 14
0000
0100
0000
0100
0001
1000
0010
0000
,  // measure 15
0000
0000
2000
0000
0000
3002
0000
0000
0203
0000
0000
0320
0000
0000
0130
0000
,  // measure 16
0110
0000
0010
0000
0100
0010
1000
0000
,  // measure 17
0010
0000
0100
0000
2000
0000
0001
0000
3001
0000
0000
0000
0010
0000
0100
0010
,  // measure 18
0000
0010
0000
0010
1000
0001
0100
0001
,  // measure 19
1000
0000
0010
0000
1000
0000
0010
0000
0100
0000
0001
1000
0000
0000
0010
0100
,  // measure 20
0010
0000
0100
0000
0100
0000
0010
0000
1000
0000
0001
1000
0000
0000
1000
0001
,  // measure 21
0000
0000
0010
0000
0000
0010
0000
0000
1000
0000
0000
0100
0000
0000
0001
0000
,  // measure 22
0010
0000
0100
0000
1000
0000
0010
1000
0000
0000
0010
0000
0100
0000
0001
0000
,  // measure 23
0001
0000
0000
0001
0000
0000
0100
0000
0000
0000
0010
1000
0010
0000
1000
0000
,  // measure 24
0010
0000
0000
1000
0000
0000
0010
0000
0000
0000
0110
0000
0000
0000
0100
0000
,  // measure 25
0100
0010
0100
0010
1000
0000
0001
0000
0010
0000
0000
0010
0000
0000
0010
0000
,  // measure 26
0001
1000
0010
1000
0001
0000
1000
0000
1000
0000
0000
1000
0000
0000
0001
0000
,  // measure 27
0000
1000
0100
0010
0001
0100
0010
1000
,  // measure 28
0000
1001
0000
0110
0000
2002
0000
3003
,  // measure 29
0220
0000
0330
0000
0010
0000
0000
0000
0100
0000
0010
1000
0000
1000
0001
0000
,  // measure 30
0000
0000
0100
0000
0001
0000
0000
0000
0100
0000
0000
0000
0010
1000
0001
1000
,  // measure 31
0010
0000
0000
0100
0000
0000
1010
0000
0000
0000
1000
0000
1000
0001
0100
0001
,  // measure 32
1000
0001
1000
0001
0100
0010
0100
0000
,  // measure 33
2002
0000
3003
0000
1000
0000
0000
0000
0001
0000
0100
0010
0000
0010
0100
0000
,  // measure 34
0000
0000
0010
0000
0010
0000
0000
0000
0010
0000
0000
0000
0010
1000
0010
1000
,  // measure 35
0001
0000
0000
0001
0000
0000
0101
0000
0000
0000
0100
0000
0100
0001
1000
0010
,  // measure 36
0100
0010
0100
0001
0100
0010
1000
0000
,  // measure 37
1000
0000
0100
0000
1000
0000
0100
0000
1000
0000
0100
1000
0000
0000
0000
0000
,  // measure 38
1000
0100
0010
0001
0002
0000
0000
0003
,  // measure 39
0001
0000
0100
0000
1000
0000
0100
0000
0001
0000
1000
0001
0000
0000
0000
0000
,  // measure 40
1001
0000
0000
0010
0000
0000
0110
0000
0100
0000
0001
0000
1000
0000
0000
0000
,  // measure 41
0100
0000
0001
0000
0100
0000
1000
0000
0100
0000
0001
1000
0000
0000
0000
0000
,  // measure 42
0001
1000
0010
1000
2000
0000
0000
3000
,  // measure 43
1000
0000
0001
0000
0100
0000
0010
0000
0100
0000
0001
1000
0000
0000
0000
0000
,  // measure 44
0101
0000
0000
0010
0000
0000
1010
0000
1000
0000
0100
0000
0010
0000
0000
0000
,  // measure 45
0001
0000
0000
0000
0000
0001
0100
0001
0100
0010
0000
0000
,  // measure 46
2020
0000
0000
3030
0000
1000
0001
0100
0001
1000
0000
0000
,  // measure 47
0202
0000
0000
0303
0000
0000
0010
0000
,  // measure 48
0100
0000
0100
0010
0000
0001
1000
0010
1000
0001
0000
0000
,  // measure 49
0100
0001
0100
0001
1000
0010
1000
0010
,  // measure 50
0100
0000
0001
0000
0100
0000
0010
0000
1000
0000
0000
0010
0000
0000
1001
0000
,  // measure 51
0220
0000
0000
0000
0000
0330
0000
0101
,  // measure 52
0001
0000
0000
1001
0000
0000
1010
0000
1000
0000
0000
1100
0000
0000
0010
0000
,  // measure 53
0110
0000
0000
2000
0002
0000
0000
0000
0000
0000
0000
0000
0000
3003
0000
0000
,  // measure 54
0220
0000
0330
0000
0100
0000
0000
0000
0010
0000
0100
0001
0000
0001
1000
0000
,  // measure 55
0000
0000
0010
0000
1000
0000
0000
0000
0010
0000
0000
0000
0100
0001
1000
0001
,  // measure 56
0100
0000
0000
0010
0000
0000
0101
0000
0000
0000
0001
0000
0001
1000
0010
1000
,  // measure 57
0001
1000
0001
1000
0010
0100
0010
0000
,  // measure 58
2002
0000
3003
0000
0001
0000
0000
0000
1000
0000
0010
0100
0000
0100
0010
0000
,  // measure 59
0000
0000
0100
0000
0100
0000
0000
0000
0100
0000
0000
0000
0100
0001
0100
0001
,  // measure 60
1000
0000
0000
1000
0000
0000
1010
0000
0000
0000
0010
0000
0010
1000
0001
0100
,  // measure 61
0010
0100
0010
1000
0010
0100
0001
0000
,  // measure 62
0001
0000
0010
0000
0001
0000
0010
0000
0001
0000
0010
0001
0000
0000
0000
0000
,  // measure 63
0001
0010
0100
1000
2000
0000
0000
3000
,  // measure 64
1000
0000
0010
0000
0001
0000
0010
0000
1000
0000
0001
1000
0000
0000
0000
0000
,  // measure 65
1001
0000
0000
0100
0000
0000
0110
0000
0010
0000
1000
0000
0001
0000
0000
0000
,  // measure 66
0010
0000
1000
0000
0010
0000
0001
0000
0010
0000
1000
0001
0000
0000
0000
0000
,  // measure 67
1000
0001
0100
0001
0002
0000
0000
0003
,  // measure 68
0001
0000
1000
0000
0010
0000
0100
0000
0010
0000
1000
0001
0000
0000
0000
0000
,  // measure 69
1010
0000
0000
0100
0000
0000
0101
0000
0001
0000
0010
0000
0100
0000
0000
0000
,  // measure 70
1001
0000
0000
0000
;
