#TITLE:Tear Drop;
#SUBTITLE:;
#ARTIST:SF9;
#TITLETRANSLIT:;
#SUBTITLETRANSLIT:;
#ARTISTTRANSLIT:;
#CREDIT:;
#BANNER:Tear Drop.png;
#BACKGROUND:Tear Drop-bg.png;
#LYRICSPATH:;
#CDTITLE:;
#MUSIC:Tear Drop.mp3;
#OFFSET:1.120;
#SAMPLESTART:49.300;
#SAMPLELENGTH:15.000;
#SELECTABLE:YES;
#BPMS:0.000=120.000;
#STOPS:193.000=2.000
;
#BGCHANGES:2.020=Tear Drop.avi=1.000=0=0=0,
99999=-nosongbg-=1.000=0=0=0 // don't automatically add -songbackground-
;

//---------------dance-single - ----------------
#NOTES:
     dance-single:
     :
     Easy:
     4:
     0.202,0.243,0.105,0.060,0.000:
0000
0000
0000
0000
,
0000
0000
0000
0000
,
0000
0000
0000
0000
,
0000
0000
0000
0000
,
0000
0000
0000
0000
,
0000
1000
0000
1000
,
0000
0001
0000
0001
,
0000
0010
0000
0010
,
0000
0220
0330
0000
,
0000
0100
0010
0100
,
0000
0001
0100
0001
,
0000
0100
0010
1000
,
1001
1000
1001
0001
,
1001
0000
0000
0010
,
0000
0100
0001
0100
,
0000
0010
0100
1000
,
0000
0001
0010
0100
,
0002
0000
1003
0000
,
0020
0000
1030
0000
,
0002
0000
0103
0000
,
1000
0100
0010
0001
,
2000
0000
3001
0000
,
0200
0000
0310
0000
,
2000
0000
3001
0000
,
0010
0100
0010
0100
,
1001
0001
1000
0000
,
1000
0010
0100
0000
,
0001
0010
0100
0000
,
0010
0100
1000
0000
,
1000
0010
0001
0000
,
1000
0001
1000
0000
,
0001
0100
0010
0000
,
1000
0001
1000
0000
,
0010
0000
0100
0000
,
0010
0000
1000
0001
,
1000
0000
0001
0000
,
0101
1010
0101
0001
,
1000
0000
0010
0000
,
0100
0000
0010
0000
,
0001
0000
1000
0000
,
0001
0010
1000
0010
,
0001
0000
1000
0000
,
0001
0100
0001
0100
,
0001
0100
0010
0100
,
0000
0010
0100
0010
,
0000
1000
0010
1000
,
0000
0010
0100
0010
,
0000
1000
0100
0010
,
0001
1001
0000
0110
,
1001
1000
0001
0000
,
0001
0100
0010
0000
,
1000
0100
0010
0000
,
0100
0010
0001
0000
,
0001
0100
1000
0000
,
0001
1000
0001
0000
,
1000
0010
0100
0000
,
0001
1000
0001
0000
,
0100
0000
0010
0000
,
0100
0000
0001
1000
,
0001
0000
1000
0000
,
1010
0101
1010
1000
,
0001
0000
0100
0000
,
0010
0000
0100
0000
,
1000
0000
0001
0000
,
1000
0100
0001
0100
,
1000
0000
0000
0000
;

//---------------dance-single - ----------------
#NOTES:
     dance-single:
     :
     Beginner:
     2:
     0.173,0.268,0.142,0.030,0.000:
0000
0000
0000
0000
,
0000
0000
0000
0000
,
0000
0000
0000
0000
,
0000
0000
0000
0000
,
0000
0000
0000
0000
,
0000
1000
0000
0001
,
0000
0001
0000
0100
,
0000
0010
0000
0100
,
0000
0010
0000
0000
,
0000
0100
0000
0010
,
0000
0100
0000
0001
,
0000
0100
0000
0001
,
0000
1000
0000
0010
,
0000
1000
0000
0010
,
0000
1000
0000
0001
,
0000
1000
0000
0000
,
1001
0110
1001
0000
,
0020
0000
0030
0000
,
0100
0000
0010
0000
,
2000
0000
3000
0000
,
1000
1000
1000
1000
,
1000
0000
0010
0000
,
0100
0000
0010
0000
,
0100
0000
0001
0000
,
0001
0000
1000
0000
,
0010
0010
0010
0000
,
0100
0100
0100
0000
,
0001
0001
0001
0000
,
1001
0110
1001
0000
,
1000
0001
1000
0000
,
0010
0100
0010
0000
,
0100
0001
0100
0000
,
0110
1001
0110
0000
,
0010
0000
0100
0000
,
0010
0000
1000
0000
,
0001
0000
0001
0000
,
0100
0100
0100
0000
,
0010
0000
0010
0000
,
1000
0000
0010
0000
,
1000
0000
0001
0000
,
0010
0010
0010
0000
,
0000
1000
0000
0001
,
0000
0100
0000
0001
,
0000
1000
0000
0010
,
0000
0100
0000
0010
,
0000
1000
0000
0010
,
0000
0010
0000
1000
,
0000
0001
0000
0001
,
0000
0220
0000
0330
,
0110
1001
0110
0000
,
0010
0010
0010
0000
,
1000
1000
1000
0000
,
1001
0110
1001
0000
,
0001
1000
0001
0000
,
0100
0010
0100
0000
,
0010
1000
0010
0000
,
0110
1001
0110
0000
,
0100
0000
0010
0000
,
0100
0000
0001
0000
,
1000
0000
1000
0000
,
0010
0010
0010
0000
,
0100
0000
0100
0000
,
0001
0000
0100
0000
,
0001
0000
1000
0000
,
0100
0100
0100
0000
,
0010
0000
0000
0000
;

//---------------dance-single - ----------------
#NOTES:
     dance-single:
     :
     Medium:
     7:
     0.264,0.340,0.255,0.067,0.000:
0000
0000
0000
0000
,
0000
0000
0000
0000
,
0000
0000
0000
0000
,
0000
0000
0000
0000
,
0000
0000
0000
0000
,
1000
0010
1000
0000
0010
1000
0010
0000
,
0100
0001
0100
0000
0001
0100
0001
0000
,
0010
0100
0010
0000
0100
0010
0100
0000
,
0000
2002
3003
0000
,
0000
0001
0000
0100
,
0000
0001
0000
0100
,
0000
0010
0000
1000
,
1001
0000
1010
0000
0101
0000
0001
0010
,
0100
0010
0000
1000
,
0000
0001
0000
0100
,
0000
0100
0000
0010
,
0101
1010
0011
1000
,
0020
1000
1030
0000
,
0020
0100
0130
0000
,
0200
0010
0310
0000
,
1000
1010
0010
0110
,
0200
0001
0301
0000
,
0200
0010
0310
0000
,
0020
0100
0130
0000
,
0001
0000
0101
0000
0100
0000
0010
0100
,
1001
0001
0101
1000
,
1100
0010
0110
0100
,
0101
0001
1001
0100
,
0110
0000
0010
0000
0100
0000
0010
0100
,
0110
0010
1000
0001
,
1000
0010
0100
0010
,
0100
0001
1000
0010
,
0100
0000
0010
0000
1000
0000
0001
1000
,
1001
0000
0010
0000
,
0100
0000
0001
0000
,
1000
0000
0010
0000
,
0010
0000
0100
0000
0001
0000
1000
0001
,
1001
0000
0100
0000
,
0010
0000
1000
0000
,
0001
0000
0100
0000
,
0100
0000
0010
0000
1000
0000
0001
1000
,
1001
0010
0000
0100
,
0000
0001
0000
1000
,
0000
0010
0000
1000
,
1100
0000
0110
0000
0011
0000
0001
1000
,
0001
0010
0000
0100
,
0000
0010
0000
1000
,
0000
0001
0000
1000
,
1000
0010
2000
0000
0000
3000
1000
0001
,
1001
1000
1010
0001
,
0011
0100
0110
0010
,
1010
1000
1001
0010
,
0110
0000
0100
0000
0010
0000
0100
0010
,
0110
0100
0001
1000
,
0001
0100
0010
0100
,
0010
1000
0001
0100
,
0010
0000
0100
0000
0001
0000
1000
0001
,
1001
0000
0100
0000
,
0010
0000
1000
0000
,
0001
0000
0100
0000
,
0100
0000
0010
0000
1000
0000
0001
1000
,
1001
0000
0010
0000
,
0100
0000
0001
0000
,
1000
0000
0010
0000
,
0010
0000
0100
0000
0001
0000
1000
0001
;

//---------------dance-single - ----------------
#NOTES:
     dance-single:
     :
     Hard:
     13:
     0.474,0.461,0.367,0.150,0.139: // measure 1
0000
0000
0000
0000
,  // measure 2
0000
0000
0000
0000
,  // measure 3
0000
0000
0000
0000
,  // measure 4
0000
0000
0000
0000
,  // measure 5
0000
0000
0000
0000
,  // measure 6
0100
0010
0100
0010
0000
0000
0000
0000
1000
0001
1000
0001
0000
0000
0000
0000
,  // measure 7
0001
0100
0001
0100
0000
0000
0000
0000
0000
0000
1000
0000
0100
0000
0010
0000
,  // measure 8
0001
1000
0001
1000
0000
0000
0000
0000
0100
0010
0100
0010
0000
0000
0000
0000
,  // measure 9
1000
0010
1000
0010
0000
0000
0000
0000
1000
0000
0010
0000
0100
0000
0001
0000
,  // measure 10
0000
0000
0001
0100
0010
0000
1000
0000
0010
0000
0000
0000
0100
0000
0010
0000
,  // measure 11
0000
0000
0010
0000
0000
0001
0010
0100
,  // measure 12
0000
0000
0000
0000
0001
0100
0000
0000
0100
0001
0000
0000
1000
0000
0000
0000
,  // measure 13
0110
0000
1010
0000
1100
0000
1000
0010
,  // measure 14
0001
0000
1000
0010
0100
0000
0001
0000
0100
0000
0000
0000
0010
0000
0100
0000
,  // measure 15
0000
0010
0100
0010
1000
1000
0100
0010
,  // measure 16
0000
0010
1000
0100
0001
0100
1000
0010
,  // measure 17
0110
0101
0011
0001
,  // measure 18
2000
3010
0010
1000
0010
0100
0001
0000
,  // measure 19
0200
0000
0301
0100
0001
0000
1000
0000
0010
0000
0100
0000
1000
0000
0000
0000
,  // measure 20
2000
3001
0001
0010
0100
0000
0010
1000
,  // measure 21
0010
0100
0010
1000
,  // measure 22
0002
0103
0100
0001
0100
0010
1000
0000
,  // measure 23
0020
0000
1030
0010
1000
0000
0001
0000
0100
0000
0010
0000
0001
0000
1000
0000
,  // measure 24
0002
1003
1000
0100
0010
0000
0100
0001
,  // measure 25
0100
0000
0010
0100
0010
0000
0100
0010
,  // measure 26
0101
0000
0001
0100
0002
0000
0103
0010
,  // measure 27
0010
0000
1000
0010
0200
0000
0310
0000
,  // measure 28
1000
0000
1000
0100
0020
0000
0031
0010
,  // measure 29
0100
0000
1100
0000
0110
0000
0001
1000
,  // measure 30
1001
0000
1000
0010
2000
0000
3010
0100
,  // measure 31
0100
0000
0001
0100
0020
0000
0130
0000
,  // measure 32
0001
0000
0001
0010
0200
0000
1300
0100
,  // measure 33
0010
0000
0011
0000
0110
0000
1000
0001
,  // measure 34
1001
0001
0101
0100
,  // measure 35
0110
0000
0000
0000
0010
0000
0010
0100
0010
0000
0100
0000
0001
0000
1000
0000
,  // measure 36
0000
1000
0010
0001
0010
1000
0010
0001
,  // measure 37
1010
0000
0101
0000
1001
0000
1000
1000
,  // measure 38
1001
1000
1010
0010
,  // measure 39
0110
0000
0000
0000
0100
0000
0100
0010
0100
0000
0010
0000
1000
0000
0001
0000
,  // measure 40
0000
0001
0100
1000
0100
0001
0100
1000
,  // measure 41
0101
0000
1010
0000
1001
0000
0001
1000
,  // measure 42
0000
0000
0010
0000
0010
0000
0100
0000
0010
0000
1000
0000
0001
1000
0000
0001
,  // measure 43
1000
0000
0010
0100
0010
0000
0100
0010
0100
0000
0001
0000
0001
0000
0001
0000
,  // measure 44
0000
0000
0000
0000
1000
0010
0000
0000
0010
0100
0000
0000
0100
0001
0000
0000
,  // measure 45
0101
0000
0000
0000
0001
0100
0000
0000
0110
0000
0000
0000
1000
0000
0000
0000
,  // measure 46
1001
0000
0001
0100
0001
0000
0100
0000
0010
0100
0000
0000
0010
0100
0000
0000
,  // measure 47
0000
0000
1000
0000
0100
0000
0010
0000
1000
0000
0001
0000
0100
0001
0000
0000
,  // measure 48
0000
0000
0000
0000
1000
0010
1000
0000
0001
0100
0000
0000
0001
0100
0000
0000
,  // measure 49
1001
0010
0220
0000
0000
0330
0100
0010
,  // measure 50
1010
0000
1000
0010
2000
0000
3010
0100
,  // measure 51
0100
0000
0001
0100
0020
0000
0130
0000
,  // measure 52
0001
0000
0001
0010
0200
0000
1300
0100
,  // measure 53
0010
0000
0011
0000
0110
0000
1000
0001
,  // measure 54
1001
0000
0001
0100
0002
0000
0103
0010
,  // measure 55
0010
0000
1000
0010
0200
0000
0310
0000
,  // measure 56
1000
0000
1000
0100
0020
0000
0031
0010
,  // measure 57
0100
0000
1100
0000
0110
0000
0001
1000
,  // measure 58
1001
1000
1010
0010
,  // measure 59
0110
0000
0000
0000
0100
0000
0100
0010
0100
0000
0010
0000
1000
0000
0001
0000
,  // measure 60
0000
0001
0100
1000
0100
0001
0100
1000
,  // measure 61
0101
0000
1010
0000
1001
0000
0001
0001
,  // measure 62
1001
0001
0101
0100
,  // measure 63
0110
0000
0000
0000
0010
0000
0010
0100
0010
0000
0100
0000
0001
0000
1000
0000
,  // measure 64
0000
1000
0010
0001
0010
1000
0010
0001
,  // measure 65
1010
0000
0101
0000
1001
0000
0110
1001
;
