#TITLE:Talk & Talk;
#SUBTITLE:;
#ARTIST:fromis_9;
#TITLETRANSLIT:;
#SUBTITLETRANSLIT:;
#ARTISTTRANSLIT:;
#CREDIT:;
#BANNER:Talk & Talk.png;
#BACKGROUND:Talk & Talk-bg.png;
#LYRICSPATH:;
#CDTITLE:;
#MUSIC:Talk & Talk.mp3;
#OFFSET:-0.440;
#SAMPLESTART:56.100;
#SAMPLELENGTH:15.000;
#SELECTABLE:YES;
#BPMS:0.000=113.000,208.000=56.500,224.000=113.000;
#STOPS:;
#BGCHANGES:-1.040=Talk & Talk.avi=1.000=0=0=0,
99999=-nosongbg-=1.000=0=0=0 // don't automatically add -songbackground-
;

//---------------dance-single - ----------------
#NOTES:
     dance-single:
     :
     Easy:
     5:
     0.224,0.303,0.154,0.274,0.000:
0000
0000
0000
0000
,
0000
0000
0000
0000
,
0000
0000
0000
0000
,
0000
0000
0000
0000
,
0000
0000
0000
0000
,
0000
0000
0000
0000
,
0000
0000
0000
0000
,
0000
0000
0000
0000
,
0000
0000
0000
0000
,
0010
0100
0010
0000
,
1000
0010
0100
0000
,
0001
0100
0001
0000
,
0010
0010
0001
1001
,
0001
1000
0010
0000
,
0100
0010
0100
0000
,
1000
1000
0010
0000
,
0010
0010
0100
0110
,
0000
0020
0130
0010
,
0000
0010
0000
1000
,
0000
0002
1003
0001
,
0000
1000
0000
0010
,
0020
2030
3002
0103
,
0000
0010
0000
0100
,
0220
0330
2020
3030
,
2002
0000
0000
3003
,
1000
0100
0010
2002
,
3003
0010
0001
0010
,
0000
0100
0010
1000
,
0000
0001
0100
0010
,
1000
0010
0100
0101
,
0000
0001
0100
0010
,
0000
1000
1000
0010
,
0000
0100
0010
0100
,
0010
0010
1000
1001
,
0010
0100
0220
0330
,
0001
1000
2002
3003
,
0120
0130
0000
0010
,
0000
0100
0000
1001
,
1000
0001
0202
0303
,
0010
1000
2020
3030
,
0210
0310
0000
0010
,
0000
1000
0010
0002
,
2000
0000
0000
3003
,
0000
0010
0010
0100
,
0000
0001
0001
0010
,
0000
1000
1000
0100
,
0000
0100
0100
0010
,
0000
1000
0001
1000
,
0000
0010
0100
0010
,
0000
0100
0010
0010
,
0000
0010
0100
0010
,
0000
0010
0220
0330
,
0000
1000
0100
1000
0000
0001
0100
0001
,
0000
0010
0010
0100
0000
0100
0010
1000
,
0000
0001
0001
0100
0000
0010
0010
1000
,
0000
1000
0010
2000
0002
0000
0000
3003
,
0100
0010
0220
0330
,
1000
0001
2002
3003
,
0210
0310
0000
0100
,
0000
0010
0000
1001
,
0001
1000
2020
3030
,
0100
0001
0202
0303
,
0120
0130
0000
0100
,
0000
0001
0100
2000
,
0002
0000
0000
3003
;

//---------------dance-single - ----------------
#NOTES:
     dance-single:
     :
     Beginner:
     2:
     0.170,0.216,0.087,0.067,0.000:
0000
0000
0000
0000
,
0000
1000
0000
0001
,
0000
1000
0000
0001
,
0000
0100
0000
0010
,
0000
0010
0000
0100
,
0000
0010
0000
0100
,
0000
0001
0000
1000
,
0000
0001
0000
1000
,
0000
0000
0000
0000
,
0000
0001
0000
0001
,
0001
0001
0000
0100
,
0000
0100
0100
0100
,
0000
0110
1001
0110
,
0000
0010
0000
0010
,
0000
1000
0010
1000
,
0000
0100
0000
0100
,
0000
0101
1010
0101
,
0000
0001
0000
0010
,
0000
0100
0000
1000
,
0000
1000
0000
0100
,
0000
0010
0000
0001
,
0000
0001
0000
1000
,
0000
0100
0000
0010
,
0000
1000
0000
0010
,
0010
0020
0000
0030
,
0000
0100
0000
0220
,
0330
0110
0000
0010
,
0000
0100
0000
0010
,
0000
1000
0000
0001
,
0000
0100
0001
1001
,
0000
1000
0000
0010
,
0000
0100
0000
0010
,
0000
1000
0000
0010
,
0000
0100
0010
0110
,
0000
0010
0010
0010
,
0000
1000
1000
1000
,
0000
0001
0001
0001
,
0000
0010
0010
0010
,
0000
0100
0100
0100
,
0000
0010
0010
0010
,
0000
1000
1000
1000
,
0000
0100
0100
0200
,
0000
0000
0000
0310
,
0000
0010
0000
0100
,
0000
0001
0000
1000
,
0000
0001
0000
0100
,
0000
0001
1000
0001
,
0000
1000
0000
0010
,
0000
0100
0000
0001
,
0000
1000
0000
0010
,
0000
0100
0010
0100
,
0000
2002
0000
3003
,
0000
0001
0000
1000
0000
0010
0000
1000
,
0000
0001
0000
0100
0000
0001
0000
0010
,
0000
0001
0000
1000
0000
0100
0000
1000
,
0000
0001
1000
2002
0000
0000
3003
0000
,
0000
0100
0100
0100
,
0000
0001
0001
0001
,
0000
1000
1000
1000
,
0000
0100
0100
0100
,
0000
0010
0010
0010
,
0000
0100
0100
0100
,
0000
0001
0001
0001
,
0000
0010
0100
0010
,
0220
0000
0000
0330
;

//---------------dance-single - ----------------
#NOTES:
     dance-single:
     :
     Medium:
     8:
     0.316,0.433,0.074,0.033,0.047:
0000
0000
0000
0000
,
0010
0100
0010
0000
,
0001
0001
0100
0000
,
1000
0010
1000
0000
,
0001
0010
0100
0000
,
0010
0100
1000
0000
,
1000
0001
0001
0000
,
0100
0010
1000
0000
,
0001
0100
0001
1000
,
1000
0010
0100
0010
0100
0000
0010
0000
,
0100
0010
1000
0010
0100
0000
0001
0000
,
0001
0010
0100
1000
0001
0000
0100
0000
,
0101
0010
0110
0100
,
0010
0010
0100
0010
0100
0000
0001
0000
,
0010
0001
1000
0100
1000
0000
0001
0000
,
1000
0010
0100
0001
0100
0000
0010
0000
,
1000
0001
0100
0001
1000
0000
0010
0000
,
0000
0100
0000
0010
,
0000
1000
0000
0001
,
0000
0100
0000
0001
,
0000
0010
0000
0001
,
0000
0100
0000
0010
,
0000
0100
0000
0010
,
1000
0000
1000
0000
0001
0000
0001
0200
,
0000
0000
0000
0000
0000
0000
0000
0000
0000
0000
0000
0000
0000
0000
0300
0010
,
0000
0000
0100
0010
0100
0010
0100
0000
0010
0000
0000
0000
1010
0000
0000
0000
,
0001
0000
0000
0000
0100
0000
0001
0000
0100
0000
0000
0000
0100
0000
0000
0010
,
0000
0000
0000
0000
1000
0000
0010
0000
0100
0000
0000
0000
0010
0000
0000
1000
,
0000
0001
0100
0001
0010
0000
0001
0000
,
0100
0000
1000
0100
0010
0001
1001
0000
,
0100
0000
0000
0000
0010
0000
0100
0000
0001
0000
0000
0000
0100
0000
0000
0010
,
0000
0000
0000
0000
1000
0000
1000
0000
0010
0000
0000
0000
0010
0000
0000
0100
,
0000
0000
0010
0100
0010
0000
1000
0000
,
0001
0000
0001
0100
1000
0100
1001
0000
,
0001
0010
0001
0010
0001
0000
0010
0000
,
0100
0010
0100
0010
0100
0000
0010
0000
,
1000
0010
1000
0010
1000
0000
0100
0000
,
0001
0100
0001
0100
0001
0000
0100
0000
,
0010
0100
0010
0100
0010
0000
1000
0000
,
1000
0001
1000
0001
1000
0000
0001
0000
,
0001
1000
0001
1000
0001
0000
0100
0000
,
0001
0100
1000
0100
0001
0000
1001
0000
,
1000
0010
0100
0000
0010
0100
0010
0000
,
0100
0010
0100
0001
,
0100
0001
1000
0010
,
1000
0001
0100
0010
,
0100
0000
0010
0000
1000
0010
0100
0000
,
0010
1000
0001
1000
,
0100
0010
0001
0100
,
0001
1000
0100
1000
,
0001
0100
0010
0110
,
0000
0220
0000
0330
0010
0000
1001
0000
,
0100
0010
0100
0010
1000
0001
0100
0001
,
0100
0010
0100
0010
0100
0000
0010
0000
1000
0000
0001
0000
0100
0000
0010
0000
,
0100
0010
1000
0001
0100
0001
1000
0010
,
1000
0000
0010
0000
0001
0000
0010
0000
1000
0000
0000
0000
0010
0000
0000
0000
0100
0000
0000
0010
0000
0000
0100
0000
0000
0001
0000
0000
1000
0000
0000
0000
,
1000
0100
1000
0100
1000
0000
0100
0000
,
0010
0100
0010
0100
0010
0000
0100
0000
,
0001
0100
0001
0100
0001
0000
0010
0000
,
1000
0010
1000
0010
1000
0000
0010
0000
,
0100
0010
0100
0010
0100
0000
0001
0000
,
0001
1000
0001
1000
0001
0000
1000
0000
,
1000
0001
1000
0001
1000
0000
0010
0000
,
1000
0010
0001
0010
1000
0000
1001
0000
,
0220
0000
0000
0330
;

//---------------dance-single - ----------------
#NOTES:
     dance-single:
     :
     Hard:
     14:
     0.450,0.564,0.167,0.140,0.545: // measure 1
0000
0000
0000
0000
0000
0000
0000
0000
0000
0000
0000
0000
0000
0000
0000
0100
,  // measure 2
0000
0010
0100
0000
0100
0000
0010
0000
1000
0000
0000
0010
0000
0000
0100
0010
,  // measure 3
0000
0010
0100
0000
0010
0000
0100
0000
0001
0000
0000
0100
0000
0000
0202
0000
,  // measure 4
0000
0000
0000
0000
0000
0000
0303
0000
0000
0000
0001
0100
0000
0001
0000
0000
,  // measure 5
0000
0000
1000
0010
0000
1000
0000
0000
0000
0000
0010
0100
0000
0010
0000
0100
,  // measure 6
0000
0001
1000
0000
1000
0000
0010
0000
0100
0000
0000
0010
0000
0000
0100
0001
,  // measure 7
0000
0001
1000
0000
0010
0000
1000
0000
0100
0000
0000
1000
0000
0000
2002
0000
,  // measure 8
0000
0000
0000
0000
0000
0000
3003
0000
0000
0000
0100
0010
0000
0100
0000
0000
,  // measure 9
0000
0000
0010
0100
0000
0010
0000
0000
0000
0000
1000
0001
0000
1000
0000
0001
,  // measure 10
0000
0000
0100
0000
0001
0000
0100
0000
0010
0000
0000
0100
0000
0000
0000
0010
,  // measure 11
0000
0000
0010
0000
0100
0000
0010
0000
0100
0000
0000
0001
0000
0100
0000
0010
,  // measure 12
0000
0000
1000
0000
1000
0000
0010
0000
0100
0000
0010
0100
0000
0001
0000
0100
,  // measure 13
0000
0000
0001
0000
1000
0000
0010
0000
1000
0000
0001
0000
1001
0000
0000
1000
,  // measure 14
0000
0000
0010
0000
1000
0000
0010
0000
0100
0000
0000
0010
0000
0000
0000
0100
,  // measure 15
0000
0000
0100
0000
0010
0000
0100
0000
0010
0000
0000
1000
0000
0010
0000
0100
,  // measure 16
0000
0000
0001
0000
0001
0000
0100
0010
0100
0000
0100
0010
0000
1000
0000
0010
,  // measure 17
0000
1000
0001
0100
0001
1000
1001
0000
,  // measure 18
0001
0000
0100
0000
0001
0000
0000
0000
0100
0000
0000
0000
0010
0000
0000
1010
,  // measure 19
0000
0000
1000
0010
0100
0010
1000
0000
0010
0000
0000
0000
0100
0000
0000
0000
,  // measure 20
1000
0000
0010
0000
1000
0000
0000
0000
0010
0000
0000
0000
0100
0000
0000
0101
,  // measure 21
0000
0000
0001
0100
0010
0100
0001
0000
0100
0000
0000
0000
0010
0000
0000
0000
,  // measure 22
0000
0000
0000
0010
0000
1000
0000
0010
0000
1000
0000
0001
0000
0100
0000
0010
,  // measure 23
0000
0100
0000
0010
0000
0100
0000
1001
0000
0000
0000
0000
0110
0000
0000
0000
,  // measure 24
0202
0303
0220
0330
2020
3030
1000
2010
,  // measure 25
0000
0000
0000
0000
0000
0000
0000
0000
0000
0000
0000
0000
3010
0000
0000
0100
,  // measure 26
0000
0001
0100
0001
0100
0010
0100
0000
0010
0000
0000
0000
1001
0000
0000
0000
,  // measure 27
0001
0000
0100
0000
0001
0000
0100
0000
0010
0000
0000
0000
1000
0000
0000
0010
,  // measure 28
0000
0000
0000
0000
1000
0010
1000
0010
0000
0000
0100
0000
0010
0000
0000
0000
,  // measure 29
1000
0000
0100
0000
0010
0000
0001
0000
1000
0000
0000
0000
0010
0000
0100
0010
,  // measure 30
0000
0100
0010
1000
0001
0100
0101
0000
,  // measure 31
0100
0000
0010
0000
0100
0000
0010
0000
1000
0000
0000
0000
0100
0000
0000
0001
,  // measure 32
0000
0000
0000
0000
0100
0001
1000
0010
0000
0000
0010
0000
0100
0000
0000
0000
,  // measure 33
0001
0000
0100
0000
1000
0000
0100
0000
0001
0000
0000
0000
1000
0000
0001
1000
,  // measure 34
0000
0000
0010
0000
1000
0000
0010
0000
0100
0000
0001
0000
1001
0000
0000
0010
,  // measure 35
0000
0100
0010
0000
0010
0000
0100
0000
0001
0000
0000
0100
0000
0000
0010
0100
,  // measure 36
0000
0100
0010
0000
0100
0000
0010
0000
1000
0000
0000
0010
0000
0000
2020
0000
,  // measure 37
0000
0000
0000
0000
0000
0000
3030
0000
0000
0000
1000
0010
0000
1000
0000
0000
,  // measure 38
0000
0000
0001
0100
0000
0001
0000
0000
0000
0000
0100
0010
0000
0100
0000
0010
,  // measure 39
0000
1000
0001
0000
0001
0000
0100
0000
0010
0000
0000
0100
0000
0000
0010
1000
,  // measure 40
0000
1000
0001
0000
0100
0000
0001
0000
0010
0000
0000
0001
0000
0000
2002
0000
,  // measure 41
0000
0000
0000
0000
0000
0000
3003
0000
0000
0000
0010
0100
0000
0010
0000
0000
,  // measure 42
0000
0000
0100
0010
0000
0100
0000
0010
0000
1000
0000
1000
0000
0010
0000
0100
,  // measure 43
0000
0100
0001
0100
0010
1000
0010
0100
0001
0100
0000
0000
,  // measure 44
0010
1000
0010
0000
0100
0000
0010
0000
,  // measure 45
1000
0010
0100
0000
0001
0000
0001
0000
,  // measure 46
0100
0010
1000
0000
0010
0000
1000
0000
,  // measure 47
0001
0001
0100
0000
0010
0100
0101
0000
,  // measure 48
0100
0001
0100
0000
0010
0000
0100
0000
,  // measure 49
0001
0100
0010
0000
1000
0000
1000
0000
,  // measure 50
0010
0100
0001
0100
0010
1000
1000
0100
,  // measure 51
0010
0001
0100
0010
0100
0000
1001
0000
,  // measure 52
1000
0000
0000
0001
0000
0000
1000
0000
0001
0000
0000
0000
1001
0000
0000
0000
,  // measure 53
0001
0000
0000
0000
0100
0001
0100
0001
0000
0000
0000
0000
0001
0000
0000
0100
0000
0000
0000
0000
0010
1000
0010
1000
0000
0000
0000
0000
1000
0000
0000
0010
,  // measure 54
0000
0000
1000
0000
0010
0000
0100
0000
0010
0000
0000
0100
0000
0000
0100
0010
0000
0000
0100
0000
0001
0000
0100
0000
0000
0000
0010
0000
0100
0000
0001
0000
,  // measure 55
0000
0000
0000
0000
0010
1000
0010
1000
0000
0000
0000
0000
1000
0000
0000
0010
0000
0000
0000
0000
0100
0001
0100
0001
0000
0000
0000
0000
0001
0000
0000
0100
,  // measure 56
0000
0000
0001
0000
0010
0000
0100
0000
1000
0000
0000
0000
1001
0000
0000
0000
0001
0000
0000
0100
0000
0000
0010
0000
0000
0100
0000
0000
1001
0000
0000
0100
,  // measure 57
0000
0010
0100
0000
0100
0000
0010
0000
1000
0000
0000
0010
0000
0000
0100
0010
,  // measure 58
0000
0010
0100
0000
0010
0000
0100
0000
0001
0000
0000
0100
0000
0000
0202
0000
,  // measure 59
0000
0000
0000
0000
0000
0000
0303
0000
0000
0000
0001
0100
0000
0001
0000
0000
,  // measure 60
0000
0000
1000
0010
0000
1000
0000
0000
0000
0000
0010
0100
0000
0010
0000
0100
,  // measure 61
0000
0001
1000
0000
1000
0000
0010
0000
0100
0000
0000
0010
0000
0000
0100
0001
,  // measure 62
0000
0001
1000
0000
0010
0000
1000
0000
0100
0000
0000
1000
0000
0000
2002
0000
,  // measure 63
0000
0000
0000
0000
0000
0000
3003
0000
0000
0000
0100
0010
0000
0100
0000
0000
,  // measure 64
0000
0000
0010
0100
0000
0010
0000
0100
0000
0001
0000
0001
0000
0100
0000
0220
,  // measure 65
0000
0000
0000
0000
0000
0000
0000
0330
;
