#TITLE:Take a picture;
#SUBTITLE:;
#ARTIST:NiziU;
#TITLETRANSLIT:;
#SUBTITLETRANSLIT:;
#ARTISTTRANSLIT:;
#CREDIT:;
#BANNER:Take a picture.png;
#BACKGROUND:Take a picture-bg.png;
#LYRICSPATH:;
#CDTITLE:;
#MUSIC:Take a picture.mp3;
#OFFSET:-0.720;
#SAMPLESTART:47.560;
#SAMPLELENGTH:15.000;
#SELECTABLE:YES;
#BPMS:0.000=128.000;
#STOPS:;
#BGCHANGES:-1.620=Take a picture.avi=1.000=0=0=0,
99999=-nosongbg-=1.000=0=0=0 // don't automatically add -songbackground-
;

//---------------dance-single - ----------------
#NOTES:
     dance-single:
     :
     Easy:
     4:
     0.267,0.312,0.159,0.206,0.000:
0000
0000
0000
0000
,
0000
0000
0000
0000
,
0001
0101
0100
1010
,
1000
0010
1000
0000
,
2000
3000
0020
0030
,
0100
0010
0100
0000
,
1000
1010
0010
0110
,
0100
0010
0100
0000
,
0020
0030
0002
0003
,
0100
0010
0100
0000
,
0001
0001
0100
0000
,
0020
0000
0130
0000
,
2000
0000
3001
0000
,
0100
0010
1000
0000
,
0010
0100
0010
0000
,
0100
0001
0001
0000
,
1000
0100
0010
0001
,
0002
0203
0302
1003
,
0010
1000
0010
0100
,
0001
0010
1000
0010
,
0001
0010
0100
1000
,
2000
3020
2030
3010
,
0100
0001
0010
0100
,
1000
0100
1000
0001
,
0100
0001
1000
0010
,
1010
0000
0100
0010
,
0110
0000
0001
0100
,
0101
0000
1000
0100
,
0001
0100
1000
0100
,
1001
0000
0001
0100
,
0101
0000
0100
0010
,
0200
0000
0300
0000
,
0010
0100
0010
0010
,
1000
0000
1000
0000
,
0010
0000
0100
0000
,
0001
0000
0100
0000
,
0010
0000
0100
0000
,
0001
0000
1000
0000
,
0010
0000
0100
0000
,
0010
0000
1000
0000
,
0001
0000
1000
0000
,
2000
0100
0000
3100
,
0200
0010
0000
0310
,
0020
0001
0000
0031
,
0002
1000
0000
1003
,
0001
0100
0001
0100
,
0001
1000
0010
1000
,
0100
0010
0100
1000
,
2002
0000
0000
3003
,
0101
0000
0010
0100
,
0110
0000
1000
0010
,
1010
0000
0001
0010
,
1000
0010
0001
0010
,
1001
0000
1000
0010
,
1010
0000
0010
0100
,
0020
0000
0030
0000
,
0100
0010
0100
0100
,
0001
0100
0001
0000
,
1000
1010
0010
0101
,
0001
0100
0001
0000
,
0002
0003
0200
0300
,
0010
0100
0010
0000
,
0001
0101
0100
0110
,
0010
0100
0010
0000
,
0200
0300
2000
3000
,
2002
0000
3003
0000
;

//---------------dance-single - ----------------
#NOTES:
     dance-single:
     :
     Beginner:
     2:
     0.219,0.364,0.246,0.048,0.000:
0000
0000
0000
0000
,
0000
0000
0000
0000
,
1001
0110
1001
0110
,
1001
1001
1001
0000
,
0000
0000
0000
0000
,
0000
0010
0000
0010
,
0000
1000
0000
1000
,
0000
0001
0000
1000
,
0000
0010
0000
1000
,
0000
0010
0000
0100
,
0000
0010
0000
0100
,
0000
0001
0000
1000
,
0000
0010
0000
1000
,
0000
0001
0000
0001
,
0000
0100
0000
0001
,
0002
0000
0000
0003
,
0001
1000
0001
0000
,
1000
1000
1000
0000
,
0100
0100
0100
0000
,
0010
0010
0010
0000
,
0001
0001
0001
0000
,
0001
0001
0001
0000
,
0010
0010
0010
0000
,
0100
0100
0100
0000
,
1000
0001
1000
0001
,
1001
0000
0010
0100
,
0010
0000
1000
0001
,
1000
0000
0001
0100
,
0001
0000
0100
0010
,
0110
0000
0100
0010
,
0100
0000
0010
0100
,
0020
0000
0030
0000
,
1000
0000
0010
0000
,
1000
0000
1010
0000
,
0010
0000
0101
1010
,
0101
0000
1000
0000
,
0010
0000
0100
0000
,
0010
0000
1000
0000
,
0001
0000
1001
0110
,
1001
0000
0001
0000
,
0100
0000
0001
0000
,
0000
0001
0000
0001
,
0000
0100
0000
0100
,
0000
0010
0000
0010
,
0000
1000
0000
0100
,
0000
1000
0000
0010
,
0000
1000
0000
0010
,
0000
0100
0000
0100
,
0200
0000
0300
0000
,
1001
0000
0100
0010
,
0100
0000
0001
1000
,
0001
0000
1000
0010
,
1000
0000
0010
0100
,
0110
0000
0010
0100
,
0010
0000
0100
0010
,
0200
0000
0300
0000
,
0001
0000
0100
0000
,
1001
0110
1001
0000
,
1000
0001
1000
0001
,
1001
0110
1001
0000
,
0010
0000
0100
0000
,
0110
1001
0110
0000
,
0010
0100
0010
0100
,
0110
1001
0110
0000
,
0010
0000
1000
0000
,
0220
0000
0330
0000
;

//---------------dance-single - ----------------
#NOTES:
     dance-single:
     :
     Medium:
     7:
     0.396,0.416,0.206,0.262,0.060:
0000
0000
0000
0000
,
0000
0000
0000
0000
,
0010
0001
1000
0000
0001
1000
0100
0000
,
1100
0000
1000
0000
0011
0000
0001
0100
,
0000
0000
0001
0100
0000
0000
0100
0010
,
1010
1000
0110
0010
,
0001
0100
0010
0000
0100
0010
1000
0000
,
1010
0000
0010
0000
0101
0000
1000
0001
,
1000
0100
0010
0001
1000
0001
1000
0000
,
0010
0000
1000
0000
,
0010
0000
0100
0000
,
0002
0000
0000
0103
0000
0000
0000
0000
,
2000
0000
0000
3010
0000
0000
0000
0000
,
0100
0010
0100
0000
,
0010
0000
1000
0000
,
2002
0000
0000
3003
,
1000
0001
1000
0000
0001
1000
0001
0000
,
0100
0010
1000
0010
,
0100
0001
1000
0001
,
0100
0001
0100
0010
,
1000
0010
0001
0010
,
1000
0001
0100
0010
,
0100
0001
1000
0010
,
0001
1000
0010
0001
,
0001
1000
0001
0000
0100
0010
0100
0000
,
0220
0330
0000
0000
0100
0010
0100
0000
,
2002
3003
0000
0000
1000
0010
0100
0000
,
0202
0303
0000
0000
0001
0100
0010
0000
,
0100
0010
1000
0000
1000
0010
0001
0000
,
2002
3003
0000
0000
0001
0010
0100
0000
,
0220
0330
0000
0000
1000
0100
0010
0000
,
2000
0010
0010
3010
,
1000
0001
0100
0000
0001
0100
1000
0000
,
0100
0000
0000
0100
0000
0000
0100
0000
0010
0000
0000
0010
0000
0000
0010
0000
,
1000
0000
0000
1000
0000
0000
1000
0000
0001
0000
0000
0001
0000
0000
0001
0000
,
0100
0000
0000
0100
0000
0000
0100
0000
0001
0000
0000
0001
0000
0000
0001
0000
,
0010
0000
0000
0010
0000
0000
0010
0000
1000
0000
0000
1000
0000
0000
1000
0000
,
0010
0000
0000
0010
0000
0000
0010
0000
0100
0000
0000
0100
0000
0000
0100
0000
,
0001
0000
0000
0001
0000
0000
0001
0000
1000
0000
0000
1000
0000
0000
1000
0000
,
0010
0000
0000
0010
0000
0000
0010
0000
1000
0000
0000
1000
0000
0000
1000
0000
,
0100
0000
0000
0100
0000
0000
0100
0000
0001
0000
1000
0000
0001
0000
0000
0000
,
0002
1000
0000
1003
,
2000
0010
0000
3010
,
0020
0100
0000
0130
,
0200
0001
0000
0301
,
0001
1000
0001
1000
0001
1000
0001
1000
,
0010
0100
0010
0100
0010
0100
0010
0100
,
0001
1000
0001
1000
0001
1000
0001
2000
,
0000
0000
0000
3000
,
0220
0330
0000
0000
0010
0100
0010
0000
,
2002
3003
0000
0000
0001
0100
0010
0000
,
2020
3030
0000
0000
1000
0010
0100
0000
,
0010
0100
0001
0000
0001
0100
1000
0000
,
2002
3003
0000
0000
1000
0100
0010
0000
,
0220
0330
0000
0000
0001
0010
0100
0000
,
0002
0100
0100
0103
,
0001
1000
0010
0000
1000
0010
0001
0000
,
1001
0001
0110
0010
,
0100
1000
0001
0000
1000
0001
0010
0000
,
0011
0000
0001
0000
1100
0000
1000
0010
,
0000
0000
1000
0010
0000
0000
0010
0100
,
0101
0001
0110
0100
,
1000
0010
0100
0000
0010
0100
0001
0000
,
0101
0000
0100
0000
1010
0000
0001
1000
,
0001
0010
0100
1000
0001
1000
0001
1000
,
2002
0000
3003
0000
;

//---------------dance-single - ----------------
#NOTES:
     dance-single:
     :
     Hard:
     13:
     0.524,0.546,0.119,0.222,0.298: // measure 1
0000
0000
0000
0000
,  // measure 2
0100
0001
0000
0000
0010
0100
0000
0000
1000
0010
0000
0000
1000
0000
0010
1000
,  // measure 3
0000
1000
0010
0000
0100
0000
0010
0100
0000
0100
0001
0000
0101
0000
0000
0000
,  // measure 4
0100
0010
0000
0000
0010
0100
0000
0000
0001
0100
0000
0000
0001
0000
0100
0000
,  // measure 5
0000
0000
0000
0000
0001
0000
0100
0000
0010
0100
0010
0100
0010
0000
1000
0000
,  // measure 6
0010
0100
0000
0000
0100
0010
0000
0000
1000
0100
0000
0000
1000
0000
0001
0100
,  // measure 7
0000
0100
0010
0000
0100
0000
0010
0100
0000
0010
1000
0000
1001
0000
0000
0000
,  // measure 8
0001
0100
0000
0000
0010
1000
0000
0000
1000
0010
0000
0000
1000
0000
0010
0000
,  // measure 9
0000
0000
0010
1000
0000
0010
0010
0000
,  // measure 10
0100
0010
0100
0001
0010
0001
0010
0100
,  // measure 11
0010
0001
0000
0000
0100
0010
0000
0000
1000
0000
0100
0000
0010
0000
0001
0000
,  // measure 12
0200
0000
0000
0300
0000
0000
0000
0010
,  // measure 13
0020
0000
0000
0030
0000
0100
0010
1000
,  // measure 14
0001
0100
0001
0000
0101
0000
1000
0010
,  // measure 15
0000
1000
0010
0000
0010
0100
0000
0100
,  // measure 16
0002
0000
0000
0000
0000
0000
0003
0001
,  // measure 17
0010
0001
1000
0100
1000
0010
0100
0010
,  // measure 18
2000
0000
3020
0000
2030
0000
3010
0100
,  // measure 19
0002
0000
0203
0000
0302
0000
0103
0010
,  // measure 20
0200
0320
0230
0310
,  // measure 21
1000
0100
0010
0001
0100
0010
1000
0001
,  // measure 22
0200
0000
0302
0000
0203
0000
0301
0100
,  // measure 23
0000
0100
0000
0000
0100
0010
0100
0010
,  // measure 24
2002
0000
0000
0000
3003
0000
0000
1000
,  // measure 25
0100
0010
0100
1000
0100
0010
0100
1000
,  // measure 26
1000
0000
0001
0100
0010
0100
0001
0000
,  // measure 27
0100
0000
0001
0100
1000
0100
0001
0000
,  // measure 28
0010
0000
1000
0100
0001
0100
1000
0100
,  // measure 29
0001
0100
1000
0100
0002
0000
0103
0000
,  // measure 30
0001
0000
0010
0001
0010
1000
0010
0000
,  // measure 31
1001
0000
1000
0001
1000
0001
0100
0010
,  // measure 32
0200
0000
0000
0000
0310
0000
0100
0010
,  // measure 33
0100
0010
1000
0001
1000
0000
0110
0000
,  // measure 34
1000
0010
0000
0100
0000
0010
0100
0000
0010
0000
0000
0100
0000
0000
0001
0000
,  // measure 35
0100
0001
0000
0100
0000
0001
1000
0000
0010
0000
0000
0000
0110
0000
0000
0000
,  // measure 36
0001
0100
0001
0000
0100
0000
0010
1000
0010
0000
1000
0010
0000
0000
1000
0010
,  // measure 37
0100
0000
0001
0100
0010
0000
0100
0010
0100
0010
1000
0010
0000
0000
1001
0000
,  // measure 38
0001
0100
0000
0010
0000
0100
0010
0000
0100
0000
0000
0010
0000
0000
1000
0000
,  // measure 39
0010
1000
0010
1000
0000
0001
0100
0000
0010
0000
0000
0000
0110
0000
0000
0000
,  // measure 40
1000
0001
1000
0001
1000
0000
0001
1000
0010
0000
0100
0000
0001
0000
0100
0000
,  // measure 41
0010
0000
0000
1000
0000
0010
1000
0000
0010
0000
1000
0000
1001
0000
0000
0000
,  // measure 42
2000
0100
0000
3100
,  // measure 43
0200
0010
0000
0310
,  // measure 44
0020
0001
0000
0031
,  // measure 45
0002
1000
0000
1003
,  // measure 46
1000
0001
1000
0001
1000
0001
1000
0001
,  // measure 47
1000
0100
0010
0001
0010
0100
1000
0010
,  // measure 48
0100
0001
0010
0100
0010
0001
0010
0200
,  // measure 49
0000
0000
0000
0000
0000
0000
0000
0000
1300
0001
1000
0001
1000
0000
0000
0000
,  // measure 50
0001
0000
1000
0010
0100
0010
1000
0000
,  // measure 51
0010
0000
1000
0010
0001
0010
1000
0000
,  // measure 52
0100
0000
0001
0010
1000
0010
0001
0010
,  // measure 53
1000
0010
0001
0010
2000
0000
3010
0000
,  // measure 54
1000
0000
0100
1000
0100
0001
0100
0000
,  // measure 55
1001
0000
0001
1000
0001
1000
0010
0100
,  // measure 56
0020
0000
0000
0000
0130
0000
0010
0100
,  // measure 57
0010
0100
0001
1000
0001
0000
0110
0000
,  // measure 58
0010
1000
0000
0000
0100
0010
0000
0000
0001
0100
0000
0000
0001
0000
0100
0001
,  // measure 59
0000
0001
0100
0000
0010
0000
0100
0010
0000
0010
1000
0000
1010
0000
0000
0000
,  // measure 60
0010
0100
0000
0000
0100
0010
0000
0000
1000
0010
0000
0000
1000
0000
0010
0000
,  // measure 61
0000
0000
0000
0000
1000
0000
0010
0000
0100
0010
0100
0010
0100
0000
0001
0000
,  // measure 62
0100
0010
0000
0000
0010
0100
0000
0000
0001
0010
0000
0000
0001
0000
1000
0010
,  // measure 63
0000
0010
0100
0000
0010
0000
0100
0010
0000
0100
0001
0000
1001
0000
0000
0000
,  // measure 64
1000
0010
0000
0000
0100
0001
0000
0000
0001
0100
0000
0000
0001
0000
0100
0000
,  // measure 65
0000
0000
0100
0001
0000
0100
0010
0100
,  // measure 66
2002
0000
3003
0000
;
