#TITLE:TOMBOY;
#SUBTITLE:;
#ARTIST:(G)I-DLE;
#TITLETRANSLIT:;
#SUBTITLETRANSLIT:;
#ARTISTTRANSLIT:;
#CREDIT:;
#BANNER:TOMBOY.png;
#BACKGROUND:TOMBOY-bg.png;
#LYRICSPATH:;
#CDTITLE:;
#MUSIC:TOMBOY.mp3;
#OFFSET:-0.460;
#SAMPLESTART:53.160;
#SAMPLELENGTH:15.000;
#SELECTABLE:YES;
#BPMS:0.000=124.000;
#STOPS:;
#BGCHANGES:-1.060=TOMBOY.avi=1.000=0=0=0,
99999=-nosongbg-=1.000=0=0=0 // don't automatically add -songbackground-
;

//---------------dance-single - ----------------
#NOTES:
     dance-single:
     :
     Easy:
     5:
     0.280,0.350,0.094,0.351,0.000:
0000
0000
0000
0000
,
0000
0000
0000
0000
,
0000
0000
0000
0000
,
0000
0100
0010
0001
,
0000
0100
0100
1000
,
0000
1000
0010
0100
,
0000
0001
0010
0100
,
0000
0001
1000
0001
,
0000
0001
0010
0001
,
0000
0100
0010
0100
,
0000
1000
0100
1000
,
0010
0100
0001
1001
,
0000
0002
0023
0032
,
0203
0320
2030
0000
,
3010
2000
3020
2030
,
3002
0203
0302
0000
,
0103
0020
0230
0320
,
0230
0320
0230
0000
,
0301
0000
0001
0000
,
0010
0100
0010
0100
0010
0000
0000
0000
,
1000
0000
0100
0000
,
1000
0001
1001
0000
,
0010
0000
0100
0000
,
1000
1100
1010
0000
,
0100
0010
0001
0010
,
0100
1000
2000
3000
,
1000
0010
0100
0010
,
1000
0001
2002
3003
,
0010
0100
0010
1000
,
2000
3000
1000
0001
,
0100
0000
0010
0100
,
0002
0003
0220
0330
,
0010
0100
0001
1000
,
0002
0003
0001
1000
,
0001
1000
0001
1000
0001
0000
1000
0000
,
0001
0000
1000
0010
,
1010
1000
0000
0010
,
0100
0010
0000
0100
,
0001
0010
0000
0001
,
0001
0010
0000
1000
,
0100
1000
0000
0001
,
1000
0001
0000
0010
,
0001
0100
0000
0001
,
0010
0100
0000
1000
,
0100
0010
0000
0010
,
0100
0001
0000
1000
,
0001
1000
0000
0001
,
1000
0010
1000
0010
,
1001
0002
0203
0302
,
0003
2000
3020
2030
,
3000
0020
0230
0320
,
0030
0110
0010
1001
,
0010
2000
3020
2030
,
3000
0002
0203
0302
,
0003
0200
0320
0230
,
0300
0110
0100
1001
,
0000
1000
0010
1000
,
0000
0001
0100
0001
,
0000
1000
0100
0010
,
0000
0100
0010
0100
,
0000
0010
0100
0001
,
0000
0001
1000
0010
,
0000
0100
0001
1000
,
0000
0010
1000
0020
,
0030
0000
0000
0000
;

//---------------dance-single - ----------------
#NOTES:
     dance-single:
     :
     Beginner:
     3:
     0.178,0.225,0.047,0.016,0.000:
0000
0000
0000
0000
,
0000
0000
0000
0000
,
0000
0000
0000
0000
,
0000
0000
0000
0000
,
0000
0001
0000
1000
,
0000
0010
0000
0100
,
0000
0010
0000
1000
,
0000
0001
0000
1000
,
0000
0010
0000
0100
,
0000
0010
0000
1000
,
0000
0010
0000
0001
,
0000
0010
0000
1000
,
0000
0001
0001
0001
,
0000
1000
1000
1000
,
0000
0010
0010
0010
,
0000
0100
0100
0100
,
0000
0001
0001
0001
,
0000
1000
1000
1000
,
0000
0110
0000
1001
,
0000
0010
0010
0010
,
0000
0100
0000
0001
,
0000
0100
0000
0001
,
0000
0010
0000
1000
,
0000
0010
0000
1000
,
0000
1000
1000
1000
,
0000
0001
0001
0001
,
0000
0100
0100
0100
,
0000
1001
0110
1001
,
0000
0010
0100
0010
,
0000
0100
0010
0100
,
0000
0001
1000
0001
,
0000
1000
0001
1000
,
0000
1000
0100
1000
,
0000
0001
0010
0001
,
0000
0100
0010
0100
,
0000
0010
0000
1000
,
0000
1000
0000
0001
,
0000
0100
0000
0010
,
0000
0010
0000
0100
,
0000
0010
0000
1000
,
0000
0001
0001
0001
,
0000
1000
1000
1000
,
0000
0001
0001
0001
,
0000
0100
0000
0010
,
0000
0010
0010
0010
,
0000
0100
0100
0100
,
0000
0010
0010
0010
,
0000
1000
0000
0010
,
0000
1000
0001
1000
,
0000
0001
1000
0001
,
0000
0100
0010
0100
,
0000
0010
0100
0010
,
0000
0001
0010
0001
,
0000
1000
0100
1000
,
0000
0010
1000
0010
,
0000
0100
0001
0100
,
0000
0010
0000
1000
,
0000
0010
0000
1000
,
0000
0001
0000
0010
,
0000
0001
0000
1000
,
0000
0100
0000
0010
,
0000
0001
0000
1000
,
0000
0010
0000
1000
,
0000
0001
0000
2002
,
3003
0000
0000
0000
;

//---------------dance-single - ----------------
#NOTES:
     dance-single:
     :
     Medium:
     8:
     0.352,0.325,0.039,0.156,0.008:
0000
0000
0000
0000
,
0000
0000
0000
0000
,
0000
0000
0000
0000
,
0000
1000
0010
0100
,
1000
0010
0000
1000
0010
0000
0100
0000
,
0001
0100
0000
0100
0001
0000
0100
0000
,
0010
0100
0000
0100
0010
0000
1000
0000
,
0010
0100
0000
0100
1000
0000
0010
0000
,
0001
0100
0000
0001
0100
0000
0010
0000
,
1000
0010
0000
0010
1000
0000
0010
0000
,
0100
0010
0000
0010
0100
0000
0001
0000
,
0100
0010
0000
0010
0001
0000
0100
0000
,
1000
0200
0320
0032
,
0013
0001
0202
0000
,
0303
0020
0230
2300
,
3100
1000
2020
0000
,
3030
2000
3002
2003
,
3002
1003
2002
0000
,
3003
0000
0000
0010
0000
0000
0010
0000
0100
0000
0000
0100
0000
0000
0000
0000
,
0010
0100
0010
0100
0010
0000
1000
0100
,
0010
0000
1000
0000
0010
0000
0001
0010
,
0100
0000
0001
0000
1000
0000
0001
1000
,
0001
0000
0100
0000
0010
0000
0010
0100
,
0001
0000
0100
0000
0010
0000
1000
0100
,
1000
0000
0010
0001
0010
0000
0100
0010
,
0100
0000
0010
0100
1000
0000
0001
1000
,
0001
0000
0001
0010
0001
0000
0100
0010
,
0001
0001
0202
0303
,
0001
0100
0000
0100
0001
0000
0100
0000
,
0010
1000
0000
1000
0010
0000
0100
0000
,
0010
0100
0000
0100
0010
0000
0100
0000
,
1000
0100
0000
0001
0010
0000
1000
0000
,
1000
0010
0000
0010
1000
0000
0010
0000
,
0100
0001
0000
0001
0100
0000
0010
0000
,
0100
0010
0100
0010
0100
0000
0010
0000
,
0001
0010
0000
1000
0100
0000
0001
0000
,
1000
0010
1000
0010
,
0100
0001
0100
0001
,
0001
0100
0001
0100
,
1000
0010
1000
0010
,
1000
0000
0010
1000
0010
0000
0100
0000
,
0001
0000
0010
0001
0100
0000
0010
0000
,
0100
0000
0010
0100
0010
0000
1000
0000
,
0010
0000
1000
0010
0001
0000
0100
0000
,
0001
0000
0100
0001
0100
0000
0010
0000
,
1000
0000
0100
1000
0010
0000
0100
0000
,
0010
0000
0100
0010
0100
0000
0001
0000
,
0100
0001
0010
0100
,
1000
0000
0010
0100
1000
0000
1000
0000
,
0010
0000
0100
0010
0001
0000
0100
0010
,
0001
0000
0001
1000
0001
0000
0100
0000
,
0001
0000
0100
0000
0010
0010
0000
0000
,
0001
0000
0100
0010
0001
0000
0001
0000
,
0100
0000
0010
0100
1000
0000
0010
0100
,
1000
0000
1000
0001
1000
0001
1000
0000
,
1000
0000
0010
0000
0100
0100
0000
0000
,
0010
0000
0100
0010
1000
0000
0001
0000
,
0100
0000
0010
0100
0001
0000
0010
0000
,
0001
0000
0001
0010
0100
0000
0010
0000
,
1000
0000
0010
1000
0100
0000
1000
0000
,
0100
0000
0010
0100
0001
0000
1000
0000
,
0010
0000
0100
0010
1000
0000
0100
0000
,
1000
0000
1000
0100
0010
0000
0100
0000
,
0001
0000
0100
0001
0010
0000
0202
0000
,
0303
0000
0000
0000
;

//---------------dance-single - ----------------
#NOTES:
     dance-single:
     :
     Hard:
     13:
     0.450,0.524,0.101,0.078,0.066: // measure 1
0000
0000
0000
0000
,  // measure 2
0000
0000
0000
0000
,  // measure 3
0000
0000
0000
0000
,  // measure 4
0001
0110
1000
0110
,  // measure 5
0002
0003
0100
0010
0010
0000
0100
0010
,  // measure 6
1000
0100
1000
0010
0100
0000
0000
0100
,  // measure 7
0020
0030
1000
0010
0100
0000
0001
0100
,  // measure 8
1000
0100
0001
0100
1000
0000
0010
0000
,  // measure 9
2000
3000
0010
0100
0100
0000
0010
0100
,  // measure 10
0001
0010
0001
0100
0010
0000
0100
0010
,  // measure 11
0200
0300
0001
0100
0010
0000
1000
0010
,  // measure 12
0001
0010
1000
0010
0001
0100
0101
0000
,  // measure 13
1001
0010
0100
0001
,  // measure 14
1000
0010
2000
0000
,  // measure 15
3010
0100
0010
0001
,  // measure 16
0010
0001
0200
0000
,  // measure 17
0301
0000
0001
0100
0010
1000
0010
0000
,  // measure 18
1000
0100
2000
0000
,  // measure 19
3001
0000
0000
0100
0000
0000
0001
0000
1000
0000
0000
0010
0000
0000
0000
0000
,  // measure 20
1000
0000
0010
0000
0100
0000
0001
0100
0010
0000
0000
0000
0100
0000
0010
0000
,  // measure 21
0001
0000
0001
0010
0100
0000
0010
0100
,  // measure 22
1000
0000
0010
0000
1001
0000
1000
0100
,  // measure 23
0010
0000
0100
0010
1000
0100
0010
0100
,  // measure 24
0001
0000
0100
0000
1001
0000
0001
0100
,  // measure 25
1000
0001
0000
0001
0100
0000
0100
0010
0000
0010
1000
0000
1000
0100
0000
0100
,  // measure 26
0010
0000
0010
0001
0000
0001
0010
0000
0011
0000
0000
0000
1000
0000
0010
0000
,  // measure 27
0001
1000
0000
1000
0010
0000
0010
0100
0000
0100
0001
0000
0001
0010
0000
0000
,  // measure 28
0100
0000
1000
0000
0020
1000
1030
0000
,  // measure 29
1000
0010
0000
0010
0100
0010
0100
0001
,  // measure 30
0100
0001
0000
0001
1000
0010
1000
0001
,  // measure 31
1000
0100
0000
0100
0010
0001
0100
0010
,  // measure 32
1000
0001
0100
0001
0010
1000
0010
1000
,  // measure 33
0001
0100
0000
0100
0010
0100
0010
1000
,  // measure 34
0010
1000
0000
1000
0001
0100
0001
1000
,  // measure 35
0001
0010
0100
1000
0010
0100
0001
1000
,  // measure 36
0001
1000
0010
1000
0100
0001
0100
0000
,  // measure 37
0101
0000
0000
0000
0001
0000
0000
0000
0100
0000
0001
0000
0100
0001
0000
0000
,  // measure 38
1000
0100
1000
0010
,  // measure 39
0100
0010
1000
0010
0100
0000
0001
1000
,  // measure 40
0010
1000
0001
0100
0001
0000
1000
0000
,  // measure 41
1000
0000
0100
1000
0100
0000
1000
0010
,  // measure 42
0000
0001
0010
0001
0010
0000
0001
0010
,  // measure 43
0100
0000
0100
0010
0001
0000
0001
1000
,  // measure 44
0000
1000
0010
1000
,  // measure 45
0001
0000
0010
0001
0010
0000
0001
0100
,  // measure 46
0000
1000
0100
1000
0100
0010
1000
0100
,  // measure 47
0010
0000
0010
0100
1000
0000
1000
0001
,  // measure 48
0000
0000
0001
0000
0100
0000
0001
0010
,  // measure 49
1001
0000
1000
0100
0010
0100
1000
0100
,  // measure 50
0000
0001
0010
0100
0010
0001
0010
0100
,  // measure 51
0010
0100
1000
0001
1000
0010
0001
0010
,  // measure 52
0000
0100
0100
0000
0010
0110
0000
0000
,  // measure 53
1001
0000
0001
0010
0100
0010
0001
0010
,  // measure 54
0000
1000
0100
0010
0100
1000
0100
0010
,  // measure 55
0100
0010
0001
1000
0001
0100
1000
0100
,  // measure 56
0000
0010
0010
0000
0100
0110
0010
0000
,  // measure 57
1001
0010
1000
0010
0001
0010
1000
0010
,  // measure 58
0000
0010
1000
0010
0001
0010
1000
0010
,  // measure 59
0001
0100
0010
1000
0010
0100
0000
0100
,  // measure 60
0000
0001
0010
0001
0100
0010
0200
0000
,  // measure 61
0300
0100
0001
0100
1000
0100
0001
0100
,  // measure 62
0000
0100
0001
0100
1000
0100
0001
0100
,  // measure 63
1000
0010
0100
0001
0100
0010
1000
0010
,  // measure 64
0000
1000
0100
1000
0010
0100
0020
0000
,  // measure 65
0030
0000
0000
0000
;
