#TITLE:TANK;
#SUBTITLE:;
#ARTIST:NMIXX;
#TITLETRANSLIT:;
#SUBTITLETRANSLIT:;
#ARTISTTRANSLIT:;
#CREDIT:;
#BANNER:TANK.png;
#BACKGROUND:TANK-bg.png;
#LYRICSPATH:;
#CDTITLE:;
#MUSIC:TANK.mp3;
#OFFSET:0.360;
#SAMPLESTART:45.593;
#SAMPLELENGTH:15.000;
#SELECTABLE:YES;
#BPMS:0.000=180.000,204.000=90.000,236.000=180.000;
#STOPS:;
#BGCHANGES:;

//---------------dance-single - ----------------
#NOTES:
     dance-single:
     :
     Easy:
     4:
     0.293,0.594,0.302,0.072,0.000:
0000
0000
0000
0000
,
0000
0000
0000
0000
,
0000
0000
0000
0000
,
0000
0000
0000
0000
,
0000
0000
0000
0000
,
0000
0000
0000
0000
,
0000
0000
0000
0000
,
0000
0000
0000
0000
,
0000
0000
0000
0000
,
0000
0000
0000
0000
,
0000
0000
0000
0000
,
0001
0000
0100
0000
,
0001
0000
0100
0000
,
0010
0100
0010
0000
,
1000
0001
0100
0000
,
0010
0000
0100
0000
,
0010
0000
1000
0000
,
0100
0010
0100
0000
,
0001
1000
0001
0000
,
1001
0110
1001
0000
,
0010
0000
0100
0000
,
0001
0000
0100
0000
,
0010
0000
1000
0000
,
1010
0101
1010
0000
,
0001
0000
0100
0000
,
0001
0000
0100
0000
,
0010
0000
1000
0000
,
0010
1000
0010
0000
,
0100
0010
0100
0000
,
0001
0100
0010
0000
,
0010
0100
0110
0000
,
1000
0010
0010
0000
,
0100
0010
1000
0000
,
0001
0100
0001
0000
,
0001
1000
0001
1000
,
1001
1000
0010
0000
,
0101
0001
0010
0000
,
0110
0010
0100
0000
,
0001
0100
1000
0100
,
1001
1000
0001
0000
,
0101
0010
1000
0000
,
1010
1000
0001
0000
,
1000
0001
0100
0001
,
0110
0010
0100
0000
,
0011
0001
0010
0000
,
1010
1000
0100
0000
,
0100
0010
0100
0001
,
1001
0001
0100
0000
,
0011
0010
0100
0000
,
1100
0100
0010
0000
,
1000
0100
0010
0001
,
0002
0010
0000
0013
,
0200
0010
0000
0310
,
2000
0100
0000
3100
,
0002
1000
0000
1003
,
2000
0010
0000
3010
,
0020
0100
0000
0130
,
0200
0010
0000
0310
,
0110
0000
1001
0110
1001
0110
1001
0000
,
1001
0001
0100
0000
,
1010
1000
0100
0000
,
0110
0100
0010
0000
,
1000
0010
0001
0010
,
1001
0001
1000
0000
,
1010
0100
0001
0000
,
0101
0001
1000
0000
,
0001
1000
0010
1000
,
0110
0100
0010
0000
,
1100
1000
0100
0000
,
0101
0001
0010
0000
,
0010
0100
0010
1000
,
1001
1000
0010
0000
,
1100
0100
0010
0000
,
0011
0010
0100
0000
,
0001
0010
0100
1000
,
0010
0000
1000
0000
,
0010
0000
0100
0000
,
0010
0000
0100
0000
,
0001
0000
0010
0000
,
0001
0000
0100
0000
,
0010
0000
1000
0000
,
0010
0000
1000
0000
,
0001
0000
1000
2002
,
3003
0000
0000
0000
;

//---------------dance-single - ----------------
#NOTES:
     dance-single:
     :
     Medium:
     7:
     0.434,0.561,0.088,0.183,0.000:
0000
0000
0000
0000
,
0000
0000
0000
0000
,
0000
0000
0000
0000
,
0000
0000
0000
0000
,
0000
0000
0000
0000
,
0000
0000
0000
0000
,
0000
0000
0000
0000
,
0000
0000
0000
0000
,
0000
0000
0000
0000
,
0000
0000
0000
0000
,
0010
0010
1001
0000
,
0100
0000
0010
0000
0100
0000
0010
0100
,
0000
0010
0000
0100
0010
0000
1000
0000
,
0001
0000
0100
0000
0001
0000
0100
0010
,
0000
0100
0000
0010
1000
0000
0010
0000
,
0001
0000
0100
0000
0001
0000
0010
1000
,
0000
0010
0000
0010
1000
0000
0010
0000
,
0100
0000
0010
0000
0100
0000
0001
0100
,
0000
0001
0000
0001
0100
0000
0010
0000
,
1010
0100
1010
0000
,
0010
1000
0010
0100
,
0001
0100
0001
1000
,
0010
0100
0010
1000
,
1001
0110
1001
0000
,
0001
0100
0001
1000
,
0010
0100
0010
1000
,
0001
0100
0001
0100
,
0001
0100
0001
0000
0100
0000
0000
0000
,
0100
0010
0100
0000
0010
0000
0000
0000
,
0010
1000
0001
0000
0100
0000
0000
0000
,
0100
0001
0100
0000
0101
0000
0000
0000
,
0010
1000
0001
0000
0100
0000
0000
0000
,
0010
0100
1000
0000
0010
0000
0000
0000
,
0010
1000
0010
0000
0100
0000
0000
0000
,
0100
0010
0100
0000
0110
0000
0000
0000
,
1000
0001
1000
0000
0001
0000
0001
1000
,
0001
1000
0001
0000
0100
0000
0010
0100
,
0010
0000
0100
0000
0010
0000
0100
0010
,
0100
0010
0100
0000
0010
0000
1000
0000
,
0010
1000
0010
0000
0100
0000
0001
0010
,
0100
1000
0010
0000
1000
0000
0100
1000
,
0001
0000
0100
0000
0001
0000
0100
0001
,
0100
1000
0100
0000
0010
0000
0100
0000
,
0100
0010
0100
0000
0010
0000
0010
0100
,
0010
0100
0010
0000
0001
0000
1000
0001
,
1000
0000
0001
0000
1000
0000
0001
1000
,
0001
1000
0001
0000
1000
0000
0100
0000
,
1000
0100
1000
0000
0001
0000
0010
1000
,
0001
0100
1000
0000
0100
0000
0001
0100
,
0010
0000
0001
0000
0010
0000
0001
0010
,
0001
0100
0001
0000
1000
0000
0001
0000
,
2000
3020
0230
0302
,
0023
0230
2300
3000
,
0002
0203
0302
0203
,
0320
0230
0320
0030
,
0200
0302
0203
0320
,
2030
3002
2003
3000
,
0001
0100
0001
1000
0010
1000
0000
0000
,
1000
0001
1000
0010
0100
0010
1001
0110
,
0001
1000
0001
0000
1000
0000
1000
0001
,
1000
0001
1000
0000
0010
0000
0100
0010
,
0100
0000
0010
0000
0100
0000
0010
0100
,
0010
0100
0010
0000
0100
0000
0001
0000
,
0100
0001
0100
0000
0010
0000
1000
0100
,
0010
0001
0100
0000
0001
0000
0010
0001
,
1000
0000
0010
0000
1000
0000
0010
1000
,
0010
0001
0010
0000
0100
0000
0010
0000
,
0010
0100
0010
0000
0100
0000
0100
0010
,
0100
0010
0100
0000
1000
0000
0001
1000
,
0001
0000
1000
0000
0001
0000
1000
0001
,
1000
0001
1000
0000
0001
0000
0010
0000
,
0001
0010
0001
0000
1000
0000
0100
0001
,
1000
0010
0001
0000
0010
0000
1000
0010
,
0100
0000
1000
0000
0100
0000
1000
0100
,
1000
0010
1000
0000
0001
0000
1000
0000
,
0010
0000
0100
0000
0010
0000
1000
0010
,
0000
0100
0000
0010
0100
0000
0010
0000
,
1000
0000
0001
0000
0100
0000
0001
0100
,
0000
0010
0000
0100
0010
0000
1000
0000
,
0100
0000
0010
0000
0100
0000
0001
0100
,
0000
0010
0000
0100
0010
0000
0100
0000
,
0001
0000
1000
0000
0010
0000
1000
0010
,
0000
0100
0000
0010
0100
0000
0220
0000
,
0330
0000
0000
0000
;

//---------------dance-single - ----------------
#NOTES:
     dance-single:
     :
     Hard:
     13:
     0.542,0.793,0.080,0.072,0.175: // measure 1
0000
0000
0000
0000
,  // measure 2
0000
0000
0000
0000
,  // measure 3
0000
0000
0000
0000
,  // measure 4
0000
0000
0000
0000
,  // measure 5
0000
0000
0000
0000
,  // measure 6
0000
0000
0000
0000
,  // measure 7
0100
0010
1001
0000
,  // measure 8
0000
0000
0000
0000
,  // measure 9
0000
0000
0000
0000
,  // measure 10
0000
0000
0000
0000
,  // measure 11
0010
0100
1001
0000
,  // measure 12
1000
0000
0010
0000
1000
0000
0010
1000
,  // measure 13
0000
0100
0000
1000
0010
0000
0100
0000
,  // measure 14
0001
0000
0100
0000
0010
0000
0100
0010
,  // measure 15
0000
0010
0000
0010
0100
0000
0001
0000
,  // measure 16
0010
0000
0001
0000
0100
0000
0001
0100
,  // measure 17
0000
0010
0000
1000
0100
0000
1000
0000
,  // measure 18
0010
0000
0100
0000
0010
0000
1000
0010
,  // measure 19
0000
0100
0000
0010
0100
0000
0010
0000
,  // measure 20
1001
0000
0110
0000
1001
0000
1000
0010
,  // measure 21
0000
0100
0000
0001
0010
0000
0001
0000
,  // measure 22
0100
0000
0010
0000
0100
0000
0001
0100
,  // measure 23
0000
0010
0000
0100
0010
0000
0100
0000
,  // measure 24
1010
0000
0101
0000
1010
0000
1000
0100
,  // measure 25
0000
0010
0000
0100
1000
0000
0001
0000
,  // measure 26
0100
0000
0001
0000
0100
0000
0010
0100
,  // measure 27
0000
0000
0010
0000
0000
0000
1000
0000
0010
0000
0000
1000
0010
0000
0000
0010
,  // measure 28
1000
0000
0000
0010
1000
0000
0000
1000
0001
0000
0000
0000
0100
0000
0010
0000
,  // measure 29
0100
0000
0001
0000
0010
0000
0100
0000
1000
0000
0000
1000
0001
0000
0000
0001
,  // measure 30
0100
0000
0000
0100
0010
0000
0000
0010
0100
0000
0000
0000
0001
0000
0010
0000
,  // measure 31
0100
0010
0001
1000
1001
0000
0100
0001
,  // measure 32
0010
0000
0100
0000
0010
0000
1000
0010
,  // measure 33
0100
0010
1000
0000
0010
0000
0010
0100
,  // measure 34
0010
0000
0100
0000
0001
0000
1000
0010
,  // measure 35
0001
0000
0010
0000
1000
0000
0001
0000
1000
0001
1000
0001
1000
0000
0001
0000
,  // measure 36
1000
0010
0100
0010
1000
0000
0010
0100
,  // measure 37
0001
0100
0010
0100
0001
0000
0010
0000
,  // measure 38
0001
1000
0010
1000
0001
0000
0100
0010
,  // measure 39
0100
0010
1000
0000
0001
1000
0001
0000
,  // measure 40
0001
0010
1000
0010
0001
0000
0100
0010
,  // measure 41
0100
0001
1000
0010
1000
0000
0001
0000
,  // measure 42
0100
0010
0100
1000
0100
0000
0010
0001
,  // measure 43
0010
0000
0100
0000
0010
0000
0000
0000
0100
0010
0100
0010
0100
0000
0000
0000
,  // measure 44
0100
1000
0001
1000
0100
0000
1000
0001
,  // measure 45
0010
0001
1000
0001
0010
0000
1000
0000
,  // measure 46
0010
0100
1000
0100
0010
0000
0001
1000
,  // measure 47
0001
1000
0100
0000
0010
0100
0010
0000
,  // measure 48
0010
1000
0100
1000
0010
0000
0001
1000
,  // measure 49
0001
0010
0100
1000
0100
0000
0010
0000
,  // measure 50
0001
1000
0001
0100
0001
0000
1000
0010
,  // measure 51
1000
0000
0001
0000
1000
0000
0000
0000
0001
1000
0010
1000
0001
0000
0000
0000
,  // measure 52
0002
0103
0020
1030
,  // measure 53
0200
0000
0000
1300
0000
0000
0020
0000
0000
0130
0010
0100
,  // measure 54
0020
0130
0200
0310
,  // measure 55
0100
0000
0001
0000
0100
0000
0001
0000
0100
0000
0010
0000
1000
0000
0010
0000
1000
0000
0000
0000
0000
0000
0000
0000
1000
0001
1000
0001
1000
0000
0000
0000
,  // measure 56
2000
0000
0000
0000
3100
0000
0000
0000
0200
0000
0000
0000
0310
0000
0000
0010
,  // measure 57
0100
0000
0000
0100
0010
0000
0000
0010
0001
0000
0000
1000
0100
0010
0001
0000
,  // measure 58
0100
0001
0100
0010
0100
0000
0010
1000
0010
0100
0010
0000
1001
0000
0010
0001
,  // measure 59
0100
0000
0001
0000
0010
0000
0100
0000
1000
0000
0000
0000
1000
0000
0000
0000
1000
0000
0000
0000
1000
0000
0000
0000
1000
0001
1000
0001
1000
0000
0000
0000
,  // measure 60
0001
0100
0010
0100
0001
0000
0100
0010
,  // measure 61
1000
0010
0100
0010
1000
0000
0100
0000
,  // measure 62
1000
0001
0100
0001
1000
0000
0010
0100
,  // measure 63
0010
0100
0001
0000
1000
0001
1000
0000
,  // measure 64
1000
0100
0001
0100
1000
0000
0010
0100
,  // measure 65
0010
1000
0001
0100
0001
0000
1000
0000
,  // measure 66
0010
0100
0010
0001
0010
0000
0100
1000
,  // measure 67
0100
0000
0010
0000
0100
0000
0000
0000
0010
0100
0010
0100
0010
0000
0000
0000
,  // measure 68
0010
0001
1000
0001
0010
0000
0001
1000
,  // measure 69
0100
1000
0001
1000
0100
0000
0001
0000
,  // measure 70
0100
0010
0001
0010
0100
0000
1000
0001
,  // measure 71
1000
0001
0010
0000
0100
0010
0100
0000
,  // measure 72
0100
0001
0010
0001
0100
0000
1000
0001
,  // measure 73
1000
0100
0010
0001
0010
0000
0100
0000
,  // measure 74
1000
0001
1000
0010
1000
0000
0001
0100
,  // measure 75
0001
0000
1000
0000
0001
0000
0000
0000
1000
0001
0100
0001
1000
0000
0000
0000
,  // measure 76
1000
0000
0010
0000
0100
0000
0010
0100
,  // measure 77
0000
0010
0000
0100
0010
0000
1000
0000
,  // measure 78
0001
0000
0100
0000
0001
0000
0100
0010
,  // measure 79
0000
0100
0000
0010
0100
0000
0001
0000
,  // measure 80
0001
0000
0100
0000
0010
0000
0100
0010
,  // measure 81
0000
0100
0000
0010
0100
0000
0001
0000
,  // measure 82
1000
0000
0010
0000
1000
0000
0010
0100
,  // measure 83
0000
0000
0010
0000
0000
0000
0100
0000
0010
0100
0010
0100
0020
0000
0000
0000
,  // measure 84
0030
0000
0000
0000
;

//---------------dance-single - ----------------
#NOTES:
     dance-single:
     :
     Beginner:
     2:
     0.202,0.231,0.032,0.016,0.000:
0000
0000
0000
0000
,
0000
0000
0000
0000
,
0000
0000
0000
0000
,
0000
0000
0000
0000
,
0000
0000
0000
0000
,
0000
0000
0000
0000
,
0000
0000
0000
0000
,
0000
0000
0000
0000
,
0000
0000
0000
0000
,
0000
0000
0000
0000
,
0000
0000
0000
0000
,
0010
0000
0100
0000
,
0010
0000
1000
0000
,
0001
0000
0100
0000
,
0001
0000
0001
0000
,
0100
0000
0010
0000
,
1000
0000
0001
0000
,
0100
0000
0001
0000
,
1000
0000
0010
0000
,
1000
1000
1000
0000
,
0001
0000
0100
0000
,
0010
0000
0100
0000
,
0001
0000
0100
0000
,
0001
0001
0001
0000
,
0100
0000
0001
0000
,
1000
0000
0010
0000
,
0100
0000
0010
0000
,
1001
0000
0010
0000
,
0100
0000
0010
0000
,
1000
0000
0001
0000
,
0100
0000
1001
0000
,
0010
0000
0100
0000
,
0010
0000
0100
0000
,
0001
0000
0010
0000
,
0001
0000
1000
0000
,
1000
1000
1000
0000
,
1000
1000
1000
0000
,
0001
0001
0001
0000
,
0001
0001
0001
0000
,
0100
0100
0100
0000
,
0010
0010
0010
0000
,
0100
0100
0100
0000
,
0010
0010
0010
0000
,
1000
0001
1000
0000
,
0001
1000
0001
0000
,
0100
0010
0100
0000
,
0010
0100
0010
0000
,
1000
0100
1000
0000
,
0001
0010
0001
0000
,
0001
0100
0001
0000
,
1000
0010
1000
0000
,
0000
0010
0000
0100
,
0000
0001
0000
0010
,
0000
0001
0000
0100
,
0000
0010
0000
1000
,
0000
0100
0000
0010
,
0000
0100
0000
1000
,
0000
0001
0000
0100
,
0000
0001
0000
1000
,
0001
0001
0001
0000
,
0001
0001
0001
0000
,
1000
1000
1000
0000
,
1000
1000
1000
0000
,
0010
0010
0010
0000
,
0100
0100
0100
0000
,
0010
0010
0010
0000
,
0100
0100
0100
0000
,
0001
1000
0001
0000
,
1000
0001
1000
0000
,
0010
0100
0010
0000
,
0100
0010
0100
0000
,
0001
0010
0001
0000
,
1000
0100
1000
0000
,
1000
0010
1000
0000
,
0001
0100
0001
0000
,
0100
0000
0000
0000
,
0010
0000
0000
0000
,
1000
0000
0000
0000
,
0001
0000
0000
0000
,
0100
0000
0000
0000
,
0010
0000
0000
0000
,
1000
0000
0000
0000
,
0001
0000
0110
2002
,
3003
0000
0000
0000
;
