#TITLE:Sweet Crazy Love;
#SUBTITLE:;
#ARTIST:LOONA / ODD EYE CIRCLE;
#TITLETRANSLIT:;
#SUBTITLETRANSLIT:;
#ARTISTTRANSLIT:;
#CREDIT:;
#BANNER:Sweet Crazy Love.png;
#BACKGROUND:Sweet Crazy Love-bg.png;
#LYRICSPATH:;
#CDTITLE:;
#MUSIC:Sweet Crazy Love.mp3;
#OFFSET:1.060;
#SAMPLESTART:55.140;
#SAMPLELENGTH:15.000;
#SELECTABLE:YES;
#BPMS:0.000=112.000;
#STOPS:;
#BGCHANGES:1.860=Sweet Crazy Love.avi=1.000=0=0=0,
99999=-nosongbg-=1.000=0=0=0 // don't automatically add -songbackground-
;

//---------------dance-single - ----------------
#NOTES:
     dance-single:
     :
     Easy:
     5:
     0.216,0.301,0.094,0.167,0.000:
0000
0000
0000
0000
,
0000
0000
0000
0000
,
0000
0000
0000
0000
,
0000
0000
0000
0000
,
0000
0000
0000
0000
,
0000
0000
0000
0000
,
0000
0000
0000
0000
,
0000
0000
0000
0000
,
0000
0000
0220
0000
,
0330
0000
0000
0000
,
1001
1000
0100
0010
,
0000
0001
0100
0010
,
0000
0010
0001
1000
,
0000
0100
0010
0001
,
0000
0001
1000
0001
,
0000
0100
0010
0010
,
0000
0010
1000
0100
,
0000
0010
0001
0100
,
0202
0000
0000
0000
0303
0000
0000
2020
,
0000
0000
0000
3030
0000
0000
0100
0000
,
2002
0000
3003
0000
,
0010
0100
0001
0100
,
0001
0001
1000
1000
,
0001
0001
0100
0100
,
0010
0010
1000
1000
,
2002
0000
3003
0010
,
1001
0100
0010
0100
,
0001
0010
0001
0101
,
1000
0010
1000
0010
,
2010
3010
0102
0103
,
0010
0010
1000
0100
,
1000
0010
0100
0001
,
0010
0001
0100
0010
,
1000
0010
1000
0010
,
0100
0001
0100
1001
,
1000
0010
1000
0001
,
0100
0010
0001
0010
,
0100
0010
1000
0100
,
2002
0000
0000
0000
3003
0000
0000
0200
,
0000
0000
0000
0300
0000
0000
0000
0000
,
0020
0000
0000
0000
0030
0000
0000
2000
,
0000
0000
0000
3000
0000
0000
0000
0000
,
1000
1000
0001
0100
,
0001
0010
0001
0100
,
1000
0010
0100
0001
,
0010
0001
0010
0001
,
0020
0230
0302
2003
,
3001
1000
0000
0010
,
0000
0100
0000
0010
,
0000
1000
0000
1000
,
0000
0001
0000
0100
,
0010
1000
0010
1000
,
0001
0100
0001
1000
,
0020
0030
2000
3000
,
1000
0100
0010
0001
,
0100
0010
1000
1010
,
0100
0010
1000
0001
,
0100
0010
0001
0100
,
0001
1000
0010
1000
,
0010
0100
0001
1001
,
1000
0010
0100
0010
,
1000
0010
0001
0010
,
2000
0000
0000
0000
,
3000
0010
0000
0100
,
0000
0010
0000
1000
,
0000
0001
0000
1000
,
0000
0010
0001
0010
,
0000
0001
0000
1000
,
1000
0001
0100
0002
,
0000
0003
0000
0000
;

//---------------dance-single - ----------------
#NOTES:
     dance-single:
     :
     Beginner:
     2:
     0.145,0.208,0.067,0.080,0.000:
0000
0000
0000
0000
,
0000
0000
0000
0000
,
0000
0000
0000
0000
,
0000
0000
0000
0000
,
0000
0000
0000
0000
,
0000
0100
0000
0001
,
0000
0010
0000
1000
,
0000
0010
0000
1000
,
0000
0000
2002
0000
,
3003
0000
0000
0000
,
0110
0000
0000
0010
,
0000
1000
0000
0001
,
0000
0100
0000
0010
,
0000
0001
0000
1000
,
0000
1000
0000
0001
,
0000
0100
0000
0001
,
0000
0010
0000
0001
,
0000
1000
0000
0010
,
0020
0000
0030
0000
,
0002
0000
0003
0000
,
2000
0000
3000
0000
,
1000
0000
1000
0000
,
1001
0000
0100
0000
,
0010
0000
1000
0000
,
0100
0000
0010
0000
,
2000
0000
3000
0000
,
0000
0010
0100
0010
,
0000
0001
0000
0100
,
0000
0001
1000
0001
,
0000
1000
0000
0010
,
0000
1000
0010
1000
,
0000
0100
0000
1000
,
0000
0010
0100
0010
,
0000
1000
0000
0010
,
0000
0001
0000
0110
,
0000
0100
0000
0010
,
0000
0001
0000
1000
,
0000
0010
0000
1000
,
2000
0000
3000
0000
,
1000
0000
0010
0000
,
0001
0000
0100
0000
,
1000
0000
0010
0000
,
0110
0000
0000
0010
,
0010
0010
0000
1000
,
1000
1000
0000
0100
,
0100
0100
0000
0001
,
0002
0003
0002
0003
,
0000
1000
0000
0010
,
0000
0100
0000
0001
,
0000
0100
0000
1000
,
0000
1001
0110
1001
,
0000
0100
0100
0100
,
0000
0010
0010
0010
,
0000
0010
0000
0001
,
0000
1000
0000
0100
,
0000
1000
0000
1001
,
0000
0001
0000
0100
,
0000
0010
0000
0001
,
0000
0100
0000
0001
,
0000
1000
0000
1001
,
0000
0010
0000
0100
,
0000
0010
0000
1000
,
0000
1000
1000
1000
,
0000
0001
0000
0100
,
0000
0001
0000
1000
,
0000
0010
0000
0100
,
0000
0001
0000
0010
,
0020
0000
0030
0000
,
2000
0000
3000
2000
,
0000
3000
0000
0000
;

//---------------dance-single - ----------------
#NOTES:
     dance-single:
     :
     Medium:
     8:
     0.315,0.370,0.074,0.181,0.174:
0000
0000
0000
0000
,
1000
0000
0010
1000
0010
0000
0000
0000
,
0010
0000
0100
0001
0100
0000
0000
0000
,
0001
0000
1000
0001
1000
0000
0000
0000
,
0002
0000
0000
0023
0000
0000
0230
0000
0000
0000
0000
0000
1300
0000
0000
0000
,
0001
0000
0100
0001
0100
0000
0000
0000
,
0100
0000
0010
1000
0010
0000
0000
0000
,
1000
0000
0001
1000
0001
0000
0000
0000
,
2000
0000
0000
3200
0000
0000
0320
0000
0000
0000
0000
0000
0000
0000
0000
0000
,
0030
0000
0000
0000
,
0101
0000
0000
0000
0000
0000
0010
0100
0000
0000
0010
0000
1000
0000
0000
0000
,
0010
0000
0000
0000
0000
0000
0010
1000
0000
0000
1000
0000
0010
0000
0001
0000
,
0010
0000
0000
0000
0000
0000
0100
0010
0000
0000
1000
0000
0001
0000
0000
0000
,
1000
0000
0000
1000
0000
0000
2000
0000
0000
0000
0000
0000
0000
0000
0000
0000
,
3010
0000
0000
0000
0000
0000
0100
0010
0000
0000
0100
0000
0001
0000
0000
0000
,
0100
0000
0000
0000
0000
0000
0100
0001
0000
0000
0001
0000
0100
0000
1000
0000
,
0100
0000
0000
0000
0000
0000
0010
0100
0000
0000
0001
0000
1000
0000
0000
0000
,
0001
0000
0000
0001
0000
0000
0002
0000
0000
0000
0000
0000
0000
0000
0000
0000
,
2003
0000
0000
0000
3020
0000
0000
2030
,
0000
0000
3000
1001
,
1000
0010
0100
0000
0100
0010
0000
0000
,
0100
0010
0001
0000
0001
0010
0101
0000
,
0000
0000
0000
0100
0001
0000
0000
0001
0100
0000
0000
0010
1000
0000
0000
1000
,
0010
0000
0000
1000
0100
0000
0000
0100
1000
0000
0100
0000
0010
0000
0001
0000
,
0100
0000
0000
0001
0100
0000
0000
0100
0001
0000
0000
0100
0010
0000
0000
0100
,
0020
0000
0030
0020
0000
0030
0020
0000
0000
0000
0000
0000
0000
0000
0000
0000
,
0130
0000
0010
0000
0100
0010
0100
0000
,
0010
0000
0001
0000
1000
0100
0010
0000
,
0100
0000
1000
0000
0100
0001
1000
0000
,
2000
3002
2003
3002
,
1003
0000
0110
0000
0100
0010
0001
0000
,
0001
0000
1000
0000
0010
1000
0001
0000
,
0100
0001
0100
0001
,
1000
0010
0100
0010
,
0001
0000
0000
0010
0000
0001
0000
0100
0000
0001
0000
0000
1001
0000
0000
0000
,
1000
0000
0000
0100
0000
0000
0010
0000
0000
0000
0000
0000
1000
0000
0000
0000
,
1000
0000
0000
0100
0000
1000
0000
0010
1000
0000
0010
0000
1001
0000
0000
0000
,
0001
0000
0000
0010
0000
0000
0100
0000
0000
0000
0000
0000
0001
0000
0000
0000
,
0200
0000
0000
0000
0000
0000
0000
0320
,
0000
0000
0000
0000
,
2030
0000
0000
0000
0000
0000
0000
3002
,
0000
0000
0000
0000
,
1003
0010
1000
0001
,
0100
0001
0010
0100
,
1000
0100
0010
0001
,
0100
0001
1000
0010
,
0200
0320
2030
3002
,
1003
0010
0000
1000
,
0000
0100
0000
1000
,
0000
0001
0000
0100
,
0000
0010
0000
1000
,
0001
0000
0110
0000
0010
0100
1000
0000
,
1000
0000
0001
0000
0100
0001
1000
0000
,
0010
1000
0010
1000
,
0001
0100
0010
0100
,
1000
0000
0000
0100
0000
1000
0000
0010
0000
1000
0000
0000
1001
0000
0000
0000
,
0001
0000
0001
0100
0010
0000
0001
0000
,
0001
0000
0000
0010
0000
0001
0000
0100
0001
0000
0100
0000
1001
0000
0000
0000
,
1000
0000
0000
0100
0000
0000
0010
0000
0000
0001
0000
0000
1000
0000
0000
0000
,
0001
0000
0000
0010
0000
0001
0000
1000
0000
0001
0000
0000
0101
0000
0000
0000
,
0100
0000
0100
0010
1000
0000
0100
0000
,
0100
0000
0000
1000
0000
0100
0000
0010
0100
0000
0010
0000
0101
0000
0000
0000
,
0001
0000
0000
0010
0000
0000
1000
0000
0000
0100
0000
0000
0001
0000
0000
0000
,
0100
0010
1000
0010
,
1000
0010
0001
0010
,
0001
0100
0010
1000
,
0010
0000
0000
0010
0000
0000
0010
0000
0000
0010
0000
0000
0010
0000
0000
0000
,
0100
0000
0010
1000
0001
0000
0100
0000
,
1000
0000
0000
1000
0000
0000
1000
0000
0000
1000
0000
0000
2000
0000
0000
0000
,
0000
3000
0000
0000
;

//---------------dance-single - ----------------
#NOTES:
     dance-single:
     :
     Hard:
     14:
     0.491,0.463,0.234,0.214,0.498: // measure 1
0000
0000
0000
0000
,  // measure 2
0001
0100
0001
0100
0000
0010
0000
0100
0000
0000
0000
0000
0000
0000
0000
0000
,  // measure 3
1000
0100
0010
0001
0000
0100
0000
0001
0000
0000
0000
0000
0000
0000
0000
0000
,  // measure 4
0100
0001
1000
0010
0000
1000
0000
0001
0000
0000
0000
0000
0000
0000
0000
0000
,  // measure 5
1000
0000
0000
0100
0000
0000
0010
0000
0000
0000
1000
0000
0010
0000
0000
0000
,  // measure 6
1000
0010
1000
0010
0000
0100
0000
0001
0000
0100
0001
0100
0001
0000
0000
0000
,  // measure 7
0001
0010
0100
1000
0000
0010
0000
1000
0000
0000
0000
0000
1001
0000
0000
0000
,  // measure 8
0010
0100
0010
0100
0000
0010
0000
0100
0000
0000
0010
0000
0000
0100
0000
0000
,  // measure 9
0101
0000
0000
0110
0000
0000
2020
0000
0000
0000
0000
0000
0000
0000
0000
0000
,  // measure 10
3030
0000
0000
0000
,  // measure 11
0110
0000
0100
0010
0100
0010
0000
1000
0000
0010
0000
0001
0000
0000
0000
0000
,  // measure 12
0000
1000
0010
1000
0001
0100
0000
0001
0000
1000
0000
0000
0010
0000
0000
0000
,  // measure 13
0000
0001
0100
0010
1000
0001
0000
0100
0000
0010
0000
1000
0000
0000
0010
1000
,  // measure 14
0001
0000
0100
0001
0000
0100
0000
0000
0010
0000
0000
0000
1000
0000
0000
0000
,  // measure 15
0000
0010
0100
0010
1000
0001
0000
0010
0000
0001
0000
0010
0000
0000
0000
0000
,  // measure 16
0000
0001
0010
0100
1000
0010
0000
0100
0000
0001
0000
0000
1000
0000
0010
0000
,  // measure 17
1000
0000
0000
0100
0000
0000
1000
0000
0000
0000
0000
0000
1010
0000
1000
0000
,  // measure 18
1000
0000
0000
0010
0000
0000
1000
0000
0000
0000
0010
0000
0100
0000
0000
0000
,  // measure 19
2020
0000
0030
0000
3010
0000
1000
0000
0010
0000
0000
0100
0000
0000
0001
0100
,  // measure 20
0000
0100
0001
0000
1000
0000
0100
0000
0010
0000
0000
0000
0011
0000
0010
0001
,  // measure 21
0000
0010
0001
0010
0001
0000
0010
0000
0100
0000
1000
0000
0000
0100
0000
0100
,  // measure 22
0000
1000
0010
0000
1000
0000
0001
0000
0100
0000
0010
0000
1001
0000
0000
0000
,  // measure 23
0220
0000
0330
0100
0010
0000
0000
0010
1000
0000
0000
1000
0001
0000
0000
0001
,  // measure 24
0100
0000
0000
0100
0001
0000
0000
0010
1000
0000
0010
0000
1000
0000
0001
0000
,  // measure 25
0100
0000
0000
0100
0001
0000
0000
0010
0001
0000
0000
0001
1000
0000
0000
0010
,  // measure 26
2000
0000
0000
3200
0000
0000
0320
0000
0000
0030
0001
0000
0001
0000
0001
0000
,  // measure 27
0101
0000
0020
0030
0010
0100
0010
1000
,  // measure 28
0100
0000
0000
0010
0000
0000
0100
0000
0000
0000
0100
0000
1000
0010
1000
0000
,  // measure 29
0010
0000
0000
0001
0000
0000
1000
0000
0000
0000
0100
0000
1000
0000
0001
0000
,  // measure 30
0200
0010
0320
0100
0230
0010
0310
0000
,  // measure 31
1010
0000
0000
0000
1000
0000
0010
0000
1000
0000
1000
0100
0000
0000
0010
0000
,  // measure 32
1000
0000
0000
0010
0000
0000
0001
0000
0000
0000
0010
0000
0001
0000
0100
0000
,  // measure 33
0002
0100
0203
0010
0320
1000
1030
0010
,  // measure 34
0000
0000
0100
0000
1000
0100
0010
0001
,  // measure 35
0100
0000
0000
1000
0000
0100
0000
0001
0000
0100
0000
0000
1001
0000
0000
0000
,  // measure 36
1100
0000
0000
0101
0000
0000
1010
0000
0000
0000
0000
0000
0001
0000
0001
0000
,  // measure 37
0100
0000
0000
0001
0000
1000
0000
0010
1000
0000
0100
0000
0010
0000
0000
0000
,  // measure 38
0101
0000
0000
0011
0000
0000
0110
0000
0000
1010
0000
0000
1001
0000
0000
0000
,  // measure 39
1000
0000
0000
1000
0000
0000
1000
0000
0000
0000
0000
0000
1000
0000
0010
0000
,  // measure 40
0001
0100
0010
1000
0001
0100
0001
2000
,  // measure 41
0000
0001
0001
0002
0000
3003
0000
0100
,  // measure 42
0000
0100
1001
0010
1001
0001
1000
0000
,  // measure 43
0010
0001
0010
0001
0100
1000
0010
0000
,  // measure 44
0001
0010
0100
1000
0010
0000
0100
1000
,  // measure 45
0100
0001
0100
1000
0010
0001
0010
0100
,  // measure 46
0000
1000
0100
0010
0100
1000
0010
0000
,  // measure 47
2000
0000
3200
0000
0320
0001
0032
0010
,  // measure 48
0013
0000
0200
0300
0100
0010
0100
0001
,  // measure 49
0010
0000
0000
0100
0000
0000
0010
0000
0000
0000
0010
0000
0001
0100
0001
0000
,  // measure 50
0100
0000
0000
1000
0000
0000
0001
0000
0000
0000
0010
0000
0001
0000
1000
0000
,  // measure 51
0020
0100
0230
0010
0320
0100
0130
0000
,  // measure 52
0101
0010
0001
0100
0001
1000
0010
0100
,  // measure 53
0001
0000
0000
0100
0000
0000
1000
0000
0000
0000
0100
0000
1000
0000
0010
0000
,  // measure 54
2000
0000
0000
0100
3200
0000
0000
0010
,  // measure 55
0310
0000
0000
0010
0000
0000
1000
0000
0000
0000
0100
0000
0000
0010
0000
0000
,  // measure 56
0010
0000
0000
0001
0000
0010
0000
1000
0000
0010
0000
0000
1001
0000
0000
0000
,  // measure 57
0010
1000
0010
0100
0000
0001
0000
1000
0000
0000
0000
0000
1000
0000
1000
0000
,  // measure 58
0010
0000
0000
1000
0000
0001
0000
0100
0001
0000
0010
0000
0100
0000
0000
0000
,  // measure 59
1010
0000
0000
1100
0000
0000
0110
0000
0000
0101
0000
0000
1001
0000
0000
0000
,  // measure 60
0001
0000
0000
0001
0000
1000
0000
0010
0000
1000
0000
0000
1001
0000
0000
0000
,  // measure 61
1000
0000
0010
1000
0100
1000
0001
1000
0000
0010
1000
0010
1000
0000
0000
0000
,  // measure 62
1000
0000
0000
0010
0000
1000
0000
1000
0010
0000
0100
0000
0001
0000
0000
0000
,  // measure 63
0011
0000
0000
0110
0000
0000
1010
0000
0000
0000
0010
0000
1000
0000
0000
0000
,  // measure 64
0010
0000
0000
0010
0000
0010
0000
0010
0000
0100
0000
0000
0010
0000
0000
0000
,  // measure 65
1000
0010
1000
0010
0000
1000
0000
0001
0000
0000
0000
0000
0001
0000
1000
0000
,  // measure 66
1000
0000
0000
0001
0000
1000
0000
0001
1000
0000
0010
0000
0001
0000
0000
0000
,  // measure 67
0100
0001
0000
0001
0100
0000
0010
1000
0000
1000
0010
0000
1001
0000
0000
0000
,  // measure 68
1000
0100
0010
0001
0000
1000
0000
0001
0000
0000
0000
0000
0000
0000
0000
0000
,  // measure 69
0002
0000
0000
0023
0000
0000
0230
0000
0000
0300
0000
0000
2000
0000
0000
0000
,  // measure 70
0000
3000
0000
0000
;
