#TITLE:Summer Feelings (feat. Charlie Puth);
#SUBTITLE:;
#ARTIST:Lennon Stella;
#TITLETRANSLIT:;
#SUBTITLETRANSLIT:;
#ARTISTTRANSLIT:;
#CREDIT:;
#BANNER:Summer Feelings (feat. Charlie Puth).png;
#BACKGROUND:Summer Feelings (feat. Charlie Puth)-bg.png;
#LYRICSPATH:;
#CDTITLE:;
#MUSIC:Summer Feelings (feat. Charlie Puth).mp3;
#OFFSET:-0.080;
#SAMPLESTART:40.940;
#SAMPLELENGTH:15.000;
#SELECTABLE:YES;
#BPMS:0.000=116.000;
#STOPS:;
#BGCHANGES:;

//---------------dance-single - ----------------
#NOTES:
     dance-single:
     :
     Easy:
     3:
     0.226,0.283,0.079,0.157,0.000:
0000
0000
0000
0000
,
0000
0000
0000
0000
,
0000
0000
0000
0000
,
0000
0000
0000
0000
,
1010
0000
0010
0000
,
0100
0000
0010
0000
,
1000
0000
0020
1030
,
2000
3010
0020
1030
,
1001
0000
0010
0000
,
0100
0000
0001
0000
,
0010
0000
0002
0103
,
2000
3010
0200
0310
,
0110
0000
0010
0000
,
1000
0000
0001
0001
,
0100
0000
0010
0000
,
1000
0000
0010
1000
,
0010
0000
0100
0000
,
0010
0000
0100
0010
,
0100
0000
0001
0000
,
1000
0001
1000
0002
,
1003
0001
1000
0010
,
1000
0100
1000
0001
,
0020
0000
0031
0000
,
1000
0010
0100
0001
,
1010
0010
1000
0010
,
0100
0001
0100
0010
,
2000
0000
3010
0000
,
0001
0100
0010
1000
,
0101
0000
0100
0000
,
0010
0000
0100
0000
,
0001
0000
0200
0301
,
0002
0103
0200
0301
,
1001
0000
0100
0000
,
0010
0000
1000
0000
,
0100
0000
2000
3010
,
0002
0103
0020
0130
,
0110
0000
0100
0000
,
0001
0000
1000
1000
,
0010
0000
0100
0000
,
0001
0000
0100
0001
,
0100
0000
0010
0000
,
0100
0000
0010
0100
,
0010
0000
1000
0000
,
0001
1000
0001
2000
,
3001
1000
0001
0100
,
0001
0010
0001
1000
,
0200
0000
1300
0000
,
0001
0100
0010
1000
,
0101
0100
0001
0100
,
0010
1000
0010
0100
,
0002
0000
0103
0000
,
1000
0010
0100
0001
,
1001
0001
0001
1000
,
1000
0010
1000
0100
,
2000
0000
3100
0000
,
0100
0010
0001
0100
,
1010
0010
0100
0001
,
1000
0001
1000
0010
,
0020
0000
1030
0000
,
1000
0010
0010
0100
,
0010
0000
0000
0000
;

//---------------dance-single - ----------------
#NOTES:
     dance-single:
     :
     Beginner:
     1:
     0.166,0.188,0.165,0.000,0.000:
0000
0000
0000
0000
,
0000
0000
0000
0000
,
0000
0000
0000
0000
,
0000
0000
0000
0000
,
1001
0000
0010
0000
,
1000
0000
0001
0000
,
0100
0000
0010
0000
,
1000
0000
0001
0000
,
0110
0000
1000
0000
,
0100
0000
1000
0000
,
1001
0000
0010
0000
,
0100
0000
0001
0000
,
0101
0000
0001
0000
,
0001
0000
0100
0000
,
0110
0000
0010
0000
,
1000
0000
0010
0000
,
1001
0000
0010
0000
,
0100
0000
0001
0000
,
1100
0000
1000
0000
,
0001
0001
0001
0000
,
0101
0000
0010
0000
,
1000
0010
1000
0000
,
0010
0000
0100
0000
,
0010
0001
0010
0000
,
1001
0000
1000
0000
,
0010
0100
0010
0000
,
1000
0000
0001
0000
,
0100
0001
0100
0000
,
1001
0000
0100
0000
,
0001
0000
1000
0000
,
0010
0000
0100
0000
,
0001
0000
1000
0000
,
0110
0000
0001
0000
,
0010
0000
0001
0000
,
1001
0000
0100
0000
,
0010
0000
1000
0000
,
1010
0000
1000
0000
,
1000
0000
0010
0000
,
0110
0000
0100
0000
,
0001
0000
0100
0000
,
1001
0000
0100
0000
,
0010
0000
1000
0000
,
0011
0000
0001
0000
,
1000
1000
1000
0000
,
1010
0000
0100
0000
,
0001
0100
0001
0000
,
0100
0000
0010
0000
,
0100
1000
0100
0000
,
1001
0000
0001
0000
,
0100
0010
0100
0000
,
0001
0000
1000
0000
,
0010
1000
0010
0000
,
1001
0000
1000
0000
,
0001
0010
0001
0000
,
1000
0000
0010
0000
,
0100
0100
0100
0000
,
0110
0000
1000
0000
,
0001
0001
0001
0000
,
1000
0000
0001
0000
,
0100
0000
0010
0010
,
0110
0000
0000
0000
;

//---------------dance-single - ----------------
#NOTES:
     dance-single:
     :
     Medium:
     7:
     0.314,0.306,0.094,0.110,0.000:
0000
0000
0000
0000
,
0000
0000
0000
0000
,
0000
0000
0000
0000
,
0000
0000
0000
0000
,
0101
0000
0001
0000
1000
0010
1000
0000
,
0010
0000
0100
0000
0010
0001
0100
0000
,
0010
0000
1000
0000
0001
1000
0001
0000
,
1000
0000
0010
0000
0100
0010
0100
0000
,
1010
0000
1000
0000
0001
0001
0100
0000
,
0001
0000
0100
0000
0010
1000
0010
0000
,
1001
0000
0100
0000
0010
0100
0010
0000
,
1000
0000
0001
0000
0100
0001
0200
0000
,
0301
0000
0000
0010
0010
0000
1000
0000
,
0001
0000
1000
0100
0100
0000
0020
0000
,
0130
0000
0000
1000
0001
0000
0001
0000
,
1000
0000
0010
0100
0010
0000
2000
0000
,
3001
0000
0000
0100
0001
0000
1000
0000
,
0010
0000
0100
0001
0010
0000
2000
0000
,
3010
0000
0000
1000
0001
0000
1000
0000
,
0001
0010
0100
1000
,
1001
0000
0000
0001
0100
0000
0001
0000
,
1000
0010
0100
0001
,
2000
0000
3001
1000
0001
0000
0100
0000
,
0010
0100
0001
1000
,
1010
0000
0000
0100
0010
0000
1000
0000
,
0001
0100
0001
0010
,
0200
0000
0301
0100
0001
0000
1000
0000
,
0010
0100
0010
1000
,
1010
0000
1000
0000
0001
0100
0001
0000
,
0100
0000
0010
0000
0100
1000
0010
0000
,
0100
0000
0001
0000
1000
0001
1000
0000
,
0001
0000
0100
0000
0010
0100
0010
0000
,
0101
0000
0001
0000
1000
1000
0010
0000
,
1000
0000
0010
0000
0100
0001
0100
0000
,
1001
0000
0010
0000
0100
0010
0100
0000
,
0001
0000
1000
0000
0010
1000
0020
0000
,
1030
0000
0000
0100
0100
0000
0001
0000
,
1000
0000
0001
0010
0010
0000
0200
0000
,
0310
0000
0000
0001
1000
0000
1000
0000
,
0001
0000
0100
0010
0100
0000
0002
0000
,
1003
0000
0000
0010
1000
0000
0001
0000
,
0100
0000
0010
1000
0100
0000
0002
0000
,
0103
0000
0000
0001
1000
0000
0001
0000
,
1000
0100
0010
0001
,
1001
0000
0000
1000
0010
0000
1000
0000
,
0001
0100
0010
1000
,
0002
0000
1003
0001
1000
0000
0010
0000
,
0100
0010
1000
0001
,
0101
0000
0000
0010
0100
0000
0001
0000
,
1000
0010
1000
0100
,
0020
0000
1030
0010
1000
0000
0001
0000
,
0100
0010
0100
0001
,
0110
0000
0000
0100
1000
0000
0100
0000
,
0010
0001
1000
0100
,
0020
0000
0130
0010
0100
0000
1000
0000
,
0001
1000
0100
0010
,
0011
0000
0000
1000
0001
0000
0010
0000
,
0100
1000
0100
0001
,
2000
0000
3100
1000
0100
0000
0010
0000
,
0001
0000
1000
0000
0001
0010
0100
1000
;

//---------------dance-single - ----------------
#NOTES:
     dance-single:
     :
     Hard:
     9:
     0.412,0.402,0.188,0.149,0.047: // measure 1
0000
0000
0000
0000
,  // measure 2
0000
0000
0000
0000
,  // measure 3
0000
0000
0000
0000
,  // measure 4
0000
0000
0000
0000
,  // measure 5
1010
0010
1000
0001
0100
0010
0100
0001
,  // measure 6
0000
0001
0100
0010
0100
0010
1000
0010
,  // measure 7
1000
0001
0000
0200
0000
0301
0000
0020
,  // measure 8
0000
1030
0000
2000
0000
3001
1000
0000
,  // measure 9
1001
0001
1000
0010
0100
0001
0100
0010
,  // measure 10
0000
1000
0001
0100
0001
1000
0001
0100
,  // measure 11
1000
0010
0000
0020
0000
0130
0000
2000
,  // measure 12
0000
3001
0000
0002
0000
0103
0001
0000
,  // measure 13
0101
0000
0000
1000
0001
0000
0001
0010
,  // measure 14
0100
1000
0010
1000
0010
0000
1010
0000
,  // measure 15
1010
0000
0000
0100
0010
0000
1000
0100
,  // measure 16
0010
0001
0100
0001
0100
0000
0110
0000
,  // measure 17
0110
0000
0000
0001
1000
0000
0001
0010
,  // measure 18
1000
0010
0001
0010
1000
0000
0110
0000
,  // measure 19
1001
0000
0000
0100
0100
0000
0010
0000
,  // measure 20
1000
0100
0010
0001
,  // measure 21
0101
0000
0001
1000
0010
0000
1000
0010
,  // measure 22
0100
0000
0000
0010
0000
0000
0100
0000
0000
0001
0000
0000
0001
0000
0100
0000
,  // measure 23
0020
0000
0130
0010
0100
0000
0010
1000
,  // measure 24
0010
0100
0010
1000
0001
0000
0100
0000
,  // measure 25
0110
0000
1000
0100
0010
0000
0001
0010
,  // measure 26
0100
0000
0000
0010
0000
0000
1000
0000
0000
0001
0000
0000
0100
0000
0001
0000
,  // measure 27
2000
0000
3001
0001
0100
0000
0010
1000
,  // measure 28
0010
0100
0001
0100
0010
0000
0100
0000
,  // measure 29
0101
0100
0001
1000
0010
0100
0010
1000
,  // measure 30
0000
1000
0010
0100
0010
0100
0001
0100
,  // measure 31
0001
1000
0000
0020
0000
1030
0000
0200
,  // measure 32
0000
0301
0000
0002
0000
1003
0001
0000
,  // measure 33
1001
1000
0001
0100
0010
1000
0010
0100
,  // measure 34
0000
0001
1000
0010
1000
0001
1000
0010
,  // measure 35
0001
0100
0000
0200
0000
0310
0000
0002
,  // measure 36
0000
1003
0000
2000
0000
3010
1000
0000
,  // measure 37
1010
0000
0000
0001
1000
0000
1000
0100
,  // measure 38
0010
0001
0100
0001
0100
0000
0101
0000
,  // measure 39
0101
0000
0000
0010
0100
0000
0001
0010
,  // measure 40
0100
1000
0010
1000
0010
0000
0110
0000
,  // measure 41
0110
0000
0000
1000
0001
0000
1000
0100
,  // measure 42
0001
0100
1000
0100
0001
0000
0110
0000
,  // measure 43
1001
0000
0000
0010
0010
0000
0100
0000
,  // measure 44
0001
0010
0100
1000
,  // measure 45
1010
0000
1000
0001
0100
0000
0001
0100
,  // measure 46
0010
0000
0000
0100
0000
0000
0010
0000
0000
1000
0000
0000
1000
0000
0010
0000
,  // measure 47
0200
0000
0310
0100
0010
0000
0100
0001
,  // measure 48
0100
0010
0100
0001
1000
0000
0010
0000
,  // measure 49
0110
0000
0001
0010
0100
0000
1000
0100
,  // measure 50
0010
0000
0000
0100
0000
0000
0001
0000
0000
1000
0000
0000
0010
0000
1000
0000
,  // measure 51
0002
0000
1003
1000
0010
0000
0100
0001
,  // measure 52
0100
0010
1000
0010
0100
0000
0010
0000
,  // measure 53
0101
0000
0001
1000
0010
0000
1000
0010
,  // measure 54
0100
0000
0000
0010
0000
0000
0100
0000
0000
0001
0000
0000
0001
0000
0100
0000
,  // measure 55
0020
0000
0130
0010
0100
0000
0010
1000
,  // measure 56
0010
0100
0010
1000
0001
0000
0100
0000
,  // measure 57
0110
0000
1000
0100
0010
0000
0001
0010
,  // measure 58
0100
0000
0000
0010
0000
0000
1000
0000
0000
0001
0000
0000
0100
0000
0001
0000
,  // measure 59
2000
0000
3001
0001
0100
0000
0010
1000
,  // measure 60
0010
0100
0001
0100
0010
1000
0010
0200
,  // measure 61
0000
0300
0000
0000
;
