#TITLE:Stay With Me;
#SUBTITLE:;
#ARTIST:Miki Matsubara;
#TITLETRANSLIT:;
#SUBTITLETRANSLIT:;
#ARTISTTRANSLIT:;
#CREDIT:;
#BANNER:Stay With Me.png;
#BACKGROUND:Stay With Me-bg.png;
#LYRICSPATH:;
#CDTITLE:;
#MUSIC:Stay With Me.mp3;
#OFFSET:-0.880;
#SAMPLESTART:61.040;
#SAMPLELENGTH:15.000;
#SELECTABLE:YES;
#BPMS:0.000=108.320;
#STOPS:;
#BGCHANGES:;

//---------------dance-single - ----------------
#NOTES:
     dance-single:
     :
     Beginner:
     1:
     0.150,0.167,0.044,0.103,0.000:
0000
0000
0000
0000
,
2000
0000
3000
0000
,
0002
0000
0003
0000
,
0200
0000
0300
0000
,
0110
0000
0010
0000
,
1000
0000
0010
0000
,
1000
1000
1000
0000
,
0001
0001
0001
0000
,
0010
0010
0010
0000
,
1000
1000
1000
0000
,
1001
0000
0001
0000
,
1000
0000
0010
0000
,
1000
0010
1000
0000
,
0001
0100
0001
0000
,
0110
0000
0010
0000
,
1000
0000
0100
0000
,
1000
0010
0010
0000
,
0001
0100
0100
0000
,
0010
0000
0100
0000
,
0010
0000
1000
0000
,
0001
0000
0100
0000
,
0001
0000
0002
0000
,
0003
0000
0100
0000
,
0010
0000
1000
0000
,
0010
0000
1000
0000
,
0010
0000
2000
0000
,
3000
0000
0000
0000
0110
0000
0000
1001
,
0000
0000
2000
0000
,
0000
3000
1000
1000
,
0001
0000
0020
0000
,
0000
0030
0100
0010
,
0100
0000
0200
0000
,
0000
0300
0100
0001
,
0100
0000
0001
1000
,
0001
0000
0100
0010
,
1000
0000
0002
0000
,
0000
0003
1000
0001
,
1000
0000
0200
0000
,
0000
0300
0100
0010
,
0100
0000
0020
0000
,
0000
0030
1000
0010
,
1000
0000
0010
0000
,
1000
0000
0001
1000
,
0001
0000
2002
0000
,
0000
3003
1000
0001
,
0100
0000
0010
0000
,
1000
0000
0001
1000
,
0100
0000
0010
1000
,
0010
0000
0100
0001
,
0100
0000
0001
0000
,
1000
0000
0010
0000
,
1000
0000
0002
0000
,
0000
0003
0001
1000
,
0001
0000
1000
0010
,
1000
0000
0100
0000
,
0010
0000
0100
0000
,
0001
0000
0100
0000
,
0001
0000
0000
0000
;

//---------------dance-single - ----------------
#NOTES:
     dance-single:
     :
     Easy:
     3:
     0.202,0.232,0.044,0.059,0.000:
0000
0000
0000
0000
,
1000
0010
1000
0000
,
0001
0100
0001
0000
,
0100
0010
0100
0000
,
0010
0100
0010
0000
,
1000
0001
1000
0000
,
0001
0101
1000
1010
,
1000
0010
1000
0010
,
0100
0001
0100
0010
,
1000
0001
0100
0001
,
0100
1000
0100
0001
,
1000
0010
0001
0010
,
1000
0010
0001
0010
,
1000
0001
0100
0001
,
1000
0001
0100
0001
,
1000
0010
0100
0010
,
1000
0010
0100
0010
,
0001
0010
0100
0001
,
0010
0010
0000
1010
,
0000
0100
0000
0101
,
0000
0010
0000
0110
,
0000
0100
0000
1001
,
1000
0001
0100
0000
,
0001
0100
1000
0000
,
1000
0010
0010
0000
,
0100
0100
0002
0000
,
1000
0000
1003
0000
,
0010
0000
0010
0010
,
1000
0000
0001
0100
,
0001
0000
2000
0010
,
3001
0000
0100
0001
,
0100
0000
0010
1000
,
0010
0000
0100
0010
,
0100
0000
1000
0001
,
1000
0000
1000
0010
,
0001
0000
0020
1000
,
1030
0000
0100
0010
,
1000
0000
1000
0010
,
0001
0000
0001
0010
,
1000
0000
0001
1000
,
0001
0000
0100
0001
,
0100
0000
0010
1000
,
0010
0000
0100
0010
,
0100
0000
0002
0100
,
1003
0000
1000
0010
,
1000
0000
0001
0010
,
1000
0000
1000
0010
,
0001
0000
1000
0001
,
1000
0000
0010
1000
,
0010
0000
0100
0001
,
0100
0000
0001
1000
,
0010
0000
1000
0001
,
1000
0001
0100
0010
,
0100
0001
1000
0010
,
0100
0010
1000
0010
,
0001
0010
2000
0000
,
3002
0000
2003
0000
,
3020
0000
0030
0000
;

//---------------dance-single - ----------------
#NOTES:
     dance-single:
     :
     Medium:
     6:
     0.320,0.341,0.140,0.184,0.007:
0000
0000
0000
0000
,
0010
0010
0010
0010
,
0100
0100
0100
0100
,
0001
0001
0001
0001
,
1001
1000
1000
1000
,
1010
0010
0010
0010
,
0110
0010
1000
0010
,
0100
0001
0100
0010
,
1000
0001
1000
0010
,
1000
0001
0100
0010
,
1000
0100
0010
0000
1000
0100
0010
0000
,
0001
0100
0010
0000
1000
0010
0100
0000
,
0010
1000
0001
0100
,
0001
1000
0010
1000
,
1000
1000
1000
0000
0010
0001
0010
0000
,
0100
0001
0010
0000
1000
0010
0001
0000
,
0100
0100
0010
0010
,
0001
0100
0001
1000
,
0001
0101
1000
1010
,
1000
1001
0010
0110
,
0010
0101
0100
1100
,
1000
0101
0001
0110
,
0100
0011
0010
1010
,
1000
1010
1000
1010
,
0010
0110
0100
0101
,
0001
1000
0002
0000
,
0000
0000
0000
0000
0000
0000
0000
0000
1003
0001
0000
0000
0000
0000
1000
0001
,
0000
0000
0001
0100
0020
0000
0130
0000
,
1000
0010
1000
0001
,
0100
0000
0100
0010
0200
0000
0310
0000
,
0010
1000
0001
0100
,
0001
0000
0010
1000
0020
0000
1030
0000
,
2000
3010
0002
0103
,
2002
0000
3003
0000
1000
0001
0100
0000
,
0001
1000
0010
0000
0100
0010
0100
0000
,
1000
0001
1000
0010
0200
0000
0310
0000
,
0001
0100
0001
1000
,
0010
0000
0010
0100
0020
0000
0130
0000
,
0100
0001
1000
0010
,
1000
0000
0100
0001
0200
0000
0301
0000
,
0002
0103
2000
3010
,
2002
0000
3003
0000
0001
1000
0010
0000
,
1000
0001
0100
0000
0010
0100
0010
0000
,
0001
1000
0010
0000
1000
0001
0100
0000
,
0001
0010
0100
0000
0010
0100
1000
0000
,
1000
0001
0100
0000
0001
1000
0010
0000
,
0100
0010
1000
0000
1000
0010
1000
0000
,
0001
1000
0001
0000
1000
0010
0001
0000
,
1000
0010
1000
0000
0010
1000
0010
0000
,
0100
0010
1000
0000
0100
0010
0001
0000
,
0100
0010
0100
0000
0010
1000
0010
0000
,
1000
0010
1000
0001
,
0100
0010
1000
0001
,
0100
0001
1000
0010
,
1000
0010
0100
0001
,
1000
0010
2000
3002
,
0203
0320
2030
3002
,
2003
3002
2003
3020
,
0030
0000
0000
0000
;

//---------------dance-single - ----------------
#NOTES:
     dance-single:
     :
     Hard:
     7:
     0.373,0.341,0.037,0.206,0.114: // measure 1
0000
0000
0000
0000
,  // measure 2
2000
0001
0010
3001
,  // measure 3
0002
1000
0100
1003
,  // measure 4
0200
0010
0001
0310
,  // measure 5
1010
0000
0000
0000
0000
0000
1000
0000
0010
1000
0000
0000
0000
0000
0000
0000
,  // measure 6
1001
0000
0000
0000
0000
0000
0010
0000
0100
0010
0000
0000
1000
0000
0000
0000
,  // measure 7
1000
0000
0010
1000
0000
0010
1000
0010
1000
0000
0001
0000
0100
0000
0000
0000
,  // measure 8
0010
0000
0000
0100
0000
0000
0000
0000
0001
0000
0000
0000
1000
0000
0000
0000
,  // measure 9
0010
0000
0100
0001
0000
1000
0010
1000
0001
0000
0100
0000
0001
0000
0000
0000
,  // measure 10
1000
0000
0000
0010
0000
0000
0000
0000
1000
0000
0010
0000
1000
0001
0000
1000
,  // measure 11
0000
0001
0100
0000
0010
1000
0100
0000
,  // measure 12
0010
0000
1000
0000
0001
0000
0100
0001
0000
0000
0001
0000
0100
0000
0010
2000
,  // measure 13
0000
0000
0000
0000
3001
0100
0001
0000
,  // measure 14
1000
0000
0010
0000
0001
0000
0000
0000
1000
0000
0010
0000
1000
0010
0000
1000
,  // measure 15
0000
0001
0100
1000
0100
0001
1000
0010
,  // measure 16
0000
0000
0010
0000
0100
0000
0001
0000
1000
0000
0010
0000
1000
0000
0100
2000
,  // measure 17
0000
0000
0000
0000
3010
1000
0010
0000
,  // measure 18
0100
0000
0001
0000
0100
0000
0000
0000
1000
0000
0010
0000
0001
0100
0000
0010
,  // measure 19
0000
0100
0010
0001
1000
0100
0010
0001
,  // measure 20
2000
0000
3002
0000
0000
0000
0103
0001
,  // measure 21
0100
0010
1000
0010
0100
0000
1000
0100
,  // measure 22
0010
0001
0100
0010
0002
0000
0000
0000
,  // measure 23
0003
0001
0100
1000
0100
0001
1000
0010
,  // measure 24
0002
0000
2003
0000
0000
0000
3010
1000
,  // measure 25
0010
0000
0100
0000
0001
0100
0000
0010
0000
0000
0000
0000
1000
0000
0010
0000
,  // measure 26
0100
0000
0001
0000
0100
0010
0000
0200
0000
0000
0000
0000
0000
0000
0000
0000
,  // measure 27
0000
0000
0000
0000
0000
0000
0000
0000
0310
0100
0000
0000
0000
0000
0100
0010
,  // measure 28
0000
1000
1010
1000
0020
0000
1030
0000
,  // measure 29
0001
1000
0001
0000
1000
0010
0001
0010
,  // measure 30
1000
0000
0010
0000
0001
1000
0000
0002
0000
0000
0000
0000
0000
0000
0000
0000
,  // measure 31
1003
0010
1000
0000
0001
0100
1000
0100
,  // measure 32
0001
0100
0010
0100
0010
0200
0000
0000
,  // measure 33
0310
0000
2000
0000
,  // measure 34
3001
0000
1000
0010
0001
0010
1000
0001
,  // measure 35
1000
0000
0001
1000
0100
1000
0001
0010
,  // measure 36
0001
0001
0101
0001
0200
0000
0301
0000
,  // measure 37
1000
0001
1000
0000
0001
0100
1000
0100
,  // measure 38
0001
0000
0100
0000
1000
0001
0000
2000
0000
0000
0000
0000
0000
0000
0000
0000
,  // measure 39
3001
0100
0001
0000
1000
0010
0001
0010
,  // measure 40
1000
0010
0100
0010
0100
0020
0000
0000
,  // measure 41
0130
0000
0002
0000
,  // measure 42
1003
0000
0001
0100
1000
0100
0001
1000
,  // measure 43
0001
0000
1000
0001
0010
0001
1000
0100
,  // measure 44
1000
1000
1010
1000
0020
0000
1030
0000
,  // measure 45
0001
1000
0001
0000
1000
0010
0001
0010
,  // measure 46
1000
0000
0010
0000
0001
1000
0000
0002
0000
0000
0000
0000
0000
0000
0000
0000
,  // measure 47
1003
0010
1000
0000
0001
0100
1000
0100
,  // measure 48
0001
0100
0010
0100
0010
0200
0000
0000
,  // measure 49
0310
0000
2000
0000
,  // measure 50
3001
0000
1000
0010
0001
0010
1000
0001
,  // measure 51
1000
0000
0001
1000
0100
1000
0001
0010
,  // measure 52
0001
0010
1000
0000
1000
0010
0001
0000
,  // measure 53
0010
1000
0001
0000
0100
0001
0100
0000
,  // measure 54
0010
1000
0010
0000
1000
0010
0001
0000
,  // measure 55
1000
0010
0100
0000
1000
1000
1000
0000
,  // measure 56
0001
0001
0001
0000
2000
0000
0000
0000
,  // measure 57
3002
0000
0203
0000
,  // measure 58
0320
0000
0230
0000
,  // measure 59
0300
0000
0000
0000
;
