#TITLE:Stay Tonight;
#SUBTITLE:;
#ARTIST:CHUNG HA;
#TITLETRANSLIT:;
#SUBTITLETRANSLIT:;
#ARTISTTRANSLIT:;
#CREDIT:;
#BANNER:Stay Tonight.png;
#BACKGROUND:Stay Tonight-bg.png;
#LYRICSPATH:;
#CDTITLE:;
#MUSIC:Stay Tonight.mp3;
#OFFSET:-0.940;
#SAMPLESTART:83.920;
#SAMPLELENGTH:15.000;
#SELECTABLE:YES;
#BPMS:0.000=121.000;
#STOPS:;
#BGCHANGES:-2.040=Stay Tonight.avi=1.000=0=0=0,
99999=-nosongbg-=1.000=0=0=0 // don't automatically add -songbackground-
;

//---------------dance-single - ----------------
#NOTES:
     dance-single:
     :
     Easy:
     5:
     0.226,0.324,0.180,0.187,0.023:
0000
0000
0000
0000
,
0000
0000
0000
0000
,
0000
0000
0000
0000
,
0000
0000
0000
0000
,
0000
0000
0000
0000
,
0000
0000
0000
0000
,
0000
0000
0000
0000
,
0000
0000
0000
0000
,
0000
0000
0000
0000
,
2000
3002
0003
0100
,
0000
0001
0000
0100
,
0020
0230
0300
0010
,
0000
1000
0000
0010
,
2000
3200
0300
0010
,
0000
0001
0000
0100
,
0002
0023
0030
1000
,
0000
0010
0000
0000
,
1010
0010
0010
0000
,
0100
0001
1000
0000
,
0010
0100
0001
0000
,
0001
0001
0010
0000
,
1000
0010
0100
0000
,
0010
1000
1000
0000
,
2002
0000
0000
0000
,
3003
0000
0000
0000
,
1000
0000
0000
1000
0000
0000
0000
0000
0000
0000
0000
0000
0000
0000
0000
0000
,
0001
0000
0000
0001
0000
0000
0000
0000
0000
0000
0000
0000
0000
0000
0000
0000
,
0010
0000
0000
0010
0000
0000
0000
0000
0000
0000
0000
0000
0000
0000
0000
0000
,
0200
0000
0000
0300
,
0001
0000
0000
0001
0000
0000
0000
0000
0000
0000
0000
0000
0000
0000
0000
0000
,
1000
0000
0000
1000
0000
0000
0000
0000
0000
0000
0000
0000
0000
0000
0000
0000
,
0100
0000
0000
0100
0000
0000
0000
0000
0000
0000
0000
0000
0000
0000
0000
0000
,
0220
0000
0000
0330
,
0110
0010
1000
0001
,
0100
0001
0010
0001
,
1000
0010
0001
0010
,
1000
0010
0000
0100
,
0110
0100
0001
1000
,
0010
1000
0100
1000
,
0001
0100
1000
0100
,
0001
0101
1000
1010
,
2002
3003
0000
0010
,
0100
0010
0000
0100
,
0001
1000
0000
0001
,
1000
0001
0000
1000
,
0010
1010
0010
1010
,
0001
0101
0010
0101
,
0100
0110
0010
1001
,
0001
0100
0001
1000
,
2010
0000
0100
0000
,
3200
0000
0010
0000
,
0320
0000
0001
0000
,
0032
0000
1000
0000
,
2003
0000
0010
0000
,
3020
0000
0100
0000
,
0230
0000
0001
0000
,
0301
0000
0000
0001
0000
0000
0001
0000
0000
0000
0000
0000
0110
0000
0000
0000
,
0220
0000
0000
0000
,
0330
0100
0010
0100
,
0000
0010
1000
0100
,
0000
0010
0001
0100
,
0000
0010
0100
1000
,
0000
0010
0010
0100
,
0000
0001
0001
1000
,
0000
0010
0100
0010
,
1000
1010
0001
0101
,
2002
3003
0000
0100
,
0010
0100
0000
0010
,
1000
0001
0000
1000
,
0001
1000
0000
0001
,
0100
0101
0100
0101
,
1000
1010
0100
1010
,
0010
0110
0100
1001
,
1000
0010
1000
0001
,
2002
0000
0000
3003
;

//---------------dance-single - ----------------
#NOTES:
     dance-single:
     :
     Beginner:
     3:
     0.161,0.224,0.133,0.087,0.000:
0000
0000
0000
0000
,
0000
0000
0000
0000
,
0000
0000
0000
0000
,
0000
0000
0000
0000
,
0000
0000
0000
0000
,
0000
0000
0000
0000
,
0000
0000
0000
0000
,
0000
0000
0000
0000
,
0000
0000
0000
0000
,
0000
1000
0000
0001
,
0000
0001
0000
0100
,
0000
0010
0000
1000
,
0000
0010
0000
1001
,
0000
0100
0000
0010
,
0000
0100
0000
0001
,
0000
1000
0000
0001
,
0000
1000
0000
0000
,
1001
0000
0000
0010
,
0000
0100
0010
0100
,
0000
0010
0100
0010
,
0000
1000
0000
1000
,
0000
0001
0100
0001
,
0000
0100
0010
0100
,
0000
0010
0000
0100
,
0220
0000
0000
0330
,
0110
0000
0000
0000
,
1001
0000
0000
0000
,
0101
0000
0000
0000
,
1010
0000
0000
0000
,
1100
0000
0000
0000
,
0011
0000
0000
0000
,
1001
0000
0000
0000
,
0220
0000
0000
0330
,
0000
0100
0010
0100
,
0000
0001
0001
0001
,
0000
1000
0001
1000
,
0000
0100
0100
0100
,
0000
0010
0100
0010
,
0000
0010
0010
0010
,
0000
1000
0010
1000
,
0000
0110
1001
0110
,
0000
0010
0000
0100
,
0000
0010
0000
1000
,
0000
0100
0000
0010
,
0000
0001
0000
1000
,
0000
0001
0001
0001
,
0000
1000
1000
1000
,
0000
0001
0001
0001
,
0000
1000
0001
1000
,
2002
0000
0000
0000
,
3003
0000
0010
0000
,
0020
0000
0000
0000
,
0030
0000
0100
0000
,
0200
0000
0000
0000
,
0300
0000
0001
0000
,
0002
0000
0000
0000
,
0003
0000
1000
0000
,
2002
0000
0000
0000
,
3003
0001
0000
0001
,
0000
0010
0000
0010
,
0000
0001
0000
0001
,
0000
1000
0000
1000
,
0000
0010
0100
0010
,
0000
1000
0010
1000
,
0000
0010
0001
0010
,
0000
0101
1010
0101
,
0000
0100
0000
0010
,
0000
0100
0000
0001
,
0000
0010
0000
0100
,
0000
1000
0000
0001
,
0000
1000
1000
1000
,
0000
0001
0001
0001
,
0000
1000
1000
1000
,
0000
0001
1000
0001
,
2002
0000
0000
3003
;

//---------------dance-single - ----------------
#NOTES:
     dance-single:
     :
     Medium:
     9:
     0.314,0.374,0.173,0.187,0.043:
0000
0000
0000
0000
,
0000
0000
0000
0000
,
0000
0000
0000
0000
,
0000
0000
0000
0000
,
0000
0000
0000
0000
,
0000
0000
0000
0000
,
0000
0000
0000
0000
,
0000
0000
0000
0000
,
0000
0000
0000
0000
,
2000
0000
3010
0000
0010
0000
0100
0100
,
0010
0100
0001
0010
,
0002
0000
0013
0000
0100
0000
0001
1000
,
0010
1000
0010
0100
,
0020
0000
0130
0000
0100
0000
0010
0100
,
0010
1000
0001
0100
,
0200
0000
0310
0000
1000
0000
0010
0100
,
0001
0000
0001
0000
0001
1000
0001
1000
,
0001
0100
0010
1000
,
0001
0100
0010
0000
0100
0010
0100
0000
,
2020
0000
3030
0000
1000
0010
0100
0000
,
0202
0000
0303
0000
,
1000
0010
0100
0001
,
1000
0010
0100
0000
0010
0100
0010
0000
,
0102
0100
0000
0103
,
2002
0000
0000
0000
,
3003
0000
0000
0010
0000
0000
0000
0000
0000
0000
0000
0000
1000
0000
0010
0000
,
1000
0000
0000
0010
0000
0000
0000
0000
0000
0000
0000
0000
0001
0000
0100
0000
,
0010
0000
0000
0100
0000
0000
0000
0000
0000
0000
0000
0000
0000
0000
0000
0000
,
0100
0000
0000
0010
0000
0000
0001
0000
0001
0000
0000
0000
0001
0000
1000
0000
,
0001
0000
0000
1000
0000
0000
0000
0000
0000
0000
0000
0000
1000
0000
0010
0000
,
0100
0000
0000
0010
0000
0000
0000
0000
0000
0000
0000
0000
0100
0000
0010
0000
,
0100
0000
0000
0010
0000
0000
1000
0000
0001
0000
0000
0000
0000
0000
0000
0000
,
2002
0000
0000
0000
,
3003
0000
0010
0000
0100
0010
0100
0000
,
0001
0000
1000
0000
1000
0001
1000
0001
,
0100
0001
0010
0100
,
1000
0001
0100
0000
0010
0100
0010
0100
,
0010
0000
0100
0000
0010
0100
0010
0000
,
1000
0000
0001
0000
0001
1000
0001
1000
,
0010
1000
0100
0010
,
0001
1001
0100
0110
,
1001
0000
0001
0000
1000
0000
0010
1000
,
0010
0000
0100
0000
0001
0000
0001
1000
,
0010
1000
0010
0100
,
1000
0100
0010
0001
0100
0001
1000
0001
,
0101
0001
1000
1010
,
1000
0010
1000
0110
,
0010
0100
0001
0101
,
0001
0100
0001
0100
0010
1000
0010
1000
,
2002
3003
0200
0000
,
0320
0000
2030
0000
,
3002
0000
0000
0000
,
1003
0100
0010
0001
,
0002
0000
0023
0000
,
0230
0000
2300
0000
,
3002
0000
0000
0000
,
1003
0000
0000
0010
0000
0000
0100
0000
0000
0000
0000
0000
1001
0000
0000
0000
,
0220
0000
0000
0000
,
0330
0010
0100
0010
,
1000
0010
0100
0000
0001
0100
0010
0000
,
0100
0001
1000
0010
,
0110
0000
1001
0000
1000
0010
0001
0000
,
1000
0000
0000
0010
0000
0000
1000
0000
0010
0000
0000
0100
0000
0000
0001
0000
,
0100
0000
0000
0010
0000
0000
0110
0000
0000
0000
0000
0000
0000
0000
0000
0000
,
0001
0000
0000
0100
0000
0000
0001
0000
0100
0000
0000
0010
0000
0000
1000
0000
,
1000
1001
0010
0110
,
1001
0000
1000
0000
0001
0000
0100
0001
,
0100
0000
0010
0000
1000
0000
1000
0001
,
0100
0001
0100
0010
,
0001
0010
0100
1000
0010
1000
0001
1000
,
1010
1000
0001
0101
,
0001
0100
0001
0110
,
0100
0010
1000
1010
,
1000
0010
1000
0010
0100
0001
0100
0001
,
2002
0000
0000
3003
;

//---------------dance-single - ----------------
#NOTES:
     dance-single:
     :
     Hard:
     13:
     0.426,0.524,0.374,0.247,0.150: // measure 1
0000
0000
0000
0000
,  // measure 2
0000
0000
0000
0000
,  // measure 3
0000
0000
0000
0000
,  // measure 4
0000
0000
0000
0000
,  // measure 5
0000
0000
0000
0000
,  // measure 6
0000
0000
0000
0000
,  // measure 7
0000
0000
0000
0000
,  // measure 8
0000
0000
0000
0000
,  // measure 9
0000
0000
0000
0000
,  // measure 10
0102
0000
0103
0000
0010
1000
0010
0100
,  // measure 11
1000
0000
0010
0000
0001
1000
0010
0001
,  // measure 12
0100
0010
0100
0010
,  // measure 13
0110
0000
0001
0000
1000
0001
1000
0010
,  // measure 14
2000
0000
3010
0000
0100
0001
0100
1000
,  // measure 15
0100
0000
0010
0000
0100
1000
0001
0010
,  // measure 16
0001
0100
0010
1000
,  // measure 17
1001
0000
0000
0000
0000
0000
0000
0100
0000
0001
0000
0000
1000
0000
0010
0000
,  // measure 18
1010
1000
0010
0100
,  // measure 19
0101
0000
0001
0000
0001
0010
0100
1000
,  // measure 20
2000
0000
3000
0000
1000
0100
0010
0001
,  // measure 21
0002
0000
0003
0000
0100
0001
1000
0010
,  // measure 22
0101
0001
0100
0010
,  // measure 23
1010
0000
1000
0000
1000
0100
0010
0001
,  // measure 24
0002
1000
0000
1003
,  // measure 25
1010
0010
1000
0001
0100
0010
0100
0001
,  // measure 26
1000
0000
0000
2020
0000
0000
0000
0000
3030
0000
0000
0000
0100
0000
0010
0000
,  // measure 27
0100
0000
0000
0220
0000
0000
0000
0000
0330
0000
0000
0000
0001
0000
0100
0000
,  // measure 28
0010
0000
0000
0202
0000
0000
0000
0000
0000
0000
0000
0000
0303
0000
0000
0000
,  // measure 29
0101
0000
0000
0110
0000
0000
0110
0000
1010
0000
0000
0000
0010
0000
1000
0000
,  // measure 30
0001
0000
0000
0202
0000
0000
0000
0000
0303
0000
0000
0000
0010
0000
0100
0000
,  // measure 31
0010
0000
0000
0220
0000
0000
0000
0000
0330
0000
0000
0000
1000
0000
0010
0000
,  // measure 32
1010
0000
0000
0110
0000
0000
0110
0000
0202
0000
0000
0000
0303
0000
0000
0000
,  // measure 33
2002
0000
0000
3003
,  // measure 34
1010
0000
0000
0000
1000
0000
0000
0010
0000
0000
0100
0000
0010
0000
0100
0000
,  // measure 35
0001
0000
0000
0000
0001
0000
0000
0100
0000
0000
0010
0000
1000
0000
0010
0000
,  // measure 36
0100
0000
0000
0000
0010
0000
0000
1000
0000
0000
1000
0000
1000
0000
0001
0000
,  // measure 37
0100
0000
0000
0000
0001
0000
0000
0000
1000
0000
0000
0000
0010
0000
0000
0000
0000
0000
0000
0000
0000
0100
0000
0000
0000
0000
0000
0000
0000
0000
0001
0000
0000
0000
0000
0000
0100
0000
0000
0000
0000
0000
0001
0000
0000
0000
0000
0000
,  // measure 38
0101
0000
0000
0000
0001
0000
0000
0100
0000
0000
0010
0000
0100
0000
0010
0000
,  // measure 39
1000
0000
0000
0000
1000
0000
0000
0010
0000
0000
0100
0000
0001
0000
0100
0000
,  // measure 40
0010
0000
0000
0000
0100
0000
0000
0001
0000
0000
0001
0000
0001
0000
1000
0000
,  // measure 41
0010
0110
1001
1010
,  // measure 42
0202
0000
0000
0000
0303
0000
0001
0100
0001
0000
0001
0000
0100
0000
0010
0000
,  // measure 43
1010
0000
0000
0000
0010
0000
1000
0010
1000
0000
0010
0000
0100
0000
0001
0000
,  // measure 44
0101
0000
0000
0000
0100
0000
0010
0100
0010
0000
1000
0010
1000
0000
0010
0000
,  // measure 45
1001
0001
0010
1000
0010
0001
0010
1000
,  // measure 46
0100
0000
0000
0000
1010
0000
0000
1000
0010
0000
1000
0000
0010
0000
0100
0000
,  // measure 47
0001
0000
0000
0000
0011
0000
0000
0001
0100
0000
0010
0000
1000
0000
0001
0000
,  // measure 48
0100
0000
0000
0000
0110
0000
0100
0010
0100
0000
0010
1000
0100
0000
0010
0000
,  // measure 49
1000
0100
0010
0001
0100
0001
0100
0010
,  // measure 50
0102
0000
0203
0000
,  // measure 51
0320
0000
2030
0000
,  // measure 52
3200
0000
0000
0300
,  // measure 53
0100
1000
0001
0010
,  // measure 54
0200
0000
2300
0000
,  // measure 55
3002
0000
0203
0000
,  // measure 56
0320
0000
0000
0030
,  // measure 57
1010
0000
0000
0110
0000
0000
0101
0000
0000
0000
0000
0000
1001
0000
0000
0000
,  // measure 58
0220
0000
0000
0000
0000
0000
0000
0330
,  // measure 59
0110
0000
0000
0000
0100
0000
0000
0010
0000
0000
1000
0000
0010
0000
0100
0000
,  // measure 60
0001
0000
0000
0000
0100
0000
0000
0010
0000
0000
1000
0000
0010
0000
1000
0000
,  // measure 61
0100
0000
0000
0000
1000
0000
0000
0010
0000
0000
0100
0000
0100
0000
0001
0000
,  // measure 62
0010
0000
0110
0000
1001
0010
1001
0000
,  // measure 63
0001
0000
0000
0001
0000
0000
0100
0001
0100
0000
0000
0010
0000
0000
1000
0000
,  // measure 64
0010
0000
0000
1000
0000
0000
1010
0000
0000
0000
1000
0000
0010
0000
0100
0000
,  // measure 65
1000
0000
0000
1000
0000
0000
0010
1000
0010
0000
0000
0100
0000
0000
0001
0000
,  // measure 66
0100
0110
1001
0101
,  // measure 67
2020
0000
0000
0000
3030
0000
1000
0010
1000
0000
1000
0000
0010
0000
0100
0000
,  // measure 68
0101
0000
0000
0000
0100
0000
0001
0100
0001
0000
0100
0000
0010
0000
1000
0000
,  // measure 69
1010
0000
0000
0000
0010
0000
0100
0010
0100
0000
0001
0100
0001
0000
0100
0000
,  // measure 70
1001
1000
0100
0001
0100
1000
0100
0001
,  // measure 71
0010
0000
0000
0000
0101
0000
0000
0001
0100
0000
0001
0000
0100
0000
0010
0000
,  // measure 72
1000
0000
0000
0000
1100
0000
0000
1000
0010
0000
0100
0000
0001
0000
1000
0000
,  // measure 73
0010
0000
0000
0000
0110
0000
0010
0100
0010
0000
0100
0001
0010
0000
0100
0000
,  // measure 74
0001
0010
0100
1000
0010
1000
0010
0100
,  // measure 75
2002
0000
0000
3003
;
