#TITLE:Starstruck;
#SUBTITLE:;
#ARTIST:Years & Years;
#TITLETRANSLIT:;
#SUBTITLETRANSLIT:;
#ARTISTTRANSLIT:;
#CREDIT:;
#BANNER:Starstruck.png;
#BACKGROUND:Starstruck-bg.png;
#LYRICSPATH:;
#CDTITLE:;
#MUSIC:Starstruck.mp3;
#OFFSET:-0.300;
#SAMPLESTART:59.492;
#SAMPLELENGTH:15.000;
#SELECTABLE:YES;
#BPMS:0.000=114.000;
#STOPS:;
#BGCHANGES:;

//---------------dance-single - ----------------
#NOTES:
     dance-single:
     :
     Easy:
     5:
     0.226,0.337,0.103,0.215,0.000:
0000
0000
0000
0000
,
0000
0000
0000
0000
,
0000
0000
0000
0000
,
0000
0000
0000
0000
,
0200
0310
0010
1000
,
0010
0100
0001
0100
,
0101
0000
0010
0000
,
0100
0000
0001
0000
,
0020
0130
1000
0010
,
0100
0001
0010
0001
,
1001
0000
0010
0000
,
0100
0000
0001
0000
,
0001
0001
1000
1000
,
0010
0100
0010
0020
,
0130
0010
0001
0001
,
1000
0001
1000
0020
,
1030
1000
0001
0100
,
0001
1000
0010
0200
,
0301
0001
0100
0001
,
0100
0010
0100
0110
,
2002
0003
3002
0100
,
0203
0010
0320
0100
,
0230
0001
0000
0301
,
0002
0000
1003
1000
,
2002
3000
2003
0010
,
3020
0100
0230
0010
,
0320
1000
0000
1030
,
2000
0000
3001
0001
,
0101
0001
0000
0100
,
0000
0010
0000
0100
,
0000
0001
0000
1000
,
0000
0010
0000
1000
,
0000
0001
0000
0100
,
0000
0010
0000
0100
,
0000
0001
0000
1000
,
0000
0010
0000
1001
,
0001
1000
0001
1000
0001
0000
1010
0000
,
0010
0100
0010
0100
0010
0000
0101
0000
,
1000
0001
1000
0001
1000
0000
1001
0000
,
0010
0100
0010
0100
0010
0000
0110
0000
,
0000
0100
0000
0001
,
0000
1000
0000
0010
,
0000
1000
0000
0001
,
0000
0001
0000
1000
,
2000
0000
0000
0000
,
3200
0000
0000
0000
,
0320
0000
0000
0000
,
0032
0000
0000
0000
,
0003
0000
0000
0000
;

//---------------dance-single - ----------------
#NOTES:
     dance-single:
     :
     Beginner:
     3:
     0.181,0.268,0.206,0.047,0.000:
0000
0000
0000
0000
,
0000
0000
0000
0000
,
0000
0000
0000
0000
,
0000
0000
0000
0000
,
0000
0001
0000
1000
,
0000
0001
0000
1000
,
0000
0010
0000
0100
,
0000
0010
0000
0100
,
0000
1001
0000
0100
,
0000
0010
0000
0001
,
0000
1000
0000
0001
,
0000
0001
0000
0010
,
0000
0110
0000
1000
,
0000
0001
0000
1000
,
0000
0001
0000
0100
,
0000
0010
0000
0010
,
0000
0110
0000
0010
,
0000
1000
0000
0001
,
0000
0100
0000
0010
,
0000
0100
0000
0010
,
0000
1001
1001
1001
,
0000
0010
0010
0010
,
0000
1000
1000
1000
,
0000
0001
0001
0001
,
0000
0001
0001
0001
,
0000
0100
0100
0100
,
0000
0010
0010
0010
,
0000
1001
0110
1001
,
0000
0001
0100
0001
,
0000
1000
0010
1000
,
0000
0010
0100
0010
,
0000
0100
0010
0100
,
0000
1000
0010
1000
,
0000
0001
0010
0001
,
0000
0001
0100
0001
,
0000
0100
0010
0100
,
0000
0110
0110
0110
,
0000
1001
1001
1001
,
0000
0110
0110
0110
,
0000
1001
0110
1001
,
0000
1000
0001
1000
,
0000
0001
0100
0001
,
0000
0010
0100
0010
,
0000
0100
0010
0100
,
0020
0000
0000
0030
,
0200
0000
0000
0300
,
0020
0000
0000
0030
,
0220
0000
0000
0330
;

//---------------dance-single - ----------------
#NOTES:
     dance-single:
     :
     Medium:
     7:
     0.302,0.335,0.131,0.206,0.000:
0000
0000
0000
0000
,
0000
0000
0000
0000
,
0000
0000
0000
0000
,
0000
0000
0000
0000
0000
1000
0001
1000
,
0002
1003
0010
0100
,
0010
1000
0001
0100
,
0010
0000
0000
1000
0010
1000
0000
0000
,
0000
0001
0100
0001
0000
0001
1000
0001
,
2000
3001
0100
0010
,
0100
0001
1000
0010
,
0100
0000
0000
0001
0100
0001
0000
0000
,
0000
1000
0010
1000
0000
0000
0000
0000
,
0102
0003
0100
0010
,
2010
3010
0010
0010
,
0110
0000
0010
0100
0010
0000
0100
0010
,
0100
0001
1000
1000
,
0010
0000
1000
0001
1000
0000
0001
1000
,
0001
0000
0100
0010
0001
0000
0101
0000
,
0002
0000
0000
0023
0000
0000
0230
0000
,
0000
2300
0000
0000
3001
0000
2002
3003
,
0110
0000
0000
1000
0010
1000
0001
0100
,
0001
0000
0000
1000
0010
0100
0010
1000
,
0010
0000
0000
0001
0100
1000
0100
0001
,
0100
0000
0000
1000
0100
0001
0100
1000
,
0100
0000
0000
0001
0100
0001
1000
0010
,
1000
0000
0000
0001
0100
0010
0100
0001
,
0100
0000
0000
1000
0010
0001
0010
1000
,
0010
0000
0010
0000
0010
0000
0010
0100
,
0010
1000
0010
0100
,
0010
1000
0001
1000
,
2002
0000
3003
0010
,
1000
0000
0001
0000
0100
0000
0001
1000
,
1001
0001
0100
0010
,
0100
0001
1000
0001
,
2002
0000
3003
0100
,
0001
0000
1000
0000
0010
0000
1000
0001
,
1001
0001
1000
0001
1000
0001
0000
1000
,
0001
1000
0001
1000
0000
0000
0110
0000
,
0000
1000
0100
0010
0001
0100
0000
0001
,
0010
0100
1000
0010
0000
0000
1000
0010
,
0100
0001
0100
0010
,
0100
0001
1000
0001
,
2002
0000
3003
0100
,
0001
0000
1000
0000
0010
0000
1000
0001
,
2002
0000
0000
3003
,
0020
0000
0000
0030
,
0200
0000
0000
0300
,
0220
0000
0000
0330
;

//---------------dance-single - ----------------
#NOTES:
     dance-single:
     :
     Hard:
     12:
     0.389,0.472,0.243,0.290,0.192: // measure 1
0000
0000
0000
0000
,  // measure 2
0000
0000
0000
0000
,  // measure 3
0000
0000
0000
0000
,  // measure 4
0000
0000
0000
0000
0000
1000
0100
0010
,  // measure 5
0002
0000
0103
0000
1000
0010
0001
0010
,  // measure 6
2010
3000
0210
0300
,  // measure 7
1010
0000
0000
1000
1000
1000
0000
0000
,  // measure 8
0000
0001
0001
0001
0000
0001
0010
0100
,  // measure 9
2000
0010
3010
0000
1010
0000
0010
0100
,  // measure 10
0010
0100
0102
0000
0003
0000
2010
0000
,  // measure 11
3000
0000
0000
1000
0010
1000
0000
0000
,  // measure 12
0000
0001
0010
0100
0000
0000
1000
0000
,  // measure 13
1010
0000
0000
0000
1000
0010
0100
0000
0010
0000
0000
0000
0110
0000
0000
0000
,  // measure 14
0010
0000
0001
0000
0010
0000
0202
0300
,  // measure 15
0003
0000
0000
0000
0001
0100
0010
0000
1000
0000
0000
0000
1000
0010
0100
0000
,  // measure 16
0010
0100
0010
0100
0001
0010
0100
1000
,  // measure 17
1001
0000
0000
0000
1000
0010
0100
0010
1000
0000
0000
0000
0001
0100
0010
0000
,  // measure 18
0100
0000
0010
0100
0010
0000
0100
0000
,  // measure 19
0202
0000
0303
0220
0000
0330
2020
0000
,  // measure 20
3030
2002
0000
0000
0000
3003
1001
0010
,  // measure 21
1002
0000
0000
0000
0000
0000
0003
0100
0001
0000
1000
0000
0010
0000
0100
0000
,  // measure 22
1020
0000
0000
0000
0000
0000
0030
0100
0010
0000
1000
0000
0100
0000
0010
0000
,  // measure 23
0102
0000
0000
0000
0000
0000
0003
0100
0001
0000
0001
0000
0100
0000
0010
0000
,  // measure 24
0210
0000
0000
0000
0000
0000
0300
0010
0100
0000
1000
0000
0100
0000
0010
0000
,  // measure 25
1002
0000
0000
0000
0000
0000
0003
1000
0001
0000
0001
0000
0100
0000
0001
0000
,  // measure 26
2001
0000
0000
0000
0000
0000
3000
0010
1000
0000
0001
0000
0100
0000
0010
0000
,  // measure 27
0201
0000
0000
0000
0000
0000
0300
0010
0100
0000
0001
0000
0010
0000
0100
0000
,  // measure 28
1000
0000
0010
0000
1000
0000
0010
0000
1000
0000
0001
0000
0100
0001
0100
0010
,  // measure 29
1000
0000
1000
0000
0000
0010
0000
0000
0100
0000
0000
0001
0000
0000
1000
0000
,  // measure 30
0000
1000
0000
0000
1000
0000
0000
0100
0000
0000
0010
0000
0000
0001
0000
0000
,  // measure 31
1001
0001
0100
0001
,  // measure 32
0100
0000
0010
0000
0100
0000
0010
1000
,  // measure 33
0001
0000
0001
0000
0000
0100
0000
0000
0010
0000
0000
1000
0000
0000
0001
0000
,  // measure 34
0000
0001
0000
0000
0001
0000
0000
0010
0000
0000
0100
0000
0000
1000
0000
0000
,  // measure 35
1001
1000
0010
1000
,  // measure 36
0010
0000
0100
0000
0010
0000
0100
0001
,  // measure 37
1000
0000
0010
0000
1000
0000
0010
0000
1000
0010
1000
0010
0000
0000
0100
0000
,  // measure 38
0001
0000
0100
0000
0001
0100
0001
0100
0000
0000
0000
0000
0110
0000
0000
0000
,  // measure 39
0001
0000
0010
0000
0100
0000
1000
0000
0010
1000
0001
0100
0000
0000
1000
0000
,  // measure 40
0100
0000
0010
0000
0001
0100
0010
1000
0000
0010
0000
1000
0000
0000
0000
0000
,  // measure 41
0000
0000
0010
0000
0000
0001
0000
0000
1000
0000
0000
0100
0000
0000
0010
0000
,  // measure 42
0000
0010
0000
0000
0010
0000
0000
1000
0000
0000
0001
0000
0000
0100
0000
0000
,  // measure 43
0110
0100
0010
0100
,  // measure 44
0010
0001
1000
0001
,  // measure 45
0002
0000
0000
0023
,  // measure 46
0000
0000
0000
0000
0000
0000
0000
0000
0230
0000
0000
2300
0000
0000
3200
0000
,  // measure 47
0320
0000
0000
0032
,  // measure 48
2000
0000
0000
0000
,  // measure 49
3003
0000
0000
0000
;
