#TITLE:Star (Voice English Version);
#SUBTITLE:;
#ARTIST:LOONA;
#TITLETRANSLIT:;
#SUBTITLETRANSLIT:;
#ARTISTTRANSLIT:;
#CREDIT:;
#BANNER:Star (Voice English Version).png;
#BACKGROUND:Star (Voice English Version)-bg.png;
#LYRICSPATH:;
#CDTITLE:;
#MUSIC:Star (Voice English Version).mp3;
#OFFSET:-0.020;
#SAMPLESTART:48.640;
#SAMPLELENGTH:15.000;
#SELECTABLE:YES;
#BPMS:0.000=158.000;
#STOPS:;
#BGCHANGES:-0.220=Star (Voice English Version).avi=1.000=0=0=0,
99999=-nosongbg-=1.000=0=0=0 // don't automatically add -songbackground-
;

//---------------dance-single - ----------------
#NOTES:
     dance-single:
     :
     Beginner:
     3:
     0.220,0.280,0.050,0.057,0.000:
0000
0000
0000
0000
,
0000
0000
0000
0000
,
0000
0000
0000
0000
,
0000
0000
0000
0000
,
0000
1000
0000
0001
,
0000
0100
0000
0001
,
0000
1000
0000
1000
,
2000
0000
0000
3000
,
0000
0010
0000
0100
,
0000
0010
0000
1000
,
0000
0001
0000
0100
,
0000
0001
0000
1000
,
0000
0010
0000
0100
,
0000
0010
0000
1000
,
0000
0010
0000
1001
,
0110
1001
0110
0000
,
0000
0010
0000
0100
,
0000
0001
0000
0100
,
0000
0010
0000
1000
,
0000
0001
0000
0100
,
0000
0001
0000
0010
,
0000
0100
0000
1000
,
0000
0001
0000
0001
,
0000
1000
0000
0010
,
0000
1000
0000
1000
,
0000
0001
0000
0001
,
0000
0100
0000
0100
,
0000
0010
0000
0010
,
0000
0100
0000
0001
,
0000
1000
0000
0010
,
0000
1000
0000
2002
,
3003
0000
0010
0100
,
0110
0000
0000
0100
,
0010
0100
0000
0001
,
1000
0001
0000
1000
,
0002
0000
0003
1000
,
0001
1000
0000
0001
,
0010
0001
0000
1000
,
0010
1000
0000
0001
,
0100
0001
0000
0100
,
0010
0100
0000
0010
,
1000
0010
0000
0010
,
0100
0010
0000
1000
,
2000
0000
3000
0010
,
1000
0010
0000
0100
,
0001
0100
0000
0010
,
0001
0010
0000
0100
,
1000
0100
0000
0000
,
0000
0010
0010
0010
,
0000
0100
0100
0100
,
0000
0001
0001
0001
,
0000
0010
0010
0010
,
0000
1000
1000
1000
,
0000
0100
0100
0100
,
0000
1000
0000
0010
,
0000
1000
0000
0001
,
0000
1000
1000
1000
,
0000
0001
0001
0001
,
0000
0010
0010
0010
,
0000
1000
1000
1000
,
0000
0100
0100
0100
,
0000
0001
0001
0001
,
0000
0100
0000
1000
,
0000
0100
0000
0010
,
0000
1000
0000
0010
,
0000
0100
0000
0001
,
0000
0001
0000
1000
,
0000
0010
0000
1000
,
0000
0010
0000
0100
,
0000
0001
0000
0001
,
0002
0000
0003
0000
,
2000
0000
3000
0000
,
0110
0000
0000
0010
,
0100
0010
0000
1000
,
0001
1000
0000
0001
,
2000
0000
3000
0001
,
1000
0001
0000
1000
,
0100
1000
0000
0001
,
0100
0001
0000
1000
,
0010
1000
0000
0000
,
0000
0100
0100
0100
,
0000
0010
0010
0010
,
0000
1000
1000
1000
,
0000
0100
0100
0100
,
0000
0001
0001
0001
,
0000
0010
0010
0010
,
0000
0001
0000
0100
,
0100
0100
0000
0000
;

//---------------dance-single - ----------------
#NOTES:
     dance-single:
     :
     Easy:
     5:
     0.262,0.312,0.079,0.079,0.000: // measure 1
0000
0000
0000
0000
,  // measure 2
0000
0000
0000
0000
,  // measure 3
0000
0000
0000
0000
,  // measure 4
0000
0000
0000
0000
,  // measure 5
2000
0000
0000
3000
,  // measure 6
0020
0000
0000
0030
,  // measure 7
2000
0000
0000
0000
,  // measure 8
3000
0000
0000
0000
,  // measure 9
1000
0010
0100
0000
,  // measure 10
0100
0010
0001
0000
,  // measure 11
0001
1000
0010
0000
,  // measure 12
0100
0001
1000
0000
,  // measure 13
0001
0010
0001
0000
,  // measure 14
0100
0010
1000
0000
,  // measure 15
0000
0100
0000
1001
,  // measure 16
0110
1001
0110
0000
,  // measure 17
0001
0100
0010
0000
,  // measure 18
0010
0100
1000
0000
,  // measure 19
1000
0001
0100
0000
,  // measure 20
0010
1000
0001
0000
,  // measure 21
1000
0100
1000
0000
,  // measure 22
0010
0100
0001
0000
,  // measure 23
0000
0010
0000
1000
,  // measure 24
0000
0010
0000
0000
,  // measure 25
0001
0100
0001
0000
,  // measure 26
1000
0001
1000
0000
,  // measure 27
0001
1000
0010
0000
,  // measure 28
0100
0010
0001
0000
,  // measure 29
1000
0001
1000
0000
,  // measure 30
0010
1000
0001
0000
,  // measure 31
2000
0000
3002
0000
,  // measure 32
0203
0000
0310
0100
,  // measure 33
0110
0010
0000
1000
,  // measure 34
0010
0000
0100
0001
,  // measure 35
0100
0001
0000
0001
,  // measure 36
0002
0000
0003
0000
,  // measure 37
1000
0010
1000
0001
,  // measure 38
0100
0001
1000
0000
,  // measure 39
0010
0001
0101
0000
,  // measure 40
1000
0001
1001
0000
,  // measure 41
0001
1000
0000
0100
,  // measure 42
1000
0000
0001
0010
,  // measure 43
0001
0010
0000
0010
,  // measure 44
0020
0000
0030
0000
,  // measure 45
0100
1000
0100
0010
,  // measure 46
0001
0010
0100
0000
,  // measure 47
1000
0010
0011
0000
,  // measure 48
0100
0010
0110
0000
,  // measure 49
0010
0010
0010
0000
,  // measure 50
1000
0010
1000
0001
,  // measure 51
0001
0001
0001
0000
,  // measure 52
1000
0001
0100
0010
,  // measure 53
1000
1000
1000
0000
,  // measure 54
1000
0010
0001
0100
,  // measure 55
0010
0010
0010
0000
,  // measure 56
0100
0100
0100
0000
,  // measure 57
1000
1000
1000
0000
,  // measure 58
0100
1000
0100
0010
,  // measure 59
0010
0010
0010
0000
,  // measure 60
0100
0010
0001
1000
,  // measure 61
0100
0100
0100
0000
,  // measure 62
0100
1000
0010
0001
,  // measure 63
1000
1000
1000
0000
,  // measure 64
0001
0001
0001
0000
,  // measure 65
0001
0000
0100
0000
,  // measure 66
0001
0000
1000
0000
,  // measure 67
0010
0000
1000
0000
,  // measure 68
0010
0000
0100
0000
,  // measure 69
0001
0000
1000
0000
,  // measure 70
0001
0000
0100
0000
,  // measure 71
0020
0000
0000
0000
,  // measure 72
0230
0000
0300
0010
,  // measure 73
1000
0001
0000
0010
,  // measure 74
0001
0000
1000
0100
,  // measure 75
1000
0100
0000
0100
,  // measure 76
0200
0000
0300
0000
,  // measure 77
0010
0001
0010
0100
,  // measure 78
1000
0100
0010
0000
,  // measure 79
0001
0100
1100
0000
,  // measure 80
0010
0100
0110
0000
,  // measure 81
0100
0100
0100
0000
,  // measure 82
0001
0100
0001
1000
,  // measure 83
1000
1000
1000
0000
,  // measure 84
0001
1000
0010
0100
,  // measure 85
0001
0001
0001
0000
,  // measure 86
0001
0100
1000
0010
,  // measure 87
0100
0100
0100
0000
,  // measure 88
0010
0010
0010
0000
;

//---------------dance-single - ----------------
#NOTES:
     dance-single:
     :
     Medium:
     7:
     0.349,0.406,0.029,0.129,0.000:
0000
0000
0000
0000
,
0000
0000
0000
0000
,
0000
0000
0000
0000
,
0000
0000
0000
0000
,
0001
0100
0000
0100
,
0001
1000
0000
1000
,
0010
0010
0000
1000
,
1000
0000
0000
0000
,
0010
0000
0100
0010
0100
0000
0001
0000
,
1000
0000
0010
1000
0001
0000
0100
0000
,
0001
0000
0100
0001
0100
0000
0010
0000
,
0100
0000
0001
1000
0010
0000
0100
0000
,
0010
0000
0100
0010
0100
0000
0001
0000
,
1000
0000
1000
0100
0010
0000
0100
0000
,
0001
0001
0100
0101
,
1100
1010
0011
0000
,
0100
0000
0010
0100
0010
0000
1000
0000
,
0001
0000
0100
0001
1000
0000
0010
0000
,
1000
0000
0010
1000
0010
0000
0100
0000
,
0010
0000
1000
0001
0100
0000
0010
0000
,
0100
0000
0010
0100
0010
0000
1000
0000
,
0001
0000
0001
0010
0100
0000
0010
0000
,
1000
1000
0010
1000
,
0001
0001
1000
0010
,
0100
0000
0001
0100
0001
0000
1000
0010
,
1000
0000
0100
0010
0001
0000
1000
0100
,
0010
0000
0010
0100
0001
0000
1000
0010
,
1000
1000
0001
0100
,
0010
0000
1000
0010
1000
0000
0001
0100
,
0001
0000
0010
0100
1000
0000
0001
0010
,
0100
0000
0100
0010
1000
0000
0001
0100
,
1000
0000
0000
0000
0001
0010
0100
1000
,
0010
0100
0000
0100
,
0010
0000
1000
0010
,
1000
0001
0000
0100
,
0200
0000
0300
0000
,
1000
0001
1000
0001
,
0100
0001
1000
0000
,
0010
1000
0001
0000
,
0100
0001
1000
0000
,
1000
0001
0000
0001
,
1000
0000
0100
1000
,
0100
0010
0000
0001
,
0002
0000
0003
0000
,
0100
0010
0100
0010
,
0001
0010
0100
0000
,
1000
0100
0010
0000
,
0001
0010
0100
0000
,
0001
0010
0001
0000
0001
0000
0001
0000
,
1000
0010
0100
0001
,
0001
0100
1000
0000
1000
0000
0010
0000
,
0100
0001
1000
0010
,
0100
0010
1000
0000
0010
0000
0100
0000
,
0001
1000
0010
0001
,
0010
1000
0010
0100
,
0001
0100
0001
1000
,
0010
1000
0010
0000
0010
0000
0010
0000
,
0100
1000
0001
0010
,
0010
0001
0100
0000
0100
0000
1000
0000
,
0001
0010
0100
1000
,
0001
1000
0100
0000
1000
0000
0001
0000
,
0010
0100
1000
0010
,
1000
0100
1000
0001
,
0010
0001
0010
0100
,
0200
0000
0302
0000
,
2003
0000
3002
0000
,
2003
0000
3200
0000
,
0320
0000
0032
0000
,
0023
0000
0230
0000
,
2300
0000
3002
0000
,
2003
0000
3002
0000
,
2003
0000
0001
0001
,
3001
1000
0000
1000
,
0001
0000
0010
0001
,
0010
0100
0000
1000
,
2000
0000
3000
0000
,
0010
0100
0010
0100
,
1000
0100
0010
0000
,
0001
0010
0100
0000
,
1000
0100
0010
0000
,
1000
0100
1000
0000
1000
0000
1000
0000
,
0001
0100
0010
1000
,
1000
0010
0001
0000
0001
0000
0100
0000
,
0010
1000
0001
0100
,
0010
0100
0001
0000
0100
0000
0010
0000
,
1000
0001
0100
1000
,
0100
0001
0100
0010
,
1000
0010
1000
0000
;

//---------------dance-single - ----------------
#NOTES:
     dance-single:
     :
     Hard:
     12:
     0.426,0.405,0.193,0.064,0.000:
0000
0000
0000
0000
,
0000
0000
0000
0000
,
0000
0000
0000
0000
,
0000
0000
0000
0000
,
0002
1000
0000
1003
,
2000
0010
0000
3010
,
0020
0100
0000
0130
,
0110
0000
0000
0000
0000
0000
0000
0010
,
0000
0010
0000
0100
0010
0000
0000
0001
,
0000
1000
0000
0001
1000
0000
0000
1000
,
0000
0010
0000
1000
0001
0000
0000
0100
,
0000
0010
0000
0100
0001
0100
0001
0010
,
0000
1000
0000
0010
0001
0000
0000
0100
,
0000
0010
0000
1000
0010
1000
0100
0010
,
0000
0100
0010
0001
0000
0001
1000
0100
,
1010
0000
0001
0000
0101
0000
0000
0010
,
0000
0100
0000
0010
0100
0000
0000
1000
,
0000
0001
0000
1000
0001
0000
0000
0001
,
0000
0100
0000
0001
1000
0000
0000
0010
,
0000
0100
0000
0010
1000
0010
1000
0100
,
0000
0001
0000
0100
1000
0000
0100
0010
,
0000
0100
0000
0001
0100
0001
0010
0100
,
0000
0010
0100
1000
0000
1000
0001
0010
,
0000
0000
0100
0000
0010
0000
1000
0001
,
0000
0001
1000
0000
1001
0000
0010
0000
,
1001
0000
0100
0000
0001
0000
0100
0001
,
0000
0001
0100
0000
0101
0000
0010
0000
,
1001
0000
0010
0000
0100
0000
0001
1000
,
0000
1000
0001
0000
1001
0000
0100
0000
,
1001
0000
0010
0000
1000
0000
0010
1000
,
0000
0000
0000
0010
0000
0000
0000
0001
,
2000
0000
0000
0000
3001
1000
0010
1000
,
0001
0101
1000
0010
,
1010
0000
0000
0100
0001
0100
1000
0100
,
0001
0011
0000
1000
,
2000
0000
0000
0000
3010
0000
0000
1000
,
0000
0010
0000
0100
0000
0001
0000
0010
,
0000
0100
0000
1000
0000
0000
0000
0010
,
0000
0100
0000
0101
0000
0001
1000
0010
,
0000
0100
0000
1100
0000
0100
1000
0100
,
0010
0011
0100
1000
,
1100
0000
0000
0001
0010
0001
0100
0001
,
0010
1010
0000
0100
,
0200
0000
0000
0000
1300
0000
0000
0100
,
0000
1000
0000
0001
0000
0010
0000
1000
,
0000
0001
0000
0100
0000
0000
0000
1000
,
0000
0001
0000
0011
0000
0010
0100
1000
,
0000
0001
0000
0101
0000
0001
0100
0001
,
1000
0100
1000
0010
0100
0000
0001
0000
,
0100
0001
1000
0010
,
0001
0010
0100
1000
0010
0000
1000
0000
,
0001
0010
1000
0010
,
0001
1000
0010
1000
0001
0000
0010
0000
,
0100
0000
1000
0000
0010
0000
1000
0010
,
0000
1000
0000
0010
0000
0100
0010
0100
,
0000
0010
0000
0101
0000
0010
0001
0010
,
0100
0001
0100
1000
0001
0000
0010
0000
,
0001
0010
0100
1000
,
0010
1000
0001
0100
1000
0000
0100
0000
,
0010
1000
0100
1000
,
0010
0100
1000
0100
0010
0000
1000
0000
,
0001
0000
0100
0000
1000
0000
0100
1000
,
0000
0100
0000
1000
0000
0001
1000
0001
,
0000
1000
0000
0011
0000
1000
0001
1000
,
0000
0001
1000
0010
0000
1000
0100
0010
,
0000
0100
0000
0001
0000
0001
0010
0001
,
0000
0100
0010
1000
0000
0001
0010
0100
,
0000
0010
0000
1000
0000
0010
0000
1000
,
0000
0010
0000
1000
0001
0000
0100
0001
,
0000
1000
0000
0001
0010
0100
1000
0020
,
0000
0000
0000
0030
1000
0010
1000
0001
,
2000
0000
0000
0000
3001
1000
0001
0010
,
0100
1100
0010
0001
,
0011
0000
0000
1000
0100
1000
0010
1000
,
0100
0101
0000
0010
,
0020
0000
0000
0000
0031
0000
0000
0010
,
0000
0001
0000
1000
0000
0100
0000
0001
,
0000
1000
0000
0010
0000
0000
0000
0001
,
0000
1000
0000
1100
0000
0100
0010
0001
,
0000
1000
0000
1010
0000
1000
0010
1000
,
0001
0010
0001
0100
0010
0000
1000
0000
,
0010
1000
0001
0100
,
1000
0100
0010
0001
0100
0000
0001
0000
,
1000
0100
0001
0100
,
1000
0001
0100
0001
1000
0000
0100
0000
,
0010
0000
0001
0000
0100
0000
0001
0100
,
0000
0001
0000
0100
0000
0010
0100
0010
,
0000
0100
0000
1010
0000
0000
0000
0000
;
