#TITLE:Sonatine;
#SUBTITLE:;
#ARTIST:LOONA 1/3;
#TITLETRANSLIT:;
#SUBTITLETRANSLIT:;
#ARTISTTRANSLIT:;
#CREDIT:;
#BANNER:Sonatine.png;
#BACKGROUND:Sonatine-bg.png;
#LYRICSPATH:;
#CDTITLE:;
#MUSIC:Sonatine.mp3;
#OFFSET:0.380;
#SAMPLESTART:53.740;
#SAMPLELENGTH:15.000;
#SELECTABLE:YES;
#BPMS:0.000=128.000;
#STOPS:;
#BGCHANGES:0.480=Sonatine.avi=1.000=0=0=0,
99999=-nosongbg-=1.000=0=0=0 // don't automatically add -songbackground-
;

//---------------dance-single - ----------------
#NOTES:
     dance-single:
     :
     Beginner:
     1:
     0.137,0.250,0.067,0.067,0.000:
0000
0000
0000
0000
,
1001
0000
0000
0000
,
0010
0000
0000
0000
,
1000
0000
0000
0000
,
0010
0000
0000
0000
,
0001
0000
0000
0000
,
0100
0000
0000
0000
,
0002
0000
0000
0000
,
0000
0000
0003
0000
,
0001
0000
0000
0000
,
0100
0000
0000
0000
,
0010
0000
0000
0000
,
0001
0000
0000
0000
,
1000
0000
0000
0000
,
0100
0000
0000
0000
,
1000
0000
0000
0000
,
0010
0000
0000
0000
,
1000
0000
0010
0000
,
0000
0000
0100
0000
,
0001
0000
1000
0000
,
0000
0000
0010
0000
,
0100
0000
0001
0000
,
0000
0000
1000
0000
,
1000
0000
0010
0000
,
0000
0100
0100
0100
,
0000
0000
1000
0000
,
0010
0000
0000
0000
,
1000
0000
0010
0000
,
1000
0000
0000
0000
,
1001
0000
0100
0000
,
0000
0000
0010
0010
,
0010
0000
1000
0000
,
0010
0000
0001
0001
,
0001
0000
1000
0000
,
0010
0000
0100
0100
,
0100
0000
1000
0000
,
0010
0000
1000
0000
,
1001
0000
0010
0000
,
1000
0000
0001
0000
,
0100
0000
0001
0000
,
1000
0000
0100
0000
,
1000
0000
0010
0000
,
0100
0000
1000
0000
,
0010
0000
0100
0000
,
0001
0000
0100
0000
,
0010
0000
1000
0000
,
2002
0000
3003
0000
,
0010
0000
0100
0000
,
0100
0000
0010
0000
,
2000
0000
3000
0000
,
0002
0000
0003
0000
,
1001
0110
2002
0000
,
3003
0000
0010
0000
,
0000
0000
0100
0100
,
0100
0000
0001
0000
,
0100
0000
1000
1000
,
1000
0000
0001
0000
,
0100
0000
0010
0010
,
0010
0000
0001
0000
,
0100
0000
0001
0000
,
1001
0000
0010
0000
,
1000
0000
0001
0000
,
0100
0000
0001
0000
,
1000
0000
0010
0000
,
1000
0000
0010
0000
,
0100
0000
0001
0000
,
2002
0000
0000
0000
,
3003
0000
0000
0000
;

//---------------dance-single - ----------------
#NOTES:
     dance-single:
     :
     Easy:
     3:
     0.201,0.275,0.067,0.194,0.000: // measure 1
0000
0000
0000
0000
,  // measure 2
0001
0000
0100
0000
,  // measure 3
0010
0000
1000
0000
,  // measure 4
0001
0000
1000
0000
,  // measure 5
0010
0000
1000
0000
,  // measure 6
0100
0000
0001
0000
,  // measure 7
0100
0000
0001
0000
,  // measure 8
1000
0000
0010
0000
,  // measure 9
0002
0000
0000
0003
,  // measure 10
0001
0100
0010
0000
,  // measure 11
0100
0001
1000
0000
,  // measure 12
0100
0010
1000
0000
,  // measure 13
1000
1000
1000
0000
,  // measure 14
0001
0100
0001
0000
,  // measure 15
1000
0010
0001
0000
,  // measure 16
0001
0100
1000
0000
,  // measure 17
1001
0000
0020
0000
,  // measure 18
0130
0000
0000
0000
0010
0000
0000
1000
,  // measure 19
0000
0000
0010
0001
,  // measure 20
1000
0000
0000
0000
1000
0000
0000
0010
,  // measure 21
0000
0000
0110
1001
,  // measure 22
0110
0000
0000
0000
0010
0000
0000
0001
,  // measure 23
0000
0000
0100
0010
,  // measure 24
0001
0000
0000
0000
0100
0000
0000
1000
,  // measure 25
0000
0000
0010
1000
,  // measure 26
0001
0000
0100
0000
,  // measure 27
0001
0000
1000
0000
,  // measure 28
0010
0000
1000
0100
,  // measure 29
0010
0001
2002
0000
,  // measure 30
3003
0000
0000
0000
1000
0000
0000
0010
,  // measure 31
0000
0000
0100
0010
,  // measure 32
1000
0000
0000
0000
0010
0000
0000
0100
,  // measure 33
0000
0000
0010
0100
,  // measure 34
0001
0000
0000
0000
0100
0000
0000
0001
,  // measure 35
0000
0000
0010
0001
,  // measure 36
0100
0000
0000
0000
0001
0000
0000
0010
,  // measure 37
0000
0000
0001
0010
,  // measure 38
2000
3000
0020
0030
,  // measure 39
2000
3000
0002
0003
,  // measure 40
0200
0300
0002
0003
,  // measure 41
0020
0030
0002
0003
,  // measure 42
2002
3003
0010
1000
,  // measure 43
0010
0000
0100
0100
,  // measure 44
0010
0000
1000
0010
,  // measure 45
0001
0000
0001
0100
,  // measure 46
0001
0000
1000
0001
,  // measure 47
1000
0000
0000
0000
,  // measure 48
0110
0000
0000
0000
,  // measure 49
0001
0000
0000
0000
,  // measure 50
0100
0000
0000
0000
,  // measure 51
0020
0000
0000
0030
,  // measure 52
0001
0110
1000
0000
,  // measure 53
0010
0000
0000
0000
0001
0000
0000
0100
,  // measure 54
0000
0000
0010
0100
,  // measure 55
0001
0000
0000
0000
0100
0000
0000
0010
,  // measure 56
0000
0000
0100
0010
,  // measure 57
1000
0000
0000
0000
0010
0000
0000
1000
,  // measure 58
0000
0000
0100
1000
,  // measure 59
0010
0000
0000
0000
1000
0000
0000
0100
,  // measure 60
0000
0000
1000
0100
,  // measure 61
0002
0003
0200
0300
,  // measure 62
0002
0003
2000
3000
,  // measure 63
0020
0030
2000
3000
,  // measure 64
0200
0300
2000
3000
,  // measure 65
2002
3003
0100
0001
,  // measure 66
0100
0000
0010
1000
,  // measure 67
0020
0000
0000
0000
,  // measure 68
0030
0000
0000
0000
;

//---------------dance-single - ----------------
#NOTES:
     dance-single:
     :
     Medium:
     6:
     0.268,0.325,0.067,0.202,0.000:
0000
0000
0000
0000
,
0110
0010
1000
0000
,
0100
0010
0001
0000
,
0002
0000
0003
0000
,
0020
0000
0030
0000
,
1000
0010
0100
0000
,
0100
0010
0001
0000
,
2000
0000
3000
0000
,
0002
0000
0003
0000
,
1000
0100
0010
0001
0000
0000
0000
0000
,
0001
0010
0100
1000
0000
0000
0000
0000
,
0100
0010
0100
0001
0000
0000
0000
0000
,
0001
0100
1000
0100
0001
0000
1000
0000
,
1000
0001
0100
0001
0000
0000
0000
0000
,
0100
0010
1000
0010
1000
0000
0001
0000
,
0100
0010
1000
0001
0000
0000
0100
0001
,
0100
0000
0002
0000
,
1003
0000
0000
0000
0010
0000
0000
1001
,
0000
0000
0100
0010
,
1000
0000
0000
0000
0010
0000
0000
0110
,
0000
0000
0001
0110
,
1000
0000
0000
0000
0010
0000
0000
0101
,
0000
0000
0010
0010
,
1000
0000
0000
0000
1000
0000
0000
1010
,
0000
1000
0100
0010
,
0001
0000
0100
0000
,
0001
2000
3002
2003
,
3001
0000
0100
0010
,
0010
2000
0002
0000
,
3003
0000
0100
0000
0010
0000
1000
0001
,
0000
1000
0000
0010
0000
0100
0000
0010
,
2000
0000
3000
0000
1000
0100
0010
0001
,
0000
0100
0000
0001
0100
0000
1000
0000
,
0001
0000
0100
0000
1000
0010
0100
0001
,
0000
0100
0000
0010
0000
1000
0000
2000
,
0000
0000
0000
0000
3000
0000
0000
0010
,
0000
0010
0000
0001
0000
1000
0000
0000
,
0020
0000
0030
0000
,
2000
0000
3000
0000
,
0002
0000
0000
0000
0003
0000
1000
0001
,
0000
0100
0000
0010
0000
1000
0000
0010
,
1000
0001
0000
0010
1000
0010
1000
0001
,
0000
0100
0001
1000
0000
0010
0000
0000
,
1010
0000
1000
0020
,
0030
0100
0010
0200
,
0300
0001
1000
0002
,
0003
0001
1000
0001
,
1001
0000
0000
0100
0000
0010
0000
0000
,
1000
0000
0000
1000
0000
0001
0000
0000
,
0020
0000
0030
0000
0100
0000
0010
2000
,
0000
0000
0000
0000
,
3001
0010
0100
1000
,
1000
0000
0010
0000
0100
0000
0001
1000
,
0000
0001
0000
0100
0000
0010
0000
0100
,
0002
0000
0003
0000
0001
0010
0100
1000
,
0000
0010
0000
1000
0010
0000
0001
0000
,
1000
0000
0010
0000
0001
0100
0010
1000
,
0000
0010
0000
0100
0000
0001
0000
0002
,
0000
0000
0000
0000
0003
0000
0000
0100
,
0000
0100
0000
1000
0000
0001
0000
0000
,
0200
0000
0300
0000
,
0002
0000
0003
0000
,
2000
0000
0000
0000
3000
0000
0001
1000
,
0000
0010
0000
0100
0000
0001
0000
0100
,
0001
1000
0000
0100
0001
0100
0001
1000
,
0000
0010
1000
0001
0000
0100
0000
0202
,
0000
0000
0000
0000
,
0303
0000
0000
0000
;

//---------------dance-single - ----------------
#NOTES:
     dance-single:
     :
     Hard:
     10:
     0.354,0.350,0.037,0.112,0.060:
0000
0000
0000
0000
0000
0000
0000
0010
,
1000
0010
1000
0001
0000
0100
0010
1000
,
0000
0001
0100
0010
0000
0200
0000
0000
,
0000
0300
0000
0000
0000
0001
0010
0200
,
0000
0000
0000
2300
0000
0000
0000
3010
,
0100
0001
1000
0010
0000
0001
1000
0010
,
0000
0100
0001
1000
0000
0020
0000
0000
,
1000
1030
0010
0100
0001
0010
0001
0100
,
0020
0000
0000
0000
,
1030
0010
0001
0010
0000
1000
0000
0000
,
0001
0100
0010
1000
0000
0010
0000
0000
,
0100
0000
0010
0000
1000
0010
1000
0010
0000
0000
0100
0000
0010
0000
0001
0000
,
0000
1000
0100
0010
0001
0000
0100
0000
,
0010
1000
0001
0100
0000
0100
0000
0000
,
0100
0001
1000
0100
0000
0010
0000
1000
,
0000
0000
0000
1000
0010
0001
0010
0100
,
0001
0000
0000
0000
0001
0010
0100
1000
,
0010
0001
0010
0001
0000
1000
0000
0000
,
0010
1000
0010
0001
0000
0100
0000
0000
,
0100
0010
1000
0100
0000
0010
0000
0001
,
0000
0000
0100
0010
0100
0000
0001
0000
,
1000
0000
0000
0000
0100
1000
0001
0100
,
0000
0000
0000
0010
0000
0010
0000
0100
,
0010
0000
0000
0100
0000
0000
0001
0000
1000
0000
0000
1000
0000
0000
0010
0000
,
0100
0000
0001
0000
0010
1000
0100
1000
,
0000
0010
0000
1000
0000
0001
0000
0002
,
0000
0000
0000
0000
0003
1000
0100
0010
,
0000
0100
0000
0010
0000
1000
0000
0002
,
0000
0000
0000
0000
2000
0000
3003
0010
,
1000
0010
0100
0010
0000
1000
0010
0001
,
0000
0001
0100
1000
0000
0010
0000
0000
,
0001
0010
1000
0100
0000
0010
0100
0001
,
0000
1000
0000
0001
0000
0000
0000
0100
,
0010
0000
0000
0000
1000
0000
0000
0010
1000
0000
0010
0000
0100
0000
0001
0000
,
0000
0010
0000
0100
0000
1000
0000
0020
,
0000
0000
0000
0000
0030
0100
0010
0001
,
0000
0001
0010
0100
0000
0010
0000
0000
,
1000
0000
0000
1000
0000
0000
1000
0000
0100
0000
0000
0100
0000
0000
0100
0000
,
0010
0000
0000
0010
0000
0000
0010
0000
0000
0000
0000
0000
0000
0000
0000
0000
,
0001
0000
0000
0001
0000
0000
0100
0000
0010
0000
0000
1000
0000
0000
0010
0000
,
0100
0000
0100
0010
0000
1000
0000
0001
,
0000
0000
0000
1000
0010
0001
0010
1000
,
0000
0100
0010
0100
0000
0010
0000
0000
,
1000
0100
0010
0001
0000
0100
0000
0001
,
0000
0001
0100
1000
0000
0010
0000
0100
,
0000
0100
0010
0100
0000
0010
0100
0020
,
0000
0000
0000
2030
0000
0000
0000
3000
,
0001
0010
1000
0010
0000
1000
0000
1000
,
0100
0010
0001
1000
0000
0001
0100
0001
,
0000
0000
0000
1000
0010
0001
0100
0020
,
0000
0000
0000
0030
,
0110
0101
1100
1010
,
0001
0100
0010
0100
0000
0001
0100
1000
,
0000
1000
0010
0001
0000
0100
0000
0000
,
1000
0100
0001
0010
0000
0100
0010
1000
,
0000
0001
0000
1000
0000
0000
0000
0010
,
0100
0000
0000
0000
0001
0000
0000
0100
0001
0000
0100
0000
0010
0000
1000
0000
,
0000
0100
0000
0010
0000
0001
0000
0200
,
0000
0000
0000
0000
0300
0010
0100
1000
,
0000
1000
0100
0010
0000
0100
0000
0000
,
0001
0000
0000
0001
0000
0000
0001
0000
0010
0000
0000
0010
0000
0000
0010
0000
,
0100
0000
0000
0100
0000
0000
0100
0000
0000
0000
0000
0000
0000
0000
0000
0000
,
1000
0000
0000
1000
0000
0000
0010
0000
0100
0000
0000
0001
0000
0000
0100
0000
,
0010
0000
0010
0100
0000
0001
0000
1000
,
0000
0000
0000
0001
0100
1000
0100
0001
,
0000
0010
0100
0010
0000
0100
0000
2002
,
0000
0000
0000
0000
,
3003
0000
0000
0000
;
