#TITLE:So What;
#SUBTITLE:;
#ARTIST:LOONA;
#TITLETRANSLIT:;
#SUBTITLETRANSLIT:;
#ARTISTTRANSLIT:;
#CREDIT:;
#BANNER:So What.png;
#BACKGROUND:So What-bg.png;
#LYRICSPATH:;
#CDTITLE:;
#MUSIC:So What.mp3;
#OFFSET:-0.460;
#SAMPLESTART:40.460;
#SAMPLELENGTH:15.000;
#SELECTABLE:YES;
#BPMS:0.000=125.000;
#STOPS:;
#BGCHANGES:-1.060=So What.avi=1.000=0=0=0,
99999=-nosongbg-=1.000=0=0=0 // don't automatically add -songbackground-
;

//---------------dance-single - ----------------
#NOTES:
     dance-single:
     :
     Hard:
     14:
     0.451,0.483,0.073,0.124,0.271: // measure 1
0000
0000
0000
0000
,  // measure 2
0000
0000
0000
0000
,  // measure 3
0000
0000
0000
0000
,  // measure 4
0100
0000
0000
0010
0000
0000
0100
0000
0010
0000
0001
0000
1000
0000
0010
0000
,  // measure 5
1000
0100
0010
0000
0000
0001
0100
1000
,  // measure 6
0100
0001
0100
0000
0000
0010
0100
0001
,  // measure 7
0010
0010
0100
1000
0010
1000
0001
0100
,  // measure 8
0001
0000
0000
0100
0000
0000
0001
0000
1000
0000
0001
0000
1000
0000
0000
0000
,  // measure 9
0001
0010
0100
1000
0010
1000
0001
0000
,  // measure 10
1000
0000
0010
1000
0010
0000
0100
0000
0010
0000
0000
0000
1010
0000
0000
0000
,  // measure 11
0100
0000
0000
0100
0000
0000
0100
0000
0000
0000
0010
0000
0010
0000
0000
0000
,  // measure 12
1000
0000
0000
0010
0000
0000
1000
0000
0000
0000
0001
0000
1000
0000
0000
0000
,  // measure 13
0002
0100
0100
0103
,  // measure 14
0001
1000
0010
1000
0100
0010
0001
0000
,  // measure 15
0200
0001
0001
0301
,  // measure 16
0001
0100
0001
0100
0010
0000
1000
0000
0010
0000
0000
0000
0101
0000
0000
0000
,  // measure 17
1000
0010
0000
1000
0000
0100
0000
1000
0000
0010
0000
0000
0100
0000
0000
0000
,  // measure 18
0001
0100
0000
0001
0000
1000
0000
0010
0000
0000
0100
0000
0000
0000
0010
0000
,  // measure 19
0001
0010
0001
1000
0100
1000
0100
0000
,  // measure 20
0010
0000
0100
0000
0010
0000
0000
0000
0000
0000
0001
0010
0100
0000
1000
0000
,  // measure 21
0020
0000
0000
0000
2000
0000
3030
1000
,  // measure 22
0010
0000
1000
0000
0010
0000
0000
0010
0000
0000
1000
0010
0100
0000
0001
0000
,  // measure 23
1000
0000
0010
0000
0100
0000
0010
0100
,  // measure 24
0010
0000
0100
0000
0001
1000
0000
0010
0000
0000
0001
1000
0001
0000
0100
0000
,  // measure 25
2000
0000
0010
0000
0010
0000
3010
0100
,  // measure 26
0001
0000
0000
0100
0000
0000
0010
0000
0000
0000
1000
0000
1010
0000
0100
0000
,  // measure 27
0002
0000
1000
0000
1000
0000
1003
0010
,  // measure 28
1000
0000
0000
0000
1000
0000
0000
0010
0000
0000
0001
0000
0101
0000
0000
0000
,  // measure 29
0100
0000
0000
0100
0000
0000
0100
0000
0000
0000
0010
0100
0010
0000
0100
0000
,  // measure 30
0001
0000
0000
0001
0000
0000
0001
0000
0000
0000
1000
0001
1000
0000
0001
0000
,  // measure 31
1000
0000
0000
1000
0000
0000
1000
0000
0000
0000
1000
0001
0010
0000
0100
0000
,  // measure 32
0010
0000
0000
0010
0000
0000
0010
0000
0000
0000
0000
0000
0010
0000
0000
0000
,  // measure 33
0020
0000
0200
0330
,  // measure 34
0110
0000
0000
0100
0000
0000
0010
0000
1000
0000
0000
0000
0000
0000
0000
0000
,  // measure 35
0010
0000
0000
0001
0000
0000
0000
0010
0000
0001
0000
0000
0000
0000
0000
0000
,  // measure 36
0000
0000
0100
0000
0001
0000
1000
0000
0100
0000
0000
1000
0000
0000
0010
0000
,  // measure 37
0100
0000
0000
0010
0000
0000
1000
0000
0001
0000
0000
0001
0000
0000
1000
0000
,  // measure 38
0010
0100
0001
0010
0001
0100
0010
0100
,  // measure 39
1000
0000
0000
0100
0000
0000
1000
0000
0100
0000
0010
0000
0001
0000
0000
0000
,  // measure 40
0000
0000
0100
0000
0000
0010
0000
0000
0010
0000
0000
0000
0000
0000
0010
0000
,  // measure 41
1000
0000
1000
0000
0001
0000
0100
0010
,  // measure 42
0200
0000
0010
0000
0310
0100
0001
0000
,  // measure 43
0001
0000
0100
0001
1000
0000
0010
0000
1000
0000
0010
0000
0001
0000
0000
0000
,  // measure 44
0100
0000
0010
1000
0001
0000
0100
0010
0000
0010
0100
0010
0100
0000
0000
0000
,  // measure 45
0100
0101
0010
1100
,  // measure 46
1000
0000
1000
0100
0010
0000
0001
0000
0100
0000
0010
0000
1000
0000
0000
0000
,  // measure 47
0010
0000
0001
0100
0010
0000
1000
0000
0010
0000
0100
0000
0001
0000
0000
0000
,  // measure 48
0001
0001
0010
0010
0100
0100
1000
1000
,  // measure 49
0010
0000
1000
0000
0000
0010
0000
0000
0100
0000
0000
0000
0010
0000
0100
0000
,  // measure 50
2000
0010
0010
3010
,  // measure 51
1000
0001
0100
0001
0010
0100
1000
0000
,  // measure 52
0020
1000
1000
1030
,  // measure 53
1000
0010
1000
0010
0100
0000
0001
0000
0100
0000
0000
0000
1010
0000
0000
0000
,  // measure 54
0001
0100
0000
0001
0000
0010
0000
0001
0000
0100
0000
0000
0010
0000
0000
0000
,  // measure 55
1000
0010
0000
1000
0000
0001
0000
0100
0000
0000
0010
0000
0000
0000
0100
0000
,  // measure 56
1000
0100
1000
0001
0010
0001
0010
0000
,  // measure 57
0100
0000
0010
0000
0100
0000
0000
0000
0000
0000
1000
0100
0010
0000
0001
0000
,  // measure 58
0200
0000
0000
0000
0002
0000
0303
0001
,  // measure 59
0100
0000
0001
0000
0100
0000
0000
0100
0000
0000
0001
0100
0010
0000
1000
0000
,  // measure 60
0001
0000
0100
0000
0010
0000
0100
0010
,  // measure 61
0100
0000
0010
0000
1000
0001
0000
0100
0000
0000
1000
0001
1000
0000
0010
0000
,  // measure 62
0002
0000
0100
0000
0100
0000
0103
0010
,  // measure 63
1000
0000
0000
0010
0000
0000
0100
0000
0000
0000
0001
0000
0101
0000
0010
0000
,  // measure 64
2000
0000
0001
0000
0001
0000
3001
0100
,  // measure 65
0001
0000
0000
0000
0001
0000
0000
0100
0000
0000
1000
0000
1010
0000
0000
0000
,  // measure 66
0010
0000
0000
0010
0000
0000
0010
0000
0000
0000
0100
0010
0100
0000
0010
0000
,  // measure 67
1000
0000
0000
1000
0000
0000
1000
0000
0000
0000
0001
1000
0001
0000
1000
0000
,  // measure 68
0001
0000
0000
0001
0000
0000
0001
0000
0000
0000
0001
1000
0100
0000
0010
0000
,  // measure 69
0100
0000
0000
0100
0000
0000
0100
0000
0000
0000
0000
0000
0200
0000
0000
0000
,  // measure 70
0020
0000
0330
0000
;

//---------------dance-single - ----------------
#NOTES:
     dance-single:
     :
     Medium:
     8:
     0.322,0.305,0.029,0.132,0.000:
0000
0000
0000
0000
,
0000
0000
0000
0000
,
0000
0000
0000
0000
,
0000
0000
0000
0000
,
0001
0010
0100
0000
1000
0000
0010
0000
,
1000
0100
0010
0000
0100
0000
0001
0000
,
1000
0001
1000
0000
0010
0000
0100
0000
,
0100
0010
0100
0000
0010
0100
0010
0000
,
1000
0100
0010
0000
0100
0010
0001
0000
,
0001
0100
0001
1000
,
0010
0000
1000
0000
0010
1000
0010
0000
,
0100
0000
0001
0000
0100
0001
0100
0000
,
0020
0100
0100
0130
,
0010
1000
0010
0100
,
0002
1000
1000
1003
,
0100
0010
1000
0001
,
0100
0000
1000
0000
0100
0010
0001
0000
,
0100
0000
0001
0000
0100
0010
1000
0000
,
0010
0000
0100
0000
0010
1000
0001
0000
,
1000
0001
1000
0000
0010
0000
0100
0000
,
0002
0000
0000
0000
2000
0000
3003
0001
,
1000
0010
0100
0010
,
0001
0100
0010
1000
,
0001
0100
0001
1000
,
0200
1000
1000
1300
,
0002
0010
0010
0013
,
0200
0001
0001
0301
,
0010
0000
1000
0000
0010
0001
1000
0000
,
0010
0000
0100
0000
0010
0100
0010
0000
,
1000
0000
0010
0000
1000
0100
0010
0000
,
0100
0000
0001
0000
1000
0010
1000
0000
,
0001
0100
0002
2000
,
0000
0000
3003
0000
,
0100
0000
0010
0100
0010
0000
0000
0000
,
1000
0000
1000
0100
0001
0000
0000
0000
,
0001
0000
0001
0010
0001
0000
0000
0000
,
0100
0000
0100
0001
1000
0000
0000
0000
,
0010
0100
1000
0000
0001
0010
0100
0000
,
0001
1000
0001
0000
1000
0010
0001
0000
,
0100
0100
0100
0000
,
0001
0101
0010
1001
,
1000
0000
0010
0000
1000
1000
1000
0000
,
0010
0000
0100
0000
0010
0010
0010
0000
,
0100
0000
0001
0000
0001
1000
0001
0000
,
0010
1001
0100
0110
,
0010
0000
0100
0000
1000
0010
0100
0000
,
0001
0000
0010
0000
0001
0100
0001
0000
,
0100
0000
0010
0000
1000
0001
1000
0000
,
0010
0010
0001
0001
,
0002
0000
0003
0000
,
1000
0010
1000
0000
0010
0100
0001
0000
,
2000
0000
3000
0000
,
0010
1000
0001
0000
0100
1000
0010
0000
,
0010
0000
0001
0000
0010
0100
1000
0000
,
0010
0000
1000
0000
0010
0100
0001
0000
,
0100
0000
0010
0000
0100
0001
1000
0000
,
0001
1000
0001
0000
0100
0000
0010
0000
,
2000
0000
0000
0000
0002
0000
3003
1000
,
0001
0100
0010
0100
,
1000
0010
0100
0001
,
1000
0010
1000
0001
,
0020
0001
0001
0031
,
2000
0100
0100
3100
,
0020
1000
1000
1030
,
0100
0000
0001
0000
0100
1000
0001
0000
,
0100
0000
0010
0000
0100
0010
0100
0000
,
0001
0000
0100
0000
0001
0010
0100
0000
,
0010
0000
1000
0000
0001
0100
0001
0000
,
1000
0010
2000
0002
,
0000
0000
3003
0000
;

//---------------dance-single - ----------------
#NOTES:
     dance-single:
     :
     Easy:
     5:
     0.246,0.280,0.059,0.110,0.000:
0000
0000
0000
0000
,
0000
0000
0000
0000
,
0000
0000
0000
0000
,
0000
0000
0000
0000
,
0010
0100
0010
0000
,
1000
0001
1000
0000
,
0001
0100
0010
0001
,
0100
0010
1000
2002
,
3003
0100
0010
1000
,
0001
0100
0001
1000
,
0010
0000
0100
0000
0010
0010
0010
0000
,
0100
0000
0001
0000
1000
1000
1000
0000
,
0002
1000
1000
1003
,
0010
0001
0100
1000
,
2000
0001
0001
3001
,
0100
0010
0100
0001
,
0100
0000
0001
0000
,
1000
0000
0010
0000
,
1000
0010
0100
0001
,
0100
1010
0000
0000
,
0021
0000
0000
0000
0000
0000
0000
0001
,
0031
1000
0001
1000
,
0010
0000
0100
0000
0001
0000
1000
1000
,
1000
0010
0100
0010
,
2000
0100
0100
3100
,
1000
0100
0010
0001
,
0002
0010
0010
0013
,
0001
0000
0000
0000
,
0100
0010
0100
0000
,
0010
0100
0010
0000
,
1000
0001
1000
0000
,
0001
1000
0001
0000
,
0200
0000
0002
0303
,
0101
0000
0010
0000
,
1000
0000
0010
0000
,
0100
0000
0010
0000
,
1000
0000
0001
0000
,
0100
0010
0100
0001
,
0010
0001
1000
0010
,
1000
0000
1000
0000
,
0010
0010
0001
0001
,
1001
0001
0100
0001
,
0000
0100
0010
0010
,
0000
1000
0100
0010
,
0000
0001
0100
0001
,
0000
1000
0100
1000
,
0000
0100
0010
0100
,
0000
1000
0010
0001
,
0002
0000
2000
3003
,
0110
0001
0001
1000
,
1000
0010
0100
0010
,
0001
0100
0010
1000
,
0001
1000
0010
1000
,
0010
0000
1000
0000
,
0001
0000
0100
0000
,
0001
0100
0010
1000
,
0010
0101
0000
0000
,
1200
0000
0000
0000
0000
0000
0000
1000
,
1300
0001
1000
0001
,
0100
0000
0010
0000
1000
0000
0001
0001
,
0001
0100
0010
0100
,
0002
0010
0010
0013
,
0001
0010
0100
1000
,
2000
0100
0100
3100
,
1000
0000
0000
0000
,
0010
0100
0010
0000
,
0100
0010
0100
0000
,
0001
1000
0001
0000
,
1000
0001
1000
0000
,
0020
0000
0030
0000
;

//---------------dance-single - ----------------
#NOTES:
     dance-single:
     :
     Beginner:
     2:
     0.168,0.178,0.059,0.103,0.000:
0000
0000
0000
0000
,
0000
0000
0000
0000
,
0000
0000
0000
0000
,
0000
0000
0000
0000
,
0000
1000
0000
1000
,
0000
0001
0000
0001
,
0000
0100
0000
0100
,
0000
0010
0000
0010
,
0000
0010
0010
0010
,
0000
0100
0000
1001
,
0000
0001
0001
0001
,
0000
1000
0000
0001
,
0000
1000
1000
1000
,
0000
1000
0000
0100
,
0000
0100
0100
0100
,
0000
0010
0000
0110
,
0000
0001
0001
0001
,
0000
1000
0000
0001
,
0000
0001
0001
0001
,
0000
1001
0000
0010
,
0020
0000
0030
0000
,
0110
0000
0000
0010
,
0000
0010
0000
1000
,
0000
0010
0000
1000
,
0000
1000
0001
1000
,
0000
0001
1000
0001
,
0000
0100
0010
0100
,
0000
0010
0100
0010
,
0000
1000
0000
0010
,
0000
0001
0000
0100
,
0000
0010
0000
1000
,
0000
0100
0000
0001
,
0002
0000
0003
0000
,
2002
0000
3003
0000
,
0020
0000
0030
0000
,
0002
0000
0003
0000
,
2000
0000
3000
0000
,
0200
0000
0300
0000
,
2000
0000
3000
0000
,
0002
0000
0003
0000
,
2000
0000
3000
0000
,
0001
0001
0001
0000
,
1000
1000
1000
0000
,
0010
0000
0100
0000
,
0010
0010
0010
0000
,
0100
0100
0100
0000
,
0001
0001
0001
0000
,
1000
1000
1000
0000
,
0200
0000
0300
0000
,
0110
0000
0000
0010
,
0000
0100
0000
0001
,
0000
0100
0000
0010
,
0000
1000
0000
0100
,
0000
1000
0000
0001
,
0000
1000
0000
0010
,
0000
0100
0000
0001
,
0000
1001
0000
0100
,
0200
0000
0300
0000
,
0110
0000
0000
0100
,
0000
0100
0000
0001
,
0000
0100
0000
0001
,
0000
0001
1000
0001
,
0000
1000
0001
1000
,
0000
0010
0100
0010
,
0000
0100
0010
0100
,
0000
0001
0000
0100
,
0000
1000
0000
0010
,
0000
0100
0000
0001
,
0000
0010
0000
1000
,
2000
0000
3000
0000
;
