#TITLE:Singing in the Rain;
#SUBTITLE:;
#ARTIST:LOONA;
#TITLETRANSLIT:;
#SUBTITLETRANSLIT:;
#ARTISTTRANSLIT:;
#CREDIT:;
#BANNER:Singing in the Rain.png;
#BACKGROUND:Singing in the Rain-bg.png;
#LYRICSPATH:;
#CDTITLE:;
#MUSIC:Singing in the Rain.mp3;
#OFFSET:0.480;
#SAMPLESTART:51.720;
#SAMPLELENGTH:15.000;
#SELECTABLE:YES;
#BPMS:0.000=138.000;
#STOPS:;
#BGCHANGES:0.680=Singing in the Rain.avi=1.000=0=0=0,
99999=-nosongbg-=1.000=0=0=0 // don't automatically add -songbackground-
;

//---------------dance-single - ----------------
#NOTES:
     dance-single:
     :
     Easy:
     5:
     0.245,0.330,0.041,0.243,0.000:
0000
0000
0000
0000
,
0000
0000
0000
0000
,
0000
0000
0000
0000
,
0000
0000
0000
0000
,
0000
0000
0000
0000
,
0000
0000
0000
0000
,
0010
0100
1000
0100
,
1010
0000
0000
0010
,
0100
0010
1000
0001
,
0002
0003
0000
0100
,
0010
1000
0010
0100
,
2000
3000
0000
0010
,
0100
0001
1000
0010
,
0020
0030
0000
0100
,
0020
0030
0100
0010
,
1000
1000
0001
0001
,
0000
1000
0000
0010
,
0100
0100
0010
0010
,
0000
1000
0000
0001
,
0100
0100
0001
0001
,
0000
0100
0000
0010
,
0001
0001
1000
1000
,
0000
0010
0000
0100
,
1001
0010
0001
0000
,
0100
0010
1000
0000
,
0001
0010
0010
0000
,
0100
1000
0100
0000
,
0010
1000
0001
0000
,
0100
0010
0001
0000
,
2002
0000
3003
0000
,
2000
3200
0320
0032
,
2003
0000
3010
0000
,
0010
1000
0001
0100
,
0002
0000
1003
0000
,
0001
0010
0100
1000
,
2000
0000
3010
0000
,
0100
0010
0100
0010
,
0200
0000
0310
0000
,
1000
0010
0001
0010
,
2000
0000
3001
0000
,
0100
0001
1000
0010
,
2000
0000
3001
0000
,
1000
0100
0010
0001
,
0002
0000
0103
0000
,
0010
0100
0010
0100
,
0020
0000
0130
0000
,
0001
0010
1000
0010
,
0220
0000
0330
0000
,
0010
0000
0100
0000
,
0010
0000
0001
0000
,
1000
0000
0100
0000
,
1000
0000
0100
0000
,
0001
0000
0010
0000
,
0001
0000
0010
0000
,
0002
0000
0003
0000
,
0100
0100
0010
0010
,
0000
0100
0000
1000
,
0001
0001
1000
1000
,
0000
0100
0000
0010
,
0001
0001
0010
0010
,
0000
0001
0000
1000
,
0010
0010
0100
0100
,
0000
1000
0000
0001
,
0110
1000
0010
0000
,
0001
1000
0100
0000
,
0010
1000
1000
0000
,
0001
0100
0001
0000
,
1000
0100
0010
0000
,
0001
1000
0010
0000
,
0220
0000
0330
0000
,
0200
0302
2003
3020
,
0230
0000
0310
0000
,
1000
0100
0010
0001
,
0020
0000
0130
0000
,
0010
1000
0001
0100
,
0020
0000
1030
0000
,
0001
1000
0001
1000
,
0002
0000
1003
0000
,
0100
1000
0010
1000
,
0200
0000
0320
0000
,
2030
0000
3200
0020
,
0000
0000
0330
0000
;

//---------------dance-single - ----------------
#NOTES:
     dance-single:
     :
     Beginner:
     2:
     0.177,0.358,0.081,0.108,0.000:
0000
0000
0000
0000
,
0000
0000
0000
0000
,
0000
0000
0000
0000
,
0000
0000
0000
0000
,
0000
0000
0000
0000
,
0000
0000
0000
0000
,
0000
0000
0000
0000
,
1001
0000
0000
0000
,
1000
0000
0000
0000
,
0010
0000
0000
0000
,
0001
0000
0000
0000
,
0100
0000
0000
0000
,
0001
0000
0000
0000
,
1000
0000
0000
0000
,
0020
0030
0000
0000
,
1000
1000
1000
0000
,
0001
0001
0001
0000
,
1000
1000
1000
0000
,
0010
0010
0010
0000
,
0100
0100
0100
0000
,
0001
0001
0001
0000
,
1000
1000
1000
0000
,
0010
0010
0010
0000
,
1000
0000
0010
0000
,
1000
0000
0100
0000
,
0010
0000
0001
0000
,
0100
0000
0010
0000
,
0001
0000
1000
0000
,
0010
0000
0100
0000
,
0020
0000
0030
0000
,
1001
0110
1001
0110
,
2002
0000
3003
0000
,
1000
0000
0001
0000
,
0100
0000
0010
0000
,
1000
0001
1000
0001
,
2000
0000
3000
0000
,
0010
0000
1000
0000
,
0001
0000
0100
0000
,
0010
0100
0010
0100
,
0020
0000
0030
0000
,
1000
0000
0010
0000
,
0100
0000
0001
0000
,
0100
0010
0100
0010
,
0200
0000
0300
0000
,
0010
0000
1000
0000
,
0001
0000
0100
0000
,
0010
0000
0001
0000
,
2002
0000
3003
0000
,
0010
0000
0000
0000
,
1000
0000
0000
0000
,
0001
0000
0000
0000
,
0100
0000
0000
0000
,
0001
0000
0000
0000
,
0010
0000
0010
0000
,
0010
0000
1000
0000
,
0001
0001
0001
0000
,
1000
1000
1000
0000
,
0001
0001
0001
0000
,
0100
0100
0100
0000
,
0010
0010
0010
0000
,
1000
1000
1000
0000
,
0001
0001
0001
0000
,
0100
0100
0100
0000
,
0001
0000
0100
0000
,
0001
0000
0010
0000
,
0100
0000
1000
0000
,
0010
0000
0100
0000
,
1000
0000
0001
0000
,
0100
0000
0010
0000
,
0200
0000
0300
0000
,
1001
0110
1001
0110
,
2002
0000
3003
0000
,
0001
0000
1000
0000
,
0010
0000
0100
0000
,
0001
1000
0001
1000
,
0002
0000
0003
0000
,
0100
0000
0001
0000
,
1000
0000
0010
0000
,
0100
0010
0100
0010
,
0200
0000
0300
0000
,
0002
0000
0003
0000
,
2000
0000
3000
0000
;

//---------------dance-single - ----------------
#NOTES:
     dance-single:
     :
     Medium:
     9:
     0.381,0.468,0.007,0.621,0.061:
0000
0000
0000
0000
,
0000
0000
0000
0000
,
0000
0000
0000
0000
,
0000
0000
0000
0000
,
0000
0000
0000
0000
,
0000
0000
0000
0000
,
0020
2030
3020
0230
,
0310
0000
0000
0100
0000
0000
0000
0000
,
1000
0000
0000
0010
0000
0000
1000
0000
0000
0000
0000
0000
0000
0000
0000
0000
,
0001
0000
0000
0001
0000
0000
0000
0000
,
0100
0000
0000
0001
0000
0000
1000
0000
0000
0000
0000
0000
0000
0000
0000
0000
,
0010
0000
0000
1000
0000
0000
0000
0000
,
1000
0000
0000
0100
0000
0000
1000
0000
0000
0000
0000
0000
0000
0000
0000
0000
,
0100
0000
0000
0100
0000
0000
0000
0000
,
1001
0000
0000
0010
0000
0000
0000
0000
,
1000
0000
0000
0000
0010
0000
0000
0000
1000
0000
0000
0010
1000
0000
0010
0000
,
0100
0010
1000
0010
,
0001
0000
0000
0000
0010
0000
0000
0000
0100
0000
0000
0001
0100
0000
0001
0000
,
0010
1000
0010
0100
,
0001
0000
0000
0000
0100
0000
0000
0000
0001
0000
0000
0100
0001
0000
0100
0000
,
0010
0100
0001
0100
,
1000
0000
0000
0000
0100
0000
0000
0000
0010
0000
0000
1000
0010
0000
1000
0000
,
0100
0001
0100
0010
,
1000
0100
1000
0100
,
1000
0000
0000
0000
0001
0000
0000
0000
0100
0000
0000
0000
0001
0000
1000
0001
,
1000
0010
0100
0010
,
1000
0000
0000
0000
0001
0000
0000
0000
0100
0000
0000
0001
0100
0000
0010
0000
,
1000
0000
0000
1000
0001
0000
0100
0000
0001
0000
0000
0000
0100
0000
0010
0100
,
0010
0000
0000
0100
0000
0000
0010
0000
1000
0000
0000
0000
0100
0000
0010
0100
,
0010
0001
0010
0100
1000
0010
1000
0001
,
0200
0302
2003
3020
,
2030
0000
0000
0000
3001
0000
0100
0010
,
0001
0000
0100
0010
0001
0000
1000
0000
,
2000
0000
3100
0000
,
0002
0203
0320
2030
,
3002
0000
0000
0000
0013
0000
0001
0010
,
0100
0000
0100
0010
0001
0000
1000
0000
,
0020
0000
0130
0000
,
0020
2030
3020
2030
,
3002
0000
0000
0010
0023
0000
0000
0100
,
0230
0000
0000
1000
2300
0100
0200
0000
,
0000
0000
3300
0000
,
0002
0023
0032
0023
,
0230
0000
0000
1000
2300
0000
0000
0001
,
3002
0000
0000
0010
0023
0100
0200
0000
,
0000
0000
0330
0000
,
2000
3020
0230
0302
,
2003
0000
0000
0000
3000
0010
1000
0000
,
0000
0000
0000
0000
0000
0000
0000
0000
0000
0000
0000
0000
0000
0000
1000
0010
,
1000
0000
0010
1000
0010
0000
1000
0000
0000
0000
0000
0000
0000
0000
0000
0000
,
0000
0000
0000
0100
0010
0100
0010
0100
,
0001
0000
0000
0002
,
0200
0000
0303
0000
,
0002
2003
3002
2003
,
3002
0000
0000
0000
0003
0010
1000
0010
,
0001
0000
0000
0000
0100
0000
0000
0000
0001
0000
0000
0100
0001
0000
0100
0000
,
0010
0100
0001
0100
,
1000
0000
0000
0000
0100
0000
0000
0000
0010
0000
0000
1000
0010
0000
1000
0000
,
0100
0001
0100
0010
,
1000
0000
0000
0000
0010
0000
0000
0000
1000
0000
0000
0010
1000
0000
0010
0000
,
0100
0010
1000
0010
,
0001
1000
0010
1000
0100
0001
0100
0001
,
0010
1000
0010
0100
,
0002
0023
0032
0023
,
0032
2003
3020
2030
,
3020
0230
0320
0230
,
0302
2003
3020
0230
,
0302
2003
3020
0230
,
0320
0230
0302
0023
,
0230
0000
0000
0300
,
0020
2030
3002
0203
,
0302
0000
0000
0000
1003
0000
0010
0100
,
1000
0000
0010
0100
1000
0000
0001
0000
,
0002
0000
0013
0000
,
2000
3020
0230
0302
,
2003
0000
0000
0000
3100
0000
1000
0100
,
0010
0000
0010
0100
1000
0000
0001
0000
,
0200
0000
0310
0000
,
0200
0302
0203
0302
,
2003
0000
0000
0100
3200
0000
0000
0010
,
0320
0000
0000
0001
0032
0010
0020
0000
,
0000
0000
0033
0000
;

//---------------dance-single - ----------------
#NOTES:
     dance-single:
     :
     Hard:
     13:
     0.438,0.468,0.027,0.493,0.149: // measure 1
0000
0000
0000
0000
,  // measure 2
0000
0000
0000
0000
,  // measure 3
0000
0000
0000
0000
,  // measure 4
2002
0000
3003
0000
,  // measure 5
0000
0000
0000
0000
,  // measure 6
0002
0000
0003
0000
,  // measure 7
0020
0230
0302
2003
,  // measure 8
3010
0000
0000
1000
0000
0010
0010
0100
,  // measure 9
0001
0010
0100
0010
0001
1000
0010
0001
,  // measure 10
0100
0000
0000
0010
0000
0100
0010
1000
,  // measure 11
0020
0000
1030
1000
0010
0100
0001
0000
,  // measure 12
0110
0000
0000
0010
1000
0010
0001
0010
,  // measure 13
1000
0100
0010
0001
0100
0010
1000
0000
,  // measure 14
1010
0000
0000
0010
0100
0001
1000
0000
,  // measure 15
1000
0000
0000
1001
0000
0010
0001
0010
,  // measure 16
0001
0000
0000
0100
0000
0000
0001
0000
0000
1000
0010
1000
0010
0000
0100
0000
,  // measure 17
0010
0000
0000
0000
1000
0000
0010
0000
1000
0000
1000
0010
0000
0000
0000
0000
,  // measure 18
0010
0000
0000
0001
0000
0000
0010
0000
0000
0100
1000
0100
1000
0000
0001
0000
,  // measure 19
1000
0000
0000
0000
0100
0000
1000
0000
0100
0000
0100
1000
0000
0000
0000
0000
,  // measure 20
1000
0000
0000
0010
0000
0000
1000
0000
0000
0001
0100
0001
0100
0000
0010
0000
,  // measure 21
0100
0000
0000
0000
0001
0000
0100
0000
0001
0000
0001
0100
0000
0000
0000
0000
,  // measure 22
0100
0000
1000
0000
0000
0000
0100
0000
0001
0000
0100
0001
0000
0000
0000
0000
,  // measure 23
0001
0100
0010
1000
0010
0100
0001
0000
1000
0000
0100
0000
0010
0000
0001
0000
,  // measure 24
0100
0000
0010
0000
1000
0000
0001
0010
,  // measure 25
1000
0000
0000
0000
0100
0000
0000
0000
1000
0000
0000
0000
0010
0000
0100
0010
,  // measure 26
0100
0000
0001
0000
1000
0000
1000
0100
,  // measure 27
0001
0000
0000
0000
0010
0000
0000
0000
1000
0000
0000
1000
0010
0000
0100
0000
,  // measure 28
0001
0000
0100
0000
0010
0000
0001
0100
,  // measure 29
0100
0000
0010
1000
0001
0000
0100
0000
,  // measure 30
1000
0010
0001
0010
0100
1000
0010
0001
,  // measure 31
0020
0032
0023
0032
,  // measure 32
2003
0000
0000
0000
0000
0000
3001
0000
0000
0010
0000
0100
,  // measure 33
0000
0000
0010
0000
0000
0000
1000
0000
0000
0010
0000
0000
0000
0000
0000
1000
0000
0000
0010
0000
0000
0100
0000
0000
,  // measure 34
0002
0000
0013
0000
,  // measure 35
0002
0023
0230
2300
,  // measure 36
3020
0000
0000
0000
0000
0000
0130
0000
0000
0100
0000
0001
,  // measure 37
0000
0000
1000
0000
0000
0000
0010
0000
0000
1000
0000
0000
0000
0000
0000
0001
0000
0000
0010
0000
0000
0001
0000
0000
,  // measure 38
0200
0000
0310
0000
,  // measure 39
2000
3002
2003
3002
,  // measure 40
2003
0000
0000
0001
3002
0000
0000
0100
,  // measure 41
0203
0000
0000
0010
0320
0100
0200
0000
,  // measure 42
0000
0000
0330
0000
,  // measure 43
0200
0320
0230
0320
,  // measure 44
0230
0000
0000
0010
0320
0000
0000
1000
,  // measure 45
2030
0000
0000
0001
3002
1000
2000
0000
,  // measure 46
0000
0000
3003
0000
,  // measure 47
2000
3002
0203
0302
,  // measure 48
2003
0000
0000
0000
3000
0010
1000
0000
,  // measure 49
0000
0000
0000
0000
0000
0000
0000
0000
0000
0000
0000
0000
0000
0000
0100
0001
,  // measure 50
1000
0000
0010
1000
0001
0000
0100
0000
0000
0000
0000
0000
0000
0000
0000
0000
,  // measure 51
0000
0000
0000
1000
0010
0001
0010
1000
,  // measure 52
0010
0000
0000
0002
,  // measure 53
0020
0000
0033
0000
,  // measure 54
0002
0203
0320
2030
,  // measure 55
3020
0000
0000
0000
1030
0010
0100
0010
,  // measure 56
1000
0000
0000
0010
0000
0000
1000
0000
0000
0001
0100
0001
0100
0000
0010
0000
,  // measure 57
0100
0000
0000
0000
0001
0000
0100
0000
0001
0000
0001
0100
0000
0000
0000
0000
,  // measure 58
0100
0000
0000
1000
0000
0000
0100
0000
0000
0010
0001
0010
0001
0000
1000
0000
,  // measure 59
0001
0000
0000
0000
0010
0000
0001
0000
0010
0000
0010
0001
0000
0000
0000
0000
,  // measure 60
0001
0000
0000
0100
0000
0000
0001
0000
0000
1000
0010
1000
0010
0000
0100
0000
,  // measure 61
0010
0000
0000
0000
1000
0000
0010
0000
1000
0000
1000
0010
0000
0000
0000
0000
,  // measure 62
0010
0000
0001
0000
0000
0000
0010
0000
1000
0000
0010
1000
0000
0000
0000
0000
,  // measure 63
1000
0010
0100
0001
0100
0010
1000
0000
0001
0000
0010
0000
0100
0000
1000
0000
,  // measure 64
0010
0000
0100
0000
0001
0000
1000
0100
,  // measure 65
0001
0000
0010
0000
0001
0000
0100
0010
,  // measure 66
0100
0000
1000
0000
0001
0000
0001
0010
,  // measure 67
1000
0000
0100
0000
0001
0000
0100
0010
,  // measure 68
1000
0000
0010
0000
0100
0000
1000
0010
,  // measure 69
0010
0000
0100
0001
1000
0000
0010
0000
,  // measure 70
0002
0000
0020
0033
,  // measure 71
0200
2300
3200
2300
,  // measure 72
3002
0000
0000
0000
0000
0000
1003
0000
0000
0100
0000
0010
,  // measure 73
0000
0000
0100
0000
0000
0000
0001
0000
0000
0100
0000
0000
0000
0000
0000
0001
0000
0000
0100
0000
0000
0010
0000
0000
,  // measure 74
2000
0000
3100
0000
,  // measure 75
2000
3200
0320
0032
,  // measure 76
0203
0000
0000
0000
0000
0000
0310
0000
0000
0010
0000
1000
,  // measure 77
0000
0000
0001
0000
0000
0000
0100
0000
0000
0001
0000
0000
0000
0000
0000
1000
0000
0000
0100
0000
0000
1000
0000
0000
,  // measure 78
0020
0000
0130
0000
,  // measure 79
0002
2003
3002
2003
,  // measure 80
3002
0000
0000
1000
2003
0000
0000
0010
,  // measure 81
3020
0000
0000
0100
0230
0010
0020
0000
,  // measure 82
0000
0000
0330
0000
;
