#TITLE:Shinigami Eyes;
#SUBTITLE:;
#ARTIST:Grimes;
#TITLETRANSLIT:;
#SUBTITLETRANSLIT:;
#ARTISTTRANSLIT:;
#CREDIT:;
#BANNER:Shinigami Eyes.png;
#BACKGROUND:Shinigami Eyes-bg.png;
#LYRICSPATH:;
#CDTITLE:;
#MUSIC:Shinigami Eyes.mp3;
#OFFSET:0.980;
#SAMPLESTART:12.940;
#SAMPLELENGTH:15.000;
#SELECTABLE:YES;
#BPMS:0.000=116.000;
#STOPS:;
#BGCHANGES:1.680=Shinigami Eyes.avi=1.000=0=0=0,
99999=-nosongbg-=1.000=0=0=0 // don't automatically add -songbackground-
;

//---------------dance-single - ----------------
#NOTES:
     dance-single:
     :
     Easy:
     5:
     0.211,0.211,0.041,0.189,0.000:
0000
0000
0000
0000
,
0000
0000
0000
0000
,
0000
0000
0000
0000
,
0000
0000
0000
0000
,
0000
0000
0000
0000
,
0000
0000
0000
0000
,
0000
0000
0000
0000
,
0100
0100
0010
0000
,
0001
1000
0010
0000
,
1000
0100
1000
0000
,
0001
0100
0010
0000
,
0010
0100
0001
0000
,
1000
0001
1000
0000
,
0001
0001
0100
0000
,
1000
0010
0100
0000
,
0000
0010
0000
0100
,
0001
0100
1000
0100
,
0001
1000
0000
0010
,
0100
0010
1000
0010
,
0100
0010
0000
1000
,
1000
0010
0001
0010
,
1000
0001
0000
0100
,
0001
0010
0100
1000
,
2000
0010
0000
3010
,
0010
0100
0010
0100
,
0002
0100
0000
0103
,
0010
1000
0010
0100
,
0020
0100
0000
0130
,
0001
1000
0010
1000
,
0200
0010
0000
0310
,
0010
0010
0001
0100
,
1000
0010
0200
0300
,
0010
0100
0002
0003
,
1000
0010
2000
3000
,
1000
0100
0020
0030
,
0001
0010
0200
0300
,
1000
0001
2000
3000
,
0010
0001
0200
0300
,
0010
0100
2000
3000
,
1010
0000
1000
0000
,
0010
0000
0100
0000
,
0001
0000
0100
0000
,
0010
0000
1000
0000
,
0100
1000
1000
0000
,
0001
0100
0001
0000
,
0100
1000
0100
0000
,
0010
0100
0100
0000
,
1000
0000
1010
0000
,
0010
0000
0101
0000
,
0001
0000
1001
0000
,
0010
0000
0110
0000
,
0100
0000
0001
0100
,
0020
0030
0100
0010
,
2000
3000
0001
0100
,
0002
0003
0001
0010
,
0200
0300
1000
0100
,
0020
0030
0001
1000
,
0002
0003
0100
1000
,
0020
0030
0100
0010
,
0002
0003
0100
0010
,
0200
0300
0100
0010
,
2000
3000
1000
0001
,
0200
0300
0100
0001
,
0002
0003
0001
1000
,
0020
0030
1000
0010
,
0200
0300
0100
0010
,
0020
0030
0010
1000
,
0200
0300
1001
0000
,
0010
0000
0100
0000
,
0001
0000
1000
0000
;

//---------------dance-single - ----------------
#NOTES:
     dance-single:
     :
     Beginner:
     2:
     0.144,0.164,0.007,0.034,0.000:
0000
0000
0000
0000
,
0000
0000
0000
0000
,
0000
0000
0000
0000
,
0000
0000
0000
0000
,
0000
0000
0000
0000
,
0000
0000
0000
0000
,
0000
0000
0000
0000
,
0000
0010
0000
0100
,
0000
0010
0000
1000
,
0000
0001
0000
1000
,
0000
0010
0000
0100
,
0000
0001
0000
0001
,
0000
1000
0000
0100
,
0000
0010
0000
0001
,
0000
0100
0000
0010
,
0000
1000
0000
0001
,
0000
0001
0001
0001
,
0000
1000
1000
1000
,
0000
0001
0001
0001
,
0000
0100
0100
0100
,
0000
0010
0010
0010
,
0000
0100
0000
0010
,
0000
0100
0000
0100
,
0200
0000
0000
0300
,
0000
0100
0000
0001
,
0002
0000
0000
0003
,
0000
0010
0000
1000
,
2000
0000
0000
3000
,
0000
0001
0000
0010
,
0020
0000
0000
0030
,
0000
1000
0000
1000
,
0000
0010
1000
0010
,
0000
0100
0001
0100
,
0000
0001
1000
0001
,
0000
1000
0001
1000
,
0000
0010
0001
0010
,
0000
0100
1000
0100
,
0000
1000
0100
1000
,
0000
0001
0100
0001
,
0000
0010
0000
0100
,
0000
0001
0000
0010
,
0000
0100
0000
1000
,
0000
0010
0000
0100
,
0000
0001
0000
1000
,
0000
0010
0000
0100
,
0000
0001
0000
1000
,
0000
0010
0000
0100
,
0200
0000
0000
0000
,
0000
0000
0000
0000
,
0000
0000
0000
0000
,
0000
0000
0000
0000
,
0300
0000
0100
0001
,
0100
0000
0010
1000
,
0010
0000
1000
0001
,
1000
0000
0001
1000
,
0001
0000
0100
1000
,
0100
0000
0010
0001
,
0010
0000
0001
0010
,
0001
0000
1000
0010
,
1000
0000
0001
1000
,
0001
0000
1000
0010
,
1000
0000
0100
1000
,
0100
0000
0010
0001
,
0010
0000
0100
0010
,
0100
0000
0010
0100
,
0010
0000
1000
0001
,
1000
0000
0001
1000
,
0001
0000
1001
0000
,
0010
0000
0100
0000
,
0100
0000
0010
0000
;

//---------------dance-single - ----------------
#NOTES:
     dance-single:
     :
     Medium:
     8:
     0.303,0.352,0.054,0.135,0.000:
0000
0000
0000
0000
,
0000
0000
0000
0000
,
0000
0000
0000
0000
,
0000
0000
0000
0000
,
0000
0000
0000
0000
,
0000
0000
0000
0000
,
0000
0000
0000
0000
,
1000
0010
0100
0010
0100
0000
0010
0000
,
0100
0010
0100
0010
0100
0000
0000
0000
,
0001
1000
0010
1000
0001
0000
0100
0000
,
0010
1000
0010
0100
0001
0000
0001
0000
,
0001
1000
0001
1000
0001
0000
1000
0000
,
1000
0010
0001
0010
1000
0000
0001
0000
,
0001
0100
1000
0100
0001
0000
0100
0000
,
0010
0100
0010
1000
0001
0000
0100
0000
,
0000
0010
0000
1000
,
0100
0010
1000
0001
,
1000
0010
0000
0100
,
0001
0100
1000
0100
,
0001
1000
0000
0010
,
0100
0001
1000
0010
,
0100
0010
0000
0100
,
0001
0100
0001
0101
,
0002
0000
0000
0103
,
0002
0023
0230
2300
,
3020
1000
0000
1030
,
2000
3200
0320
0032
,
0203
0010
0000
0310
,
2000
3020
0230
0302
,
2003
0010
0000
3010
,
0200
0320
0230
0320
,
1030
0010
0100
0010
1000
0000
0100
0000
,
0010
1000
0010
0100
0001
0000
0100
0000
,
0001
1000
0010
1000
0001
0000
0100
0000
,
0010
0100
0010
1000
0001
0000
0100
0000
,
0100
0010
0100
0001
1000
0000
1000
0000
,
1000
0010
0001
0010
1000
0000
0010
0000
,
0100
0010
0001
0100
0001
0000
0010
0000
,
0010
0100
1000
0010
1000
0000
0100
0010
,
1001
0001
1000
0100
,
0000
0001
0010
1000
,
0000
0010
0100
0100
,
0000
0001
1000
0001
,
0000
0100
0001
1000
,
0000
0010
0010
1000
,
0000
1000
0100
1000
,
0000
0001
0100
0001
,
0101
0000
0010
0000
,
0110
0000
0100
0000
,
1001
0000
0010
0000
,
0110
0000
0100
0000
,
0101
0000
0000
0000
0001
0100
0010
0100
,
0001
0000
0010
0000
0100
0001
0100
0010
,
1000
0000
0010
0000
1000
0001
0100
0001
,
1000
0000
0010
0000
0100
0010
0100
0001
,
1000
0000
0010
0000
0010
0100
0010
1000
,
0001
0000
0001
0000
0001
0100
1000
0100
,
0001
0000
0100
0000
0010
0100
1000
0010
,
1000
0000
0100
0000
0100
0010
0001
0100
,
0001
0000
0100
0000
0100
0001
1000
0001
,
0100
0000
1000
0000
0001
0100
0001
1000
,
0010
0000
1000
0000
0010
0100
0001
0100
,
0010
0000
1000
0000
0001
1000
0001
0100
,
0010
0000
1000
0000
1000
0001
1000
0010
,
0100
0000
0100
0000
0100
0001
0010
0001
,
0100
0000
0001
0000
1000
0001
0010
1000
,
0010
0000
0001
0000
0001
1000
0100
0001
,
0100
0000
1000
0001
0110
0000
0000
0000
,
1000
0000
0001
0000
,
0100
0000
0010
0000
;

//---------------dance-single - ----------------
#NOTES:
     dance-single:
     :
     Hard:
     11:
     0.386,0.400,0.128,0.041,0.017: // measure 1
0000
0000
0000
0000
,  // measure 2
0000
0000
0000
0000
,  // measure 3
0000
0000
0000
0000
,  // measure 4
0000
0000
0000
0000
,  // measure 5
0000
0000
0000
0000
,  // measure 6
0000
0000
1000
1000
0010
0100
0001
0000
,  // measure 7
0101
0000
0000
0110
,  // measure 8
0010
0001
0100
1000
0010
0000
1000
0010
,  // measure 9
0001
0010
1000
0010
0001
0000
0101
0000
,  // measure 10
0001
1000
0010
1000
0001
0000
0010
1000
,  // measure 11
0001
0100
0001
1000
0010
0000
1001
0000
,  // measure 12
0001
0100
1000
0100
0001
0000
0001
1000
,  // measure 13
0001
0010
0100
1000
1000
0000
1010
0000
,  // measure 14
1000
0100
0010
0001
0100
0000
0010
1000
,  // measure 15
0001
1000
0100
1000
0001
0000
0110
0020
,  // measure 16
0000
0000
0000
0030
,  // measure 17
0010
1000
1000
0001
,  // measure 18
0100
0010
0010
0000
0000
0000
0001
0000
,  // measure 19
1000
0010
0100
0010
,  // measure 20
1000
0001
0000
0010
,  // measure 21
1000
0001
0100
0001
,  // measure 22
2000
0010
0000
3010
,  // measure 23
0010
0100
0001
1000
,  // measure 24
1000
0010
1000
0010
0100
0001
0100
0001
,  // measure 25
0100
0010
1000
0100
1000
0100
1000
0010
,  // measure 26
0100
0010
0100
0010
0100
0001
1000
0001
,  // measure 27
1000
0001
0100
0010
0100
0010
0100
0001
,  // measure 28
0100
1000
0100
0001
0100
1000
0100
0001
,  // measure 29
0010
1000
0010
0001
0010
1000
0010
1000
,  // measure 30
0010
0100
0001
0100
0010
1000
0100
0010
,  // measure 31
0001
0100
0010
1000
0001
1000
1001
0000
,  // measure 32
1000
0010
0001
0010
1000
0000
0010
0010
,  // measure 33
0100
0001
0100
0010
0100
0000
0110
0000
,  // measure 34
0100
0001
1000
0010
0100
0000
0010
1000
,  // measure 35
0001
1000
0100
1000
0001
0000
1001
0000
,  // measure 36
1000
0010
0100
0010
0001
0000
0100
0001
,  // measure 37
0001
0010
0100
1000
0010
0000
0110
0000
,  // measure 38
0100
0001
0100
1000
0100
0000
1000
0001
,  // measure 39
1000
0001
0100
0010
0100
0000
0010
0100
,  // measure 40
0010
1000
0010
1000
0000
0000
0000
0000
,  // measure 41
0001
0010
0100
1000
0000
0000
0000
0000
,  // measure 42
1000
0100
0010
0000
0100
0010
0001
0000
,  // measure 43
0001
0100
0010
1000
0000
0000
0000
0000
,  // measure 44
1000
0010
0100
0001
0000
0000
0000
0000
,  // measure 45
1000
0001
0100
0001
0000
0000
0000
0000
,  // measure 46
0001
1000
0010
0000
0010
1000
0001
0000
,  // measure 47
0001
0010
0100
1000
0000
0000
1010
0000
,  // measure 48
2000
0100
3100
0000
,  // measure 49
0002
0010
0013
0000
,  // measure 50
0002
1000
1003
0000
,  // measure 51
0200
0010
0310
0000
,  // measure 52
0010
0000
1001
0000
0001
0100
1000
0100
,  // measure 53
0001
0000
0100
0100
0010
1000
0010
0100
,  // measure 54
0010
0000
0110
0000
0010
1000
0001
0100
,  // measure 55
0010
0000
0100
0001
1000
0001
0010
0001
,  // measure 56
1000
0000
1001
0000
0001
0100
0010
0100
,  // measure 57
1000
0000
0010
1000
1000
0100
0010
0001
,  // measure 58
0100
0000
0110
0000
0010
1000
0010
0001
,  // measure 59
0010
0000
0001
1000
0001
1000
0010
0100
,  // measure 60
0010
0000
0110
0000
0010
1000
0100
1000
,  // measure 61
0010
0000
1000
1000
0001
0100
0001
1000
,  // measure 62
0001
0000
1001
0000
0001
0100
0010
1000
,  // measure 63
0001
0000
1000
0010
0100
0010
0001
0010
,  // measure 64
0100
0000
0110
0000
0010
1000
0001
1000
,  // measure 65
0100
0000
0001
0100
0100
1000
0001
0010
,  // measure 66
1000
0000
1001
0000
0001
0100
0001
0010
,  // measure 67
0001
0000
0010
0100
0010
0100
0001
1000
,  // measure 68
0001
0000
0000
0000
1000
0000
0001
0000
1000
0010
1000
0000
0000
0000
0000
0000
,  // measure 69
0001
0100
0010
0000
0000
0000
0100
0000
0010
0100
0010
0000
0000
0000
0000
0000
,  // measure 70
0100
0010
1000
0000
0000
0000
0010
0000
0100
0001
1000
0000
0000
0000
0000
0000
;
