#TITLE:Say You'll Be There (Single Mix);
#SUBTITLE:;
#ARTIST:Spice Girls;
#TITLETRANSLIT:;
#SUBTITLETRANSLIT:;
#ARTISTTRANSLIT:;
#CREDIT:;
#BANNER:Say You'll Be There (Single Mix).png;
#BACKGROUND:Say You'll Be There (Single Mix)-bg.png;
#LYRICSPATH:;
#CDTITLE:;
#MUSIC:Say You'll Be There (Single Mix).mp3;
#OFFSET:0.920;
#SAMPLESTART:77.600;
#SAMPLELENGTH:15.000;
#SELECTABLE:YES;
#BPMS:0.000=107.020;
#STOPS:;
#BGCHANGES:;

//---------------dance-single - ----------------
#NOTES:
     dance-single:
     :
     Easy:
     3:
     0.158,0.187,0.068,0.060,0.000:
0000
0000
0000
0000
,
0000
0000
0000
0000
,
0000
0000
0000
0000
,
0000
0000
0000
0000
,
0000
0000
0000
0000
,
0000
0000
0000
0000
,
0000
0000
0000
0000
,
0000
0000
0000
0000
,
0000
0000
0000
0000
,
0000
0000
0000
0000
,
0000
0000
0000
0000
,
0220
0330
0010
0100
,
0002
0003
1000
0001
,
2000
3000
0000
0010
,
0000
0100
0000
0001
,
0101
0001
0000
0100
,
0010
1000
0000
1000
,
0001
0100
0000
0010
,
0100
0010
0000
0100
,
0000
0010
0000
1000
,
0010
0100
0000
0010
,
1000
0001
0000
0001
,
0001
0100
0000
0010
,
1001
0010
0000
0010
,
0100
0001
0000
0001
,
1000
0010
0000
0100
,
0010
0100
0000
0010
,
0000
0100
0000
0001
,
0100
0010
0000
0100
,
0001
1000
0000
1000
,
1000
0010
0000
0100
,
0200
0010
0000
0310
,
0020
1000
0000
1030
,
2000
0100
0000
3100
,
0002
1000
0000
1003
,
1001
0001
0000
0100
,
0010
0100
0000
0010
,
1000
0001
0000
0100
,
0001
1000
0000
0001
,
1001
1000
0000
1000
,
0010
0001
0000
0001
,
0010
0001
0000
1000
,
0010
0001
0000
0100
,
1010
1000
0000
0010
,
0100
0010
0000
0100
,
0001
1000
0000
0010
,
1000
0001
0000
1000
,
1001
0001
0000
0001
,
0100
1000
0000
1000
,
0100
1000
0000
0001
,
0100
1000
0000
0010
,
0101
0001
0000
0100
,
0001
0100
0000
0010
,
1000
0010
0000
0100
,
0010
1000
0000
1000
,
1001
1000
0000
0000
;

//---------------dance-single - ----------------
#NOTES:
     dance-single:
     :
     Beginner:
     1:
     0.131,0.124,0.015,0.030,0.000:
0000
0000
0000
0000
,
0000
0000
0000
0000
,
0000
0000
0000
0000
,
0000
0000
0000
0000
,
0000
0000
0000
0000
,
0000
0000
0000
0000
,
0000
0000
0000
0000
,
0000
0100
0000
0010
,
0000
0100
0000
0010
,
0000
1000
0000
0001
,
0000
0100
0000
0001
,
0000
1000
1000
1000
,
0000
0001
0001
0001
,
0000
0100
0100
0100
,
0000
0010
0010
0010
,
0000
1001
0000
0001
,
0000
0100
0000
0001
,
0000
0100
0000
0010
,
0000
1000
0000
0010
,
0000
0100
0000
0001
,
0000
0100
0000
0010
,
0000
1000
0000
0001
,
0000
0100
0000
0001
,
0000
1001
0000
0010
,
0000
1000
0000
0010
,
0000
1000
0000
0001
,
0000
0100
0000
0001
,
0000
0100
0000
0010
,
0000
1000
0000
0010
,
0000
0100
0000
0001
,
0000
0100
0000
0010
,
0000
0200
0000
0300
,
0000
0020
0000
0030
,
0000
2000
0000
3000
,
0000
0002
0000
0003
,
0000
0100
0100
0100
,
0000
0001
0001
0001
,
0000
0010
0010
0010
,
0000
1000
1000
1000
,
0000
0001
0001
0001
,
0000
1000
1000
1000
,
0000
0010
0010
0010
,
0000
0100
0100
0100
,
0000
0010
0100
0010
,
0000
0001
1000
0001
,
0000
1000
0001
1000
,
0000
0010
1000
0010
,
0000
0100
0001
0100
,
0000
0100
0010
0100
,
0000
0001
0010
0001
,
0000
1000
0100
1000
,
0000
0001
1000
0001
,
0000
1000
0001
1000
,
0000
0100
0010
0100
,
0000
0010
0100
0010
;

//---------------dance-single - ----------------
#NOTES:
     dance-single:
     :
     Medium:
     6:
     0.259,0.312,0.105,0.120,0.000: // measure 1
0000
0000
0000
0000
,  // measure 2
0000
0000
0000
0000
,  // measure 3
0000
0000
0000
0000
,  // measure 4
0000
0000
0000
0000
,  // measure 5
0000
0000
0000
0000
,  // measure 6
0000
0000
0000
0000
,  // measure 7
0000
0000
0000
0000
,  // measure 8
0010
0020
2030
3020
,  // measure 9
2030
0000
3001
0020
0000
0000
0230
0000
,  // measure 10
0302
0000
0013
0200
0000
0000
2300
0000
,  // measure 11
3002
0000
2003
0000
3001
0010
0100
1000
,  // measure 12
1001
0000
0001
0000
0100
0010
0100
0000
,  // measure 13
0010
0000
1000
0000
0001
0100
0001
0000
,  // measure 14
0100
0000
0010
0000
0100
0010
0010
0000
,  // measure 15
1000
0000
0010
0000
1000
0100
0010
0001
,  // measure 16
1001
0001
0100
0001
,  // measure 17
1000
0010
0100
0010
,  // measure 18
1000
0010
0100
0010
,  // measure 19
0200
0000
0000
0000
0000
0310
0000
0000
,  // measure 20
0000
0100
1001
0001
,  // measure 21
0100
0001
0100
0010
,  // measure 22
1000
0010
0100
0001
,  // measure 23
2000
0000
0000
0000
0000
3001
0000
0000
,  // measure 24
0110
1000
0010
1000
,  // measure 25
0001
0100
0010
0100
,  // measure 26
0001
0100
0010
0100
,  // measure 27
0020
0000
0000
0000
0000
0130
0000
0000
,  // measure 28
0000
0010
1001
1000
,  // measure 29
0010
1000
0010
0100
,  // measure 30
0001
0100
0010
1000
,  // measure 31
2002
0000
3003
0000
1000
0001
1000
0001
,  // measure 32
1000
0000
0010
0000
0100
0000
0001
1000
,  // measure 33
0010
0000
0001
0000
0100
0000
0010
1000
,  // measure 34
0010
0000
0100
0000
0010
0000
0001
0010
,  // measure 35
0001
0100
0010
1000
,  // measure 36
1001
0000
0001
0000
0100
0010
0100
0000
,  // measure 37
0001
0000
1000
0000
0010
1000
0010
0000
,  // measure 38
0100
0000
0010
0000
0100
0001
0010
0000
,  // measure 39
0001
0000
1000
0000
0010
1000
0010
0000
,  // measure 40
1010
0000
0100
0000
0010
0100
0010
0000
,  // measure 41
1000
0000
0001
0000
0001
0010
0100
0000
,  // measure 42
1000
0000
0010
0000
1000
0100
0010
0000
,  // measure 43
0001
1000
0001
1001
,  // measure 44
0110
0000
1000
0000
0010
0100
0010
0000
,  // measure 45
1000
0000
0001
0000
0100
0001
0100
0000
,  // measure 46
0010
0000
0100
0000
0010
1000
0100
0000
,  // measure 47
1000
0000
0001
0000
0100
0001
0100
0000
,  // measure 48
0101
0000
0010
0000
0100
0010
0100
0000
,  // measure 49
0001
0000
1000
0000
1000
0100
0010
0000
,  // measure 50
0001
0000
0100
0000
0001
0010
0100
0000
,  // measure 51
1000
0001
1000
1001
,  // measure 52
0110
0010
0100
0001
,  // measure 53
1000
0010
1000
0001
,  // measure 54
0100
0001
0100
0010
,  // measure 55
1000
0010
0100
0010
,  // measure 56
1001
0100
0000
0000
;

//---------------dance-single - ----------------
#NOTES:
     dance-single:
     :
     Hard:
     9:
     0.317,0.331,0.098,0.301,0.015:
0000
0000
0000
0000
,
0000
0000
0000
0000
,
0000
0000
0000
0000
,
0000
0000
0000
0000
,
0000
0000
0000
0000
,
0000
0000
0000
0000
,
0000
0000
0000
0020
,
0130
0010
1000
0010
0100
0000
0001
0000
,
0100
0000
0001
1000
0001
0000
0100
0000
,
0010
0000
0100
0010
0100
0000
0010
0000
,
1000
0000
0010
1000
0001
0000
0100
0000
,
0202
0000
0303
0000
0001
0100
0010
0200
,
0000
0000
0310
0010
0000
1000
0010
0200
,
0000
0000
0301
0001
0000
1000
0001
2000
,
0000
3000
1000
0000
0100
0010
0001
0100
,
0110
0010
1000
0010
,
0100
0000
0001
0100
0000
0000
0010
0000
1000
0000
0010
0000
0100
0000
0001
0000
,
0010
0000
0001
0100
0000
0000
0010
0000
1000
0000
0100
0000
1000
0000
0020
0000
,
0000
0000
0030
0000
0000
1001
0000
0000
,
0100
0100
1001
0000
,
0010
0000
1000
0010
0000
0000
0100
0000
0001
0000
0100
0000
0010
0000
1000
0000
,
0100
1000
0010
0100
0001
0010
0001
0200
,
0000
0000
0300
0000
0000
1001
0000
0000
,
0110
0000
1000
0010
0001
0010
1000
0000
,
0001
0000
0100
0000
0010
0100
0001
0000
,
0001
0000
1000
0000
0010
1000
0010
0200
,
0000
0000
0300
0000
0000
0010
0000
0000
,
0100
0010
0101
0000
,
0001
0000
0010
0001
0000
0000
1000
0000
0100
0000
1000
0000
0001
0000
0010
0000
,
1000
0010
0001
1000
0100
0001
0100
2000
,
0000
0000
3000
0000
0100
1000
0100
0001
,
0200
0000
0310
0001
0020
0000
0130
0010
,
2000
0000
3001
1000
0200
0000
0301
1000
,
0010
0000
0100
0010
0000
0100
0000
0002
,
0000
0000
0003
0000
,
0022
0000
0033
0000
0010
0001
1000
0002
,
0000
0000
1003
1000
0000
0100
1000
0002
,
0000
0000
0013
0010
0000
0100
0010
0200
,
0000
0300
0100
0000
0001
1000
0010
0001
,
2200
0000
3300
0000
0100
1000
0001
2000
,
0000
0000
3001
0001
0000
0010
0001
2000
,
0000
0000
3100
0100
0000
0010
0100
0020
,
0000
0030
0010
0000
1000
0001
0100
1000
,
2200
0000
3300
0000
0100
1000
0001
2000
,
0000
0000
3001
0001
0000
0010
0001
2000
,
0000
0000
3100
0100
0000
0010
0100
0020
,
0000
0030
0010
0000
1000
0001
0100
1000
,
0022
0000
0033
0000
0010
0001
1000
0002
,
0000
0000
1003
1000
0000
0100
1000
0002
,
0000
0000
0013
0010
0000
0100
0010
0200
,
0000
0300
0100
0000
0001
1000
0010
0001
,
0022
0000
0033
0000
0010
0001
1000
0002
,
0000
0000
1003
1000
0000
0100
1000
0002
,
0000
0000
0013
0010
0000
0100
0010
0200
,
0000
0300
0100
0000
0001
1000
0010
0001
,
1001
0000
0000
0000
;
