#TITLE:Savage;
#SUBTITLE:;
#ARTIST:aespa;
#TITLETRANSLIT:;
#SUBTITLETRANSLIT:;
#ARTISTTRANSLIT:;
#CREDIT:;
#BANNER:Savage.png;
#BACKGROUND:Savage-bg.png;
#LYRICSPATH:;
#CDTITLE:;
#MUSIC:Savage.mp3;
#OFFSET:1.560;
#SAMPLESTART:57.220;
#SAMPLELENGTH:15.000;
#SELECTABLE:YES;
#BPMS:0.000=73.500,72.000=147.000,124.000=73.500,156.000=147.000;
#STOPS:;
#BGCHANGES:;

//---------------dance-single - ----------------
#NOTES:
     dance-single:
     :
     Easy:
     5:
     0.223,0.303,0.120,0.087,0.000:
0000
0000
0000
0000
,
0000
0000
0000
0000
,
1001
0010
0100
0010
,
1000
0010
0001
0010
,
0101
0010
0001
0100
,
1000
0100
0001
1000
,
0010
0000
0000
0000
0100
0010
0100
0000
,
0110
0000
0000
0000
1000
0100
0010
0000
,
1010
0000
0000
0000
0001
0001
0010
0000
,
0101
0000
0000
0000
1000
0001
1000
0000
,
2001
0001
3002
0100
,
0023
0001
0230
1000
,
1300
0010
0000
0100
,
0000
0010
0000
1000
,
0000
0001
0000
0100
,
0000
0001
0000
0101
,
0001
0100
0010
1000
,
0010
0000
0100
0000
0001
1000
1001
0010
,
0100
0010
0100
0010
,
1000
0001
2001
0000
,
3000
0000
0010
0000
,
0100
0000
0001
0000
,
0001
0010
1000
0010
,
0001
0010
0001
0000
,
0102
0000
0003
0000
,
1000
0010
0100
0000
,
1000
0100
0010
0100
,
0001
1000
0100
0000
,
2100
0000
3000
0000
,
1000
0001
0100
0010
,
0100
0110
0000
0000
,
1000
0100
0010
0001
,
0001
0010
0100
1000
,
0001
0100
0001
0100
,
0010
1000
0010
1000
,
1000
0010
0001
0010
,
1000
0001
0100
0001
,
1000
0010
0100
0010
,
0100
0010
0001
0010
,
0100
0000
0010
0100
,
0010
0000
1000
0010
,
0100
0000
0001
0100
,
0010
0000
0100
0010
,
0010
0000
1000
0100
,
1000
0000
0010
0100
,
1000
0100
0010
0100
,
0010
0001
0010
0001
,
0002
1000
1003
0000
,
0010
0100
0010
0100
,
0001
1000
0010
0000
,
0102
0000
0003
0000
,
0010
0000
1000
0000
,
1000
0100
0001
0100
,
1000
0100
1000
0000
,
2010
0000
3000
0000
,
0001
0100
0010
0000
,
0001
0010
0100
0010
,
1000
0001
0010
0000
,
0012
0000
0003
0000
,
0001
1000
0010
0100
,
0010
1000
0010
1000
,
0001
0100
0010
0000
,
0210
0000
0300
0000
,
0010
1000
0002
1003
,
0110
1001
0000
0010
;

//---------------dance-single - ----------------
#NOTES:
     dance-single:
     :
     Beginner:
     3:
     0.167,0.260,0.067,0.120,0.000:
0000
0000
0000
0000
,
0000
0000
0000
0000
,
1001
0000
1000
0000
,
0001
0000
0100
0000
,
0001
0000
1000
0000
,
0010
0000
1000
0000
,
0100
0000
0010
0000
,
0001
0000
0100
0000
,
0001
0000
0100
0000
,
0010
0000
0100
0000
,
0010
0010
0010
0000
,
0100
0000
0010
0000
,
0100
0100
0100
0000
,
0001
0000
1000
0000
,
1000
1000
1000
0000
,
1000
0000
0001
0000
,
0001
0001
0001
0000
,
0100
0000
1001
0110
,
1000
1000
1000
0000
,
0001
0000
0100
0000
,
1000
1000
1000
0000
,
0010
0000
0100
0000
,
0100
0100
0100
0000
,
1000
0000
0010
0000
,
0001
0001
0001
0000
,
0100
0000
1000
0000
,
0010
0010
0010
0000
,
0001
0000
0100
0000
,
1000
1000
1000
0000
,
0010
0000
1000
0000
,
1001
0110
2002
0000
,
3003
0000
2000
3000
0000
0000
0002
0003
,
0000
0000
0200
0300
0000
0000
0020
0030
,
0000
0000
0200
0300
0000
0000
0002
0003
,
0000
0000
0200
0300
0000
0000
0020
0030
,
0000
0000
2000
3000
0000
0000
0002
0003
,
0000
0000
0200
0300
0000
0000
0002
0003
,
0000
0000
2000
3000
0000
0000
0020
0030
,
0000
0000
2000
3000
0000
0000
0020
0030
,
0000
0000
0100
0000
,
0010
0000
1000
0000
,
0001
0000
0001
0000
,
0100
0000
0010
0000
,
1000
0000
0010
0000
,
0100
0000
0001
0000
,
1000
0000
0010
0000
,
0001
0000
0010
0000
,
1001
0110
1001
0000
,
0001
0001
0001
0000
,
1000
0000
0010
0000
,
0001
0001
0001
0000
,
0100
0000
0010
0000
,
0010
0010
0010
0000
,
0001
0000
0100
0000
,
1000
1000
1000
0000
,
0010
0000
0001
0000
,
0100
0100
0100
0000
,
1000
0000
0010
0000
,
0001
0001
0001
0000
,
0100
0000
0001
0000
,
1000
1000
1000
0000
,
0010
0000
1000
0000
,
0010
0010
0010
0000
,
0100
0000
0010
0000
,
0100
0100
0000
0110
;

//---------------dance-single - ----------------
#NOTES:
     dance-single:
     :
     Medium:
     9:
     0.333,0.455,0.074,0.241,0.000:
0000
0000
0000
0000
,
0000
0000
0000
0000
,
0110
0000
0010
0000
0100
1000
0010
0000
,
0101
0000
0001
0000
0010
0001
0100
0000
,
1010
0000
1000
0000
0100
1000
0100
0000
,
1100
0000
0010
0000
0100
0010
0001
0000
,
0100
0010
0100
0000
0010
1000
0010
0000
,
1000
0100
0010
0000
0100
0010
0001
0000
,
0001
1000
0100
0000
0100
1000
0001
0000
,
0001
0010
1000
0000
0010
1000
0001
0000
,
0002
0100
0203
0010
,
0320
1000
2030
0100
,
3200
1000
2300
0001
,
3002
0010
0023
0001
,
0031
0000
0100
0000
0010
0001
0010
0100
,
1000
0000
0010
0000
0100
1000
0100
1000
,
0010
0100
0010
0001
0010
0001
0100
0010
,
1000
0100
1000
0001
1001
0010
1001
0100
,
0010
1000
0010
1000
0010
0000
0100
0001
,
0100
0001
0100
0000
0010
0000
0010
0000
,
0020
0000
0030
0100
,
0010
1000
0001
0100
,
0001
0010
0001
0010
0001
0000
1000
0100
,
1000
0100
1000
0000
0001
0000
1000
0000
,
2000
0000
3000
0010
,
1000
0010
0100
0010
,
0001
0100
0001
0100
0001
0000
1000
0010
,
1000
0010
1000
0000
0001
0000
1000
0000
,
0002
0000
0003
0100
,
0001
1000
0010
0100
,
0010
0000
1001
0000
0010
1000
0000
1000
,
0010
0000
1000
0000
0010
1000
0010
0000
,
0100
0000
0010
0000
0100
0010
1000
0000
,
0001
0000
0100
0000
0001
0010
0001
0000
,
0100
0000
0010
0000
1000
0100
0100
0000
,
1000
0000
0001
0000
0010
0001
0100
0000
,
0010
0000
1000
0000
0010
0100
1000
0000
,
0010
0000
0100
0000
0001
0100
0010
0000
,
0100
0000
0010
0000
1000
0001
1000
0000
,
0010
0000
0100
0000
0010
0100
0010
0000
,
2000
0000
0000
3000
1000
0000
0010
0000
,
0202
0000
0000
0303
0001
0100
0010
0000
,
2000
3200
0320
0032
0023
0230
2300
3002
,
2003
0000
0002
0000
,
3003
0000
0100
1010
,
1000
0000
0001
0000
0001
0100
0001
0000
,
0002
2003
3002
2003
3020
0230
0320
0230
,
0310
0100
0110
0000
,
0100
0001
0100
0001
0100
0000
0010
1000
,
0010
1000
0010
0000
0100
0000
0100
0000
,
0200
0000
0300
0010
,
0100
0001
1000
0010
,
1000
0100
1000
0100
1000
0000
0001
0010
,
0001
0010
0001
0000
1000
0000
0001
0000
,
0002
0000
0003
0100
,
0001
0100
0010
0100
,
1000
0010
1000
0010
1000
0000
0001
0100
,
0001
0100
0001
0000
1000
0000
0001
0000
,
2000
0000
3000
0010
,
1000
0001
0100
0010
,
1000
0010
1000
0010
0100
0000
0001
1000
,
0010
1000
0001
0000
0100
0000
0001
0000
,
0020
0000
0030
0100
,
0001
1000
0010
1000
,
0010
0100
0000
0110
;

//---------------dance-single - ----------------
#NOTES:
     dance-single:
     :
     Hard:
     14:
     0.538,0.779,0.214,0.328,0.308: // measure 1
0000
0000
0000
0000
0000
0000
0000
0000
0000
0000
0000
0000
0000
0000
0000
0000
0000
0000
0000
0000
0000
0000
0000
0000
0000
0000
0000
0000
0000
0000
0000
0000
0000
0000
0000
0000
0100
0000
0000
0010
0000
0000
0000
0000
0100
0000
0000
0000
,  // measure 2
0000
0000
0000
0000
0001
1000
0001
1000
0000
0010
0100
0000
0000
0000
0000
0000
,  // measure 3
1010
0000
0000
0000
1000
0000
0000
0000
0100
0000
0001
0000
0010
0001
0000
0000
,  // measure 4
0011
0000
1000
0000
0001
0100
1000
0000
,  // measure 5
1001
0000
0000
0000
0010
0000
0000
0000
0001
0000
0100
0000
0010
0100
0000
0000
,  // measure 6
0001
0000
0000
0000
1000
0000
0000
0000
0010
0000
0100
0000
0010
1000
0000
0000
,  // measure 7
0001
0010
0001
0100
0010
0000
1000
0010
0000
0100
0010
0100
0001
1000
0010
0001
,  // measure 8
0010
0000
0000
1000
0000
0000
0010
0000
0000
0001
0000
0000
0010
0000
0000
0000
0000
0000
0100
0000
0000
0001
0000
0000
0000
0000
0000
0100
0000
0000
0010
0000
0000
1000
0000
0000
0010
0000
0000
0100
0000
0000
0010
0000
1000
0000
0010
0000
,  // measure 9
1000
0000
0001
1000
0001
1000
0010
0100
0010
0100
0010
1000
0010
0100
0001
0100
0000
0000
0001
0010
0001
0010
0000
1000
,  // measure 10
0100
1000
0100
1000
0000
0000
0010
0100
0010
1000
0001
0100
0010
0000
0000
0100
0000
0000
0010
0000
0000
1001
0000
0000
,  // measure 11
0001
0100
0010
0000
0001
0000
1000
0010
0100
0000
1000
0000
1000
0010
0001
0010
,  // measure 12
1000
0000
1010
0000
0001
0100
1000
0100
0001
0000
0101
0000
0010
0000
0100
0000
,  // measure 13
1000
0010
0100
0010
1000
0010
0001
0100
0010
0000
0001
0000
0001
0100
1000
0100
,  // measure 14
0001
0000
0101
0000
1000
0010
0001
0010
1000
0000
1010
0000
0100
0000
0010
0000
,  // measure 15
2000
3100
0010
0100
0001
0010
0001
0100
,  // measure 16
0001
0000
0000
0100
0001
0000
0010
0000
0000
0010
0100
0000
0100
0000
0010
0100
,  // measure 17
0002
0013
0100
0010
1000
0100
1000
0010
,  // measure 18
1000
0100
0010
0001
1001
0100
1001
0010
,  // measure 19
1000
0100
0010
0001
0100
0000
0001
0100
,  // measure 20
1000
0100
0001
0000
1000
0001
1000
0001
,  // measure 21
1000
0010
0001
0100
1000
0100
0010
0001
,  // measure 22
0101
0010
2020
3030
,  // measure 23
0100
0010
0100
1000
0100
0000
0010
0001
,  // measure 24
0010
0100
0010
0000
0001
0010
1000
0010
,  // measure 25
0001
0100
0010
1000
0001
0100
0001
1000
,  // measure 26
1100
0000
0010
0100
0020
0000
0030
0000
,  // measure 27
1000
0001
0100
0001
1000
0000
0001
0100
,  // measure 28
0010
1000
0001
0000
0100
0010
1000
0010
,  // measure 29
0100
0001
1000
0100
1000
0010
0100
0001
,  // measure 30
0101
0010
0022
0033
,  // measure 31
0001
0000
0101
0000
0001
0010
0000
1000
,  // measure 32
0010
1000
0010
0100
1000
0100
0010
0100
0010
0000
0010
0001
0010
0100
0002
0000
,  // measure 33
0000
0000
0000
0103
0001
0100
0000
0010
0100
0000
0110
0000
0010
0000
1000
0000
,  // measure 34
2000
0000
0000
3010
0000
1000
0010
0100
0002
0000
0000
0103
0000
0000
0001
0100
,  // measure 35
0010
0000
0100
0010
0000
0010
0100
0001
0010
0001
1000
0000
1000
0000
1010
0000
,  // measure 36
0020
0000
0000
0000
0030
0000
0200
0000
0000
0000
0000
0000
0301
0000
0001
0100
,  // measure 37
0000
0100
0001
1000
0010
0100
0000
0100
0010
0000
1010
0000
1000
0100
0010
0001
,  // measure 38
0100
0001
0100
0000
0010
0000
0100
0000
0001
0000
0010
0000
0001
0000
1000
0000
,  // measure 39
0100
1000
0100
0000
1100
0000
0010
0000
0100
0010
0100
0000
2002
0000
3003
0000
,  // measure 40
2000
0000
0000
0000
3000
0000
0000
0000
1000
0010
1000
0010
1000
0000
0000
0000
,  // measure 41
0020
0030
0202
0303
,  // measure 42
0002
0000
0000
0000
0000
0000
0000
0000
1003
0001
1000
0001
1000
0000
0000
0000
,  // measure 43
0002
0023
0032
0203
0320
0230
0302
2003
,  // measure 44
3020
0000
0130
0000
,  // measure 45
0200
0300
2020
3030
,  // measure 46
2000
0000
3000
0000
0020
0000
0030
0000
1000
0010
0100
0010
0100
0000
0000
0000
,  // measure 47
2000
3200
0320
0032
0023
0230
2300
3002
,  // measure 48
2003
0001
0001
3001
,  // measure 49
0001
0010
0100
1000
0010
0000
1000
0010
,  // measure 50
0001
0010
1000
0000
0001
1000
0001
1000
,  // measure 51
0001
0100
1000
0010
0001
0010
0100
1000
,  // measure 52
1010
0100
0202
0303
,  // measure 53
0100
0001
1000
0010
0001
0000
0010
0001
,  // measure 54
0100
0001
0010
0000
0100
0010
0100
0010
,  // measure 55
0100
1000
0010
0001
0100
0001
1000
0010
,  // measure 56
1010
0000
1000
0100
2200
0000
3300
0000
,  // measure 57
0001
1000
0001
0100
0001
0000
1000
0010
,  // measure 58
1000
0001
1000
0000
0010
1000
0100
1000
,  // measure 59
0010
0001
1000
0100
0010
0001
0010
0100
,  // measure 60
1001
0000
1000
0001
2000
0000
3000
0000
,  // measure 61
0100
0010
0001
0010
0100
0000
0010
0001
,  // measure 62
1000
0100
0010
0000
0001
1000
0100
1000
,  // measure 63
0001
0010
0100
0001
0100
1000
0001
0010
,  // measure 64
0101
1000
2020
3030
,  // measure 65
0010
0101
0000
1001
;
