#TITLE:STEREOTYPE;
#SUBTITLE:;
#ARTIST:STAYC;
#TITLETRANSLIT:;
#SUBTITLETRANSLIT:;
#ARTISTTRANSLIT:;
#CREDIT:;
#BANNER:STEREOTYPE.png;
#BACKGROUND:STEREOTYPE-bg.png;
#LYRICSPATH:;
#CDTITLE:;
#MUSIC:STEREOTYPE.mp3;
#OFFSET:-0.080;
#SAMPLESTART:51.520;
#SAMPLELENGTH:15.000;
#SELECTABLE:YES;
#BPMS:0.000=148.000;
#STOPS:;
#BGCHANGES:;

//---------------dance-single - ----------------
#NOTES:
     dance-single:
     :
     Easy:
     4:
     0.244,0.384,0.123,0.130,0.000:
0000
0000
0000
0000
,
0000
0000
0000
0000
,
0000
0000
0000
0000
,
0000
0000
0000
0000
,
0000
0000
0000
0000
,
0000
0000
0000
0000
,
0000
0000
0000
0000
,
0000
0000
0000
0000
,
0100
0000
0010
0000
,
1000
0000
0001
0000
,
0100
0000
0001
0000
,
0100
0000
0010
0000
,
1000
0000
1010
0000
,
0100
0000
0110
0000
,
0001
0000
1000
0000
,
0020
1000
1030
0000
,
1000
0001
0100
0000
,
0100
0001
1001
0000
,
0001
0100
0010
0000
,
1000
0100
1010
0000
,
0001
0010
0010
0000
,
0100
0010
0110
0000
,
1000
0010
0100
0000
,
0010
0100
0101
0000
,
0010
0000
0100
0000
,
0010
0000
1000
0000
,
1000
0000
0001
0000
,
0100
0000
0001
0000
,
0100
0010
0100
0010
,
1000
0001
1000
0001
,
1000
0001
1000
0001
1000
0000
0001
1000
,
0001
1000
0001
0000
0010
0000
0100
0000
,
1000
0100
0000
0001
,
1000
0001
0100
0010
,
0100
0001
0000
0001
,
0100
0001
1000
0010
,
1000
0000
1100
0000
,
1010
0000
1001
0000
,
0220
0330
0000
0010
,
0100
0010
0000
0100
,
0001
1000
0010
1000
,
0002
0000
0003
0001
,
0100
0010
1000
0010
,
2000
0000
3000
1000
,
0000
0001
0100
0001
,
0000
0010
0010
0100
,
0000
1000
0010
0200
,
0000
0310
0000
0100
,
0100
0000
0000
0001
,
0001
0000
0000
1000
,
2000
0000
3010
0100
,
0100
0010
0000
0100
,
0100
0000
0000
1000
,
1000
0000
0000
0001
,
0002
0000
0103
1000
,
0001
1000
0010
0100
,
1010
0000
0100
0000
,
1000
0000
0100
0000
,
0010
0000
0001
0000
,
1000
0000
0001
0000
,
1000
1000
0001
0001
,
0100
0100
0010
0010
,
1000
0001
1000
0001
1000
0001
1000
0001
,
2000
0000
0000
3000
0000
0000
0000
0000
,
1000
0000
0010
0000
,
1000
0000
0001
0000
,
0100
0000
0001
0000
,
1000
0000
0010
0000
,
0110
0000
0100
0000
,
0110
0000
0010
0000
,
2002
0000
3003
0000
,
0001
0000
0000
0001
,
1000
0001
0100
0001
,
2000
0000
3000
1000
,
0010
0100
0001
0100
,
0002
0000
0003
0001
,
0000
1000
0010
1000
,
0000
0100
0100
0010
,
0000
0001
0100
0020
,
0000
0130
0000
0110
,
0220
0000
0000
0330
,
2002
0000
0000
3003
;

//---------------dance-single - ----------------
#NOTES:
     dance-single:
     :
     Beginner:
     2:
     0.192,0.266,0.109,0.116,0.000:
0000
0000
0000
0000
,
0000
0000
0000
0000
,
0000
0000
0000
0000
,
0000
0000
0000
0000
,
0000
0000
0000
0000
,
0000
0000
0000
0000
,
0000
0000
0000
0000
,
0000
0000
0000
0000
,
0000
0100
0000
0100
,
0000
0010
0000
0010
,
0000
1000
0000
1000
,
0000
0001
0000
1000
,
0000
0010
0000
1000
,
0000
0001
0000
0001
,
0000
0100
0000
0001
,
0000
1000
0000
0010
,
0000
0100
0010
0100
,
0000
0001
0001
0001
,
0000
1000
0010
1000
,
0000
0100
0100
0100
,
0000
0010
0100
0010
,
0000
1000
1000
1000
,
0000
1000
0001
1000
,
0000
0010
0010
0010
,
0000
0100
0000
0100
,
0000
0010
0000
0010
,
0000
1000
0000
0001
,
0000
1000
0000
0001
,
0000
0010
0010
0010
,
0000
0100
0100
0100
,
0000
0010
0010
0010
,
0000
1001
0110
1001
,
0000
0010
0000
0100
,
0000
0001
0000
1000
,
0000
0010
0000
1000
,
0000
0010
0000
1000
,
0000
0100
0000
0010
,
0000
0001
0000
1000
,
0000
0001
0000
1000
,
0000
0010
0100
0010
,
0000
0200
0000
0300
,
0000
0020
0000
0030
,
0000
2000
0000
3000
,
0000
0002
0000
0003
,
0000
0001
0000
0001
,
0000
1000
0000
1000
,
0000
0001
0000
0010
,
0000
0100
0000
1000
,
0000
1010
0000
0010
,
0000
0101
0000
0100
,
0000
0110
0000
0010
,
0000
1000
0000
0010
,
0000
0101
0000
0010
,
0000
1010
0000
0100
,
0000
1001
0000
0010
,
0000
0100
0000
0010
,
0000
1000
1000
1000
,
0000
1000
1000
1000
,
0000
0001
0001
0001
,
0000
0001
0001
0001
,
0000
0010
0010
0010
,
0000
0100
0100
0100
,
0000
0010
0100
0010
,
0000
0220
0000
0330
,
0110
0000
0010
0000
,
1000
0000
1000
0000
,
0001
0000
0010
0000
,
0001
0000
1000
0000
,
0010
0000
1000
0000
,
0001
0000
1000
0000
,
0220
0000
0330
0000
,
0010
0000
0000
0000
,
0000
0020
0000
0030
,
0000
0200
0000
0300
,
0000
0002
0000
0003
,
0000
2000
0000
3000
,
0000
1000
0000
1000
,
0000
0001
0000
0001
,
0000
1000
0000
0100
,
0000
0010
0000
1001
,
2002
0000
0000
3003
,
0220
0000
0000
0330
;

//---------------dance-single - ----------------
#NOTES:
     dance-single:
     :
     Medium:
     7:
     0.321,0.414,0.152,0.152,0.022:
0000
0000
0000
0000
,
0000
0000
0000
0000
,
0000
0000
0000
0000
,
0000
0000
0000
0000
,
0010
0100
0010
0100
0000
0000
0000
0000
,
0001
1000
0001
1000
0000
0000
0000
0000
,
0010
0000
1000
0000
,
0001
0100
0001
0100
0001
0000
0000
0000
,
0001
0000
0100
0000
,
0001
0000
1000
0000
,
0000
0000
0010
0000
,
1000
0000
0010
0000
,
0100
0000
0101
0000
,
1000
0000
1010
0000
,
1000
0000
0001
0000
,
0001
0010
0100
1000
,
1000
0010
0100
0000
1000
0010
0100
0000
,
0001
1000
0010
0000
1001
0000
0000
0000
,
0001
0100
0001
0000
1000
0010
1000
0000
,
0010
0100
0010
0000
0110
0000
0000
0000
,
0010
0100
0010
0000
,
1000
1000
0010
0000
,
0100
0001
0001
0000
,
0001
1000
0001
0000
,
0102
0000
0103
0000
,
2010
0000
3010
0000
,
0120
0000
0130
0000
,
0102
0000
0103
0000
,
0001
0001
0100
0100
,
0010
0010
1000
1000
,
1000
0100
0010
0001
1000
0000
0001
0010
,
0100
1000
0001
0000
0000
0000
0100
0000
,
0010
0110
0000
0010
,
1000
0000
0010
0000
0100
0000
0001
1000
,
0001
1000
0000
0001
,
0100
0010
1000
0010
,
0100
0010
1000
0000
0010
0100
0001
0000
,
1000
0001
1000
0000
0001
1000
0001
0000
,
1001
0000
0010
0000
,
0100
0000
0010
1001
,
0001
0000
0100
0000
0010
0000
1000
0010
,
2000
0000
3000
1010
,
0100
0000
0010
0000
1000
0000
0001
0100
,
0010
0000
0000
0100
0000
0000
0010
0000
0000
0000
0000
0000
0101
0000
0000
0000
,
0002
0103
0002
0103
,
0020
1030
0020
1030
,
1000
0000
0000
1000
0000
0000
1000
0000
0000
1000
0000
0000
2000
0000
0000
0000
,
0000
3010
0000
0100
,
0100
0010
0010
1000
,
1000
0001
0001
0000
,
1000
0000
0010
0000
,
0100
0000
0010
1000
,
1000
0010
0010
0001
,
0001
1000
1000
0000
,
0100
0000
0010
0000
,
0001
0000
1000
0000
,
2010
0000
3000
0000
,
0010
0100
0010
1000
,
1002
0000
0003
0000
,
0001
0100
0010
1000
,
1000
0001
1000
0001
,
0100
0001
1000
0010
,
0100
0010
1000
0001
,
1000
0001
1000
0001
0000
0000
0010
0000
,
0100
0110
0000
0100
,
0001
0000
0100
0000
0010
0000
1000
0001
,
1000
0001
0000
1000
,
0010
0100
0001
0100
,
0010
0100
0001
0000
0100
0010
1000
0000
,
0001
1000
0001
0000
1000
0001
1000
0000
,
1001
0000
0100
0000
,
0010
0000
0100
1001
,
1000
0000
0010
0000
0100
0000
0001
0100
,
0002
0000
0003
0101
,
0010
0000
0100
0000
0001
0000
1000
0010
,
0100
0000
0000
0010
0000
0000
0100
0000
0000
0000
0000
0000
1010
0000
0000
0000
,
2000
3010
2000
3010
,
0200
0301
0200
0301
,
0001
0000
0000
0001
0000
0000
0001
0000
0000
0001
0000
0000
0002
0000
0000
0000
,
0000
0103
0000
0010
,
0020
0000
0000
0030
,
0220
0000
0000
0330
;

//---------------dance-single - ----------------
#NOTES:
     dance-single:
     :
     Hard:
     12:
     0.445,0.414,0.224,0.159,0.137: // measure 1
0000
0000
0000
0000
,  // measure 2
0000
0000
0000
0000
,  // measure 3
0000
0000
0000
0000
,  // measure 4
0000
0000
0000
0000
,  // measure 5
1000
0100
0010
0001
0000
0000
0000
0000
,  // measure 6
0001
0010
0100
1000
0000
0000
0000
0000
,  // measure 7
0002
0000
0000
1003
0001
0000
1000
0000
,  // measure 8
0000
0010
1000
0010
1000
0000
0100
0010
,  // measure 9
0001
0000
0000
0100
0000
0000
0001
0000
0100
0000
0000
0001
0000
0000
1000
0000
,  // measure 10
0010
1000
0010
0000
0000
0000
1000
0010
,  // measure 11
1000
0000
0000
0010
0000
0000
1000
0000
0010
0000
0000
0100
0000
0000
0010
0000
,  // measure 12
0100
0000
0110
0000
0000
0000
0010
0100
,  // measure 13
0010
0000
0000
0100
0000
0000
0010
0000
1000
0000
0000
1000
0000
0000
1000
0000
,  // measure 14
0001
0000
0000
0100
0000
0000
0010
0000
1000
0000
0000
0000
1000
0000
0010
0000
,  // measure 15
0100
0000
0010
0000
0100
0000
0100
0020
,  // measure 16
0000
0000
0130
0000
0010
0000
1001
0001
,  // measure 17
1000
0000
0000
0010
0000
0000
1000
0000
0010
0000
0000
1000
0000
0000
0001
0000
,  // measure 18
0100
0001
0100
0000
0101
0000
0010
0000
,  // measure 19
1000
0000
0000
0100
0000
0000
0010
0000
0001
0000
0000
0010
0000
0000
0100
0000
,  // measure 20
1000
0001
1000
0000
0002
0000
0103
0000
,  // measure 21
0001
0010
0100
0010
0000
0000
0100
0000
,  // measure 22
1000
0100
0010
0100
0000
0000
1000
0001
,  // measure 23
0200
0000
0000
0310
0000
0000
0100
0001
,  // measure 24
1000
0010
2000
0000
3002
0000
0103
0000
,  // measure 25
0200
0010
0310
0100
,  // measure 26
1001
0000
0000
0100
0010
0100
0001
0000
,  // measure 27
1000
0010
1000
0000
0010
0000
0100
0000
,  // measure 28
0001
0010
0100
1000
1000
0000
1010
0000
,  // measure 29
1000
1010
0010
0110
,  // measure 30
0100
0101
0001
1001
,  // measure 31
0001
0100
0010
1000
0100
0000
1000
0010
,  // measure 32
0100
0001
0010
0000
0100
0000
1000
0000
,  // measure 33
1001
2000
3010
0100
,  // measure 34
0010
1000
0000
1000
0000
1000
0001
0100
,  // measure 35
0010
0000
0110
0000
0010
0000
0001
0100
,  // measure 36
0010
0000
0000
1000
0000
0000
1000
0000
0000
0000
0010
0000
1000
0000
0001
0000
,  // measure 37
0100
0000
0000
0100
0000
0000
0100
0000
0010
0000
0000
0010
0000
0000
0010
0000
,  // measure 38
1000
0000
0000
1000
0000
0000
1000
0000
0001
0000
0000
0001
0000
0000
0001
0000
,  // measure 39
2002
0000
0000
3003
0000
0010
0100
0010
,  // measure 40
0000
0000
0000
0100
0000
1010
0000
0000
,  // measure 41
0010
0000
0011
0000
0001
0100
1000
0100
,  // measure 42
0001
0000
0000
0100
0001
0100
0001
0000
,  // measure 43
1000
0000
1010
0000
1000
0010
0001
0010
,  // measure 44
1000
0000
0000
0010
0000
0000
1000
0000
0010
0000
1000
0000
0010
0000
0000
0000
,  // measure 45
1000
0000
0000
1000
0000
0000
1000
0000
0100
0000
0000
0100
0000
0000
0100
0000
,  // measure 46
0010
0000
0000
0010
0000
0000
0010
0000
0001
0000
0000
0000
0100
0000
0001
0000
,  // measure 47
0100
0000
0000
0010
0000
0000
1000
0000
0000
0010
0000
0000
0200
0000
0000
0000
,  // measure 48
0000
0310
0000
0100
,  // measure 49
1010
0100
0100
0010
,  // measure 50
0101
0000
0010
0000
0010
0000
0100
0010
,  // measure 51
2000
0000
0000
3010
0000
0000
0100
0010
,  // measure 52
1000
0010
0100
0000
0000
0000
0010
0000
,  // measure 53
0101
0010
0010
0100
,  // measure 54
1010
0000
0100
0000
0100
0000
0010
0100
,  // measure 55
0002
0000
0000
0103
0000
0000
0010
0000
,  // measure 56
0001
0100
0010
1000
0010
0000
0001
0000
,  // measure 57
0010
0000
0010
1000
,  // measure 58
1000
0100
0010
0100
1000
0000
1010
0000
,  // measure 59
0100
0000
0100
0001
,  // measure 60
0001
0010
0100
0010
0001
0000
0101
0000
,  // measure 61
0001
0000
0000
0100
0000
0000
0001
0000
1000
0000
0000
0010
0000
0000
1000
0000
,  // measure 62
0010
0000
0000
1000
0000
0000
0001
0000
0100
0000
0000
0000
0110
0000
0000
0000
,  // measure 63
0100
0000
0000
0100
0000
0000
0100
0000
0010
0000
0000
0010
0000
0000
0020
0000
,  // measure 64
0000
0000
0000
0130
0000
0000
0001
0000
,  // measure 65
1001
0002
0103
0010
,  // measure 66
0100
0001
0000
0001
0000
0001
1000
0010
,  // measure 67
0100
0000
0110
0000
0100
0000
1000
0010
,  // measure 68
0100
0000
0000
0001
0000
0000
0001
0000
0000
0000
0100
0000
0001
0000
1000
0000
,  // measure 69
0010
0000
0000
0010
0000
0000
0010
0000
0100
0000
0000
0100
0000
0000
0100
0000
,  // measure 70
0001
0000
0000
0001
0000
0000
0001
0000
1000
0000
0000
1000
0000
0000
1000
0000
,  // measure 71
2002
0000
0000
3003
0000
0100
0010
0100
,  // measure 72
0000
0000
0000
0010
0000
0101
0000
0000
,  // measure 73
0100
0000
1100
0000
1000
0010
0001
0010
,  // measure 74
1000
0000
0000
0010
1000
0010
1000
0000
,  // measure 75
0001
0000
0101
0000
0001
0100
1000
0100
,  // measure 76
0001
0000
0000
0100
0000
0000
0001
0000
0100
0000
0001
0000
0100
0000
0000
0000
,  // measure 77
0001
0000
0000
0001
0000
0000
0001
0000
0010
0000
0000
0010
0000
0000
0010
0000
,  // measure 78
0100
0000
0000
0100
0000
0000
0100
0000
1000
0000
0000
0000
0010
0000
1000
0000
,  // measure 79
0010
0000
0000
0100
0000
0000
0001
0000
0000
0100
0000
0000
0020
0000
0000
0000
,  // measure 80
0000
0130
0000
0110
,  // measure 81
2002
0000
0000
3003
,  // measure 82
0220
0000
0000
0330
;
