#TITLE:SOLO;
#SUBTITLE:;
#ARTIST:JENNIE;
#TITLETRANSLIT:;
#SUBTITLETRANSLIT:;
#ARTISTTRANSLIT:;
#CREDIT:;
#BANNER:SOLO.png;
#BACKGROUND:SOLO-bg.png;
#LYRICSPATH:;
#CDTITLE:;
#MUSIC:SOLO.mp3;
#OFFSET:0.660;
#SAMPLESTART:39.798;
#SAMPLELENGTH:15.000;
#SELECTABLE:YES;
#BPMS:0.000=95.000;
#STOPS:128.000=5.040
;
#BGCHANGES:1.060=SOLO.avi=1.000=0=0=0,
99999=-nosongbg-=1.000=0=0=0 // don't automatically add -songbackground-
;

//---------------dance-single - ----------------
#NOTES:
     dance-single:
     :
     Beginner:
     1:
     0.121,0.145,0.083,0.018,0.000:
0000
0000
0000
0000
,
0000
0100
0000
0001
,
0000
0100
0000
0010
,
0000
1000
0000
0010
,
0000
1000
0000
0001
,
0000
0100
0000
0001
,
0000
1000
0000
0010
,
0000
1000
0000
0001
,
0000
0100
0000
0001
,
0000
1001
0000
0001
,
0000
1000
0000
1000
,
0000
0110
0000
0010
,
0000
1000
0000
0100
,
0000
1001
0000
0010
,
0000
1000
0000
0001
,
0000
0110
0000
0000
,
0100
0010
0100
0010
,
0110
0000
0000
0000
,
1001
0000
0000
0000
,
0101
0000
0000
0000
,
1010
0000
0000
0000
,
0110
0000
0010
0000
,
1000
0000
0001
0000
,
0100
0000
0001
0000
,
2000
0000
0000
0000
,
3000
1000
1000
1000
,
0000
0001
0001
0001
,
0000
1000
0000
0001
,
0000
0010
0000
1000
,
0000
0100
0100
0100
,
0000
0010
0010
0010
,
0000
0100
0000
0010
,
0010
0100
0000
1000
,
0000
0001
0001
0001
,
0000
0100
0000
0010
,
0000
1000
1000
1000
,
0000
0010
0000
1000
,
0000
0100
0100
0100
,
0000
0010
0000
0001
,
0002
0003
0000
0000
;

//---------------dance-single - ----------------
#NOTES:
     dance-single:
     :
     Easy:
     4:
     0.216,0.235,0.157,0.055,0.018:
0000
0000
0000
0000
,
1001
0010
0010
0100
,
0100
0001
0001
1000
,
1000
0000
0000
0010
,
1000
0000
0000
0000
,
0110
0100
0100
0010
,
0010
1000
1000
0001
,
0001
0000
0000
0100
,
0001
0000
0000
1000
,
1000
0000
0000
1000
0000
0000
1000
0000
0000
0000
0000
0000
0010
0000
0000
0000
,
1000
0001
1000
0010
,
0001
0000
0000
0001
0000
0000
0001
0000
0000
0000
0000
0000
0100
0000
0000
0000
,
0001
1000
0100
1000
,
0001
0000
0000
0001
0000
0000
0001
0000
0000
0000
0000
0000
0100
0000
0000
0000
,
0001
1000
0001
0100
,
1000
0000
0000
1000
0000
0000
1000
0000
0000
0000
0000
0000
0010
0000
0000
0000
,
1000
0001
0010
0001
,
0101
0001
0100
0001
,
1000
0100
0010
0001
,
0100
0010
1000
0001
,
0020
0031
0200
0310
,
1001
0010
0100
0010
,
1000
0010
0100
0001
,
0100
0001
1000
0010
,
2002
0000
3003
0000
,
1010
0010
0100
0001
,
0011
0001
0100
0010
,
0110
0010
1000
0010
,
1001
0001
0100
1000
,
0101
0010
0001
1000
,
1010
0010
1000
0001
,
1000
0010
0100
0010
,
1001
0001
1000
0010
,
1000
0010
0100
0010
,
1000
0001
0010
0100
,
1001
0110
1001
0110
,
1000
0010
1000
0001
,
0100
0001
0100
0010
,
1000
0010
1000
0001
,
2002
3003
0000
0000
;

//---------------dance-single - ----------------
#NOTES:
     dance-single:
     :
     Medium:
     7:
     0.281,0.254,0.037,0.120,0.028:
0000
0000
0000
0000
,
0010
1000
0001
0100
,
0001
0000
0000
1000
0000
0000
0010
0000
0000
0100
0010
0000
,
0220
0000
0000
0330
0000
0000
0000
0000
0000
0001
1000
0000
,
2002
3003
0000
0010
,
0010
0001
0100
1000
,
0010
0000
1000
0000
0010
0000
0001
0010
,
0202
0000
0303
0000
0000
0000
1000
0100
,
2020
0000
3030
0000
0000
0000
0010
0100
,
0010
0000
0000
0100
0000
0000
0010
0000
0000
0000
1000
0000
0001
0000
0000
0000
,
0100
0001
1000
0000
0010
1000
0001
0000
,
1000
0000
0000
0010
0000
0000
1000
0000
0000
0000
0010
0000
0100
0000
0000
0000
,
0010
0100
1000
0000
1000
0100
0010
0000
,
0001
0000
0000
0100
0000
0000
1000
0000
0000
0000
0001
0000
1000
0000
0000
0000
,
0001
0100
0010
0000
0100
0001
1000
0000
,
1000
0000
0000
0010
0000
0000
0001
0000
0100
0000
0001
0000
1000
0000
0010
0000
,
1000
0000
0010
0000
0100
0000
0010
0200
,
0310
0000
0010
1000
0010
0000
0001
0100
,
0001
0000
0100
0010
1000
0000
0001
0100
,
0010
0000
0001
0010
0100
0000
0010
1000
,
0100
0000
1000
0000
0001
0000
0100
0002
,
0103
0000
0001
0010
0001
0000
0100
0010
,
0001
0000
0100
0010
0100
0000
0010
0100
,
1000
0000
1000
0100
1000
0000
0010
1000
,
0002
0000
0003
0000
,
0010
0010
0001
0001
,
0100
0100
1000
1000
,
0001
0010
0001
0000
1000
0010
1000
0000
,
0100
0010
0100
0000
0100
0001
1000
0000
,
0100
0100
1000
1000
,
0010
0010
0001
0001
,
1000
0100
1000
0000
0001
0100
0001
0000
,
0010
0100
0010
0000
0010
1000
0001
0000
,
0001
0100
1000
0000
0010
1000
0001
0010
,
0100
0010
0001
0000
0001
0100
0010
0000
,
1000
0010
0100
0000
0001
0100
1000
0000
,
0100
0010
0100
0000
0100
0001
1000
0000
,
1000
0010
0001
0000
0100
0001
1000
0100
,
0010
0100
1000
0000
1000
0010
0100
0000
,
0002
0200
0303
0000
0000
0000
0000
0000
;

//---------------dance-single - ----------------
#NOTES:
     dance-single:
     :
     Hard:
     14:
     0.439,0.435,0.065,0.138,0.448: // measure 1
0000
0000
0000
0000
,  // measure 2
1000
0010
0000
0010
1000
0000
0010
0100
0000
0001
0010
0000
,  // measure 3
0010
0001
0000
0100
0010
0000
0100
0010
0000
0010
1000
0000
,  // measure 4
2002
0000
0000
3003
0000
0000
0000
0000
0000
0100
0010
0000
,  // measure 5
0220
0000
0330
0000
0000
0000
0010
0100
,  // measure 6
0010
1000
0000
1000
0100
0000
0100
0010
0000
0010
0001
0000
,  // measure 7
0001
0000
0100
0000
0000
0000
0010
0000
1000
0000
0000
0000
1000
0000
0010
0000
0000
0000
0010
0000
0000
0100
0000
0000
,  // measure 8
2020
0000
3030
0000
0000
0100
1000
0010
,  // measure 9
2002
0000
0000
0000
3003
0000
0000
0000
0000
0000
0001
0000
0001
0010
0100
0000
,  // measure 10
1000
0000
0000
0010
0000
0000
1000
0000
0100
0010
0100
0000
0010
0000
0100
0001
,  // measure 11
1000
0010
1000
0001
0100
0001
0010
0000
0100
0000
1000
0000
0010
0000
0000
0000
,  // measure 12
0001
0000
0000
0100
0000
0000
0001
0000
0010
0100
0010
0000
0100
0000
0010
1000
,  // measure 13
0001
0000
0001
0000
0100
0000
0010
1000
0010
0000
0001
0000
0100
0000
0000
0000
,  // measure 14
0100
0000
0000
0001
0000
0000
0100
0000
1000
0001
1000
0000
0001
0000
1000
0010
,  // measure 15
0100
0001
0100
0010
1000
0010
0001
0000
1000
0000
0100
0000
0001
0000
0000
0000
,  // measure 16
0010
0000
0000
0100
0000
0000
0001
0000
0100
0001
0100
0000
0010
0000
1000
0000
,  // measure 17
0010
0000
0000
0000
0100
0010
0000
0000
0110
0000
0000
0000
1001
0000
0020
0000
,  // measure 18
0130
0000
0010
0000
0100
0000
0001
0000
0010
0000
0100
0000
1000
0010
0100
0000
,  // measure 19
0010
0000
1000
0000
0001
0000
0100
0000
0010
0000
0100
0000
1000
0100
0010
0000
,  // measure 20
0100
0000
0001
0000
0100
0000
0001
0000
0010
0000
0001
0000
0100
0001
0010
0000
,  // measure 21
0001
0000
0000
0000
0100
0001
0000
0000
1000
0000
0000
0000
1001
0000
0200
0000
,  // measure 22
0310
0000
0000
0000
0000
0000
0010
0000
0000
0000
0000
0000
0100
0000
0000
0001
0000
0000
1000
0000
0000
0010
0000
0000
1000
0000
0000
0000
0100
0000
0000
0000
0001
0000
0000
0000
0100
0000
0000
0000
0001
0000
0000
0000
0010
0000
0000
0000
,  // measure 23
0001
0000
0100
0000
0010
0000
1000
0000
0001
0000
0100
0000
0010
0100
0010
0000
,  // measure 24
0001
0000
0000
0000
0000
0000
0100
0000
0000
0000
0000
0000
1000
0000
0000
0010
0000
0000
0100
0000
0000
0001
0000
0000
0100
0000
0000
0000
0001
0000
0000
0000
1000
0000
0000
0000
0010
0000
0000
0000
1000
0000
0000
0000
0001
0000
0000
0000
,  // measure 25
0200
0002
0000
0000
0000
0000
0303
0000
,  // measure 26
0010
0001
0000
0100
0010
0000
0010
0100
0000
1000
0100
0000
,  // measure 27
0010
0000
0000
0000
0001
0000
0000
0000
0000
0000
0000
0000
0001
0000
0000
0000
0100
0000
0000
0000
0000
0000
0000
0000
0010
0000
0000
0000
1000
0000
0000
0000
0000
0001
0000
0000
1000
0000
0000
0000
0001
0000
0000
0000
0000
0000
0000
0000
,  // measure 28
0100
0000
0010
0000
0001
0000
0010
0001
0000
0000
0100
0000
0000
0000
0010
0000
,  // measure 29
0010
0000
1000
0000
0001
0000
0100
0010
0000
0000
1000
0000
0000
0000
0000
0000
,  // measure 30
0100
1000
0000
0010
0100
0000
0100
0010
0000
0001
0010
0000
,  // measure 31
0100
1000
0000
1000
0010
0000
0100
0001
0000
0001
1000
0000
,  // measure 32
0010
0000
0100
0000
1000
0000
0100
1000
0000
0000
0010
0000
0000
0000
0100
0010
,  // measure 33
0000
0000
0001
0000
1000
0000
0010
0100
0010
0000
0100
0010
1000
0000
0001
0000
,  // measure 34
0100
0010
1000
0000
1000
0100
0010
0001
0100
0000
0010
0000
1000
0000
0001
0000
,  // measure 35
0100
0000
0001
0000
0010
0000
0001
0100
0010
0000
0100
0010
1000
0000
0001
0000
,  // measure 36
0100
0000
0000
0000
0100
0001
0000
0000
0010
0000
0000
0000
1000
0000
0020
0000
,  // measure 37
0130
0000
0000
0000
0000
0000
1000
0000
0000
0000
0000
0000
0001
0000
0000
0010
0000
0000
0100
0000
0000
0010
0000
0000
0100
0000
0000
0000
0010
0000
0000
0000
1000
0000
0000
0000
0001
0000
0000
0000
0100
0000
0000
0000
0001
0000
0000
0000
,  // measure 38
1000
0010
0100
0000
0010
0100
0001
0100
0010
0000
0100
0000
1000
0000
0001
0000
,  // measure 39
1000
0000
0000
0000
0000
0000
0100
0000
0000
0000
0000
0000
0010
0000
0000
1000
0000
0000
0010
0000
0000
1000
0000
0000
0001
0000
0000
0000
0100
0000
0000
0000
0010
0000
0000
0000
1000
0000
0000
0000
0100
0000
0000
0000
0010
0000
0000
0000
,  // measure 40
2000
0002
3003
0000
0000
0000
0000
0000
;
