#TITLE:SG;
#SUBTITLE:;
#ARTIST:DJ Snake, Ozuna, Megan Thee Stallion & LISA;
#TITLETRANSLIT:;
#SUBTITLETRANSLIT:;
#ARTISTTRANSLIT:;
#CREDIT:;
#BANNER:SG.png;
#BACKGROUND:SG-bg.png;
#LYRICSPATH:;
#CDTITLE:;
#MUSIC:SG.mp3;
#OFFSET:-1.100;
#SAMPLESTART:3.500;
#SAMPLELENGTH:15.000;
#SELECTABLE:YES;
#BPMS:0.000=100.020;
#STOPS:;
#BGCHANGES:-2.400=SG.avi=1.000=0=0=0,
99999=-nosongbg-=1.000=0=0=0 // don't automatically add -songbackground-
;

//---------------dance-single - ----------------
#NOTES:
     dance-single:
     :
     Easy:
     3:
     0.192,0.182,0.114,0.086,0.000:
0000
0000
0000
0000
0000
0000
0001
0001
,
0000
0001
0000
0100
,
0000
0000
0010
0000
0000
0000
1000
1000
,
0000
0010
0000
0100
,
0000
0000
0010
0000
0000
0000
0100
0100
,
0000
0010
0000
0100
,
0000
0000
0001
0000
0000
0000
0010
0010
,
0000
0100
0000
0010
,
0000
0000
1000
0000
0000
0000
1000
1000
,
0000
1000
0010
0100
,
0010
0100
0001
1001
,
0000
0010
0110
0100
,
0000
0100
0000
0010
,
1000
0010
0001
0010
,
1000
0001
1000
0001
,
0001
0010
1000
0010
,
0001
0100
0010
0110
,
0000
0100
0100
0010
,
0100
0001
0101
0000
,
0000
0010
1000
0010
,
0100
0001
1001
0000
,
0000
0220
0330
0000
,
0100
0010
1010
0000
,
0000
1000
0010
0001
,
0010
1000
1100
0000
,
0000
0010
0000
0100
,
0000
0000
0010
0000
0000
0000
0010
0010
,
0000
1000
0000
0010
,
0000
0000
1000
0000
0000
0000
0100
0100
,
0000
0001
0100
0010
,
0100
0010
1000
1001
,
0000
0100
0110
0010
,
0000
0010
0000
0100
,
0001
0100
1000
0100
,
0001
1000
0001
1000
,
1000
0100
0001
0100
,
1000
0010
0100
0110
,
0000
0010
0010
0100
,
0010
1000
1010
0000
,
0000
0100
0001
0100
,
0010
1000
1001
0000
,
0000
0220
0330
0000
,
0010
0100
0101
0000
,
0000
0001
0100
1000
,
0100
0001
0011
0000
,
0000
0100
0000
0010
,
0000
0000
0100
0000
0000
0000
0100
0100
,
0000
0001
0000
0100
,
0000
0000
0001
0000
0000
0000
0010
0010
,
0000
0010
0000
1000
,
0000
0000
0010
0000
0000
0000
0010
0010
,
0000
0001
0000
0010
,
0000
0000
0001
0000
0000
0000
1000
0001
,
2000
3002
2003
0000
,
0000
0000
3020
0030
,
0002
2003
3002
0000
,
0000
0000
0203
0300
;

//---------------dance-single - ----------------
#NOTES:
     dance-single:
     :
     Beginner:
     1:
     0.138,0.122,0.021,0.050,0.000:
0000
0000
0000
0000
,
0000
0001
0000
0001
,
0000
0100
0000
0010
,
0000
1000
0000
1000
,
0000
0010
0000
0100
,
0000
0010
0000
1000
,
0000
0001
0000
0100
,
0000
0010
0000
0100
,
0000
0001
0000
1000
,
0000
1001
0000
0010
,
0000
0110
0000
0010
,
0000
0010
0000
1000
,
0000
0010
0000
0100
,
0000
0100
0100
0100
,
0000
0001
0001
0001
,
0000
1000
1000
1000
,
0000
0010
0010
0010
,
0000
0100
0100
0000
,
0000
1000
0000
0001
,
0000
0001
0000
0100
,
0000
0010
0000
1000
,
0000
1000
1000
0000
,
0000
0001
0000
0100
,
0000
0010
0000
0100
,
0200
0000
0000
0300
,
0000
0010
0010
0010
,
0000
0001
0001
0001
,
0000
1000
1000
1000
,
0000
0010
0010
0010
,
0000
0100
0000
0100
,
0000
0010
0000
1000
,
0000
1000
0000
0001
,
0000
0100
0000
0001
,
0000
0100
0100
0100
,
0000
0001
0001
0001
,
0000
1000
1000
1000
,
0000
0010
0000
1000
,
0000
0010
0010
0000
,
0000
0001
0000
1000
,
0000
1000
0000
0010
,
0000
0100
0000
0001
,
0000
0001
0001
0000
,
0000
1000
0000
0010
,
0000
0100
0000
0010
,
0020
0000
0000
0030
,
0000
0100
0100
0100
,
0000
1000
1000
1000
,
0000
0001
0001
0001
,
0000
0100
0100
0100
,
0000
0010
0100
0010
,
0000
1000
0001
1000
,
0000
0001
1000
0001
,
0000
0100
0010
0100
,
0200
0000
0000
0300
,
0020
0000
0000
0030
,
2000
0000
0000
3000
,
2002
0000
0000
3003
;

//---------------dance-single - ----------------
#NOTES:
     dance-single:
     :
     Medium:
     7:
     0.344,0.303,0.086,0.071,0.050:
0000
0000
0000
0000
0000
0000
1000
0010
,
1000
0000
0000
1000
0000
0000
0010
0000
0100
0000
0000
0000
0010
0000
0000
0000
,
1001
0000
0000
0100
0001
0000
0100
0001
,
0010
0000
0000
0010
0000
0000
0010
0000
0100
0000
0000
0000
0010
0000
0000
0000
,
0110
0000
0000
0010
0100
0000
0010
1000
,
0001
0000
0000
0001
0000
0000
0001
0000
1000
0000
0000
0000
0100
0000
0000
0000
,
1010
0000
0000
0100
0010
0000
0100
0010
,
0100
0000
0000
0100
0000
0000
0100
0000
0001
0000
0000
0000
1000
0000
0000
0000
,
0101
0000
0000
0100
0001
0000
0100
0001
,
0100
0010
0100
0000
0010
0100
0001
0000
,
1000
0010
1000
0000
0100
0010
1000
0000
,
0010
0100
0010
0000
0100
0010
0100
0000
,
0001
1000
0010
1000
0001
0100
0010
0000
,
1000
1000
0100
0100
0010
0010
0001
0000
,
0100
0010
1000
0010
0100
0001
0100
0000
,
0010
0100
1000
0010
0100
0001
1000
0000
,
1000
0100
0010
0001
0100
0010
1000
0010
,
0100
0000
0001
0010
0100
0000
0010
0000
,
0010
0100
1000
0001
1000
0000
0010
0010
,
0000
0100
0010
1000
0010
0100
0010
1000
,
0010
0001
1000
0100
0001
0000
0100
0100
,
0010
0000
0210
0000
0300
0000
0000
0001
,
0010
0100
1000
0010
0100
0000
1000
0001
,
0000
0100
0001
0100
0010
0100
0010
1000
,
0100
0001
0100
1000
1000
0000
0010
0100
,
0010
0000
0000
0010
0000
0000
0010
0000
0100
0000
0000
0000
0100
0000
0000
0000
,
1010
0000
0000
1000
0010
0000
0100
0100
,
0001
0000
0000
0001
0000
0000
0001
0000
1000
0000
0000
0000
0010
0000
0000
0000
,
1010
0000
0000
0010
1000
0000
0010
0100
,
0010
0100
0010
0000
0100
0010
1000
0000
,
0001
0000
0000
0100
0000
0000
0000
0000
0010
0000
0100
0000
0001
0000
0000
0000
,
0100
0010
0100
0000
0010
0100
0010
0000
,
1000
0000
0000
0001
0000
0000
0001
0000
0000
0000
0000
0000
0100
0000
0000
0000
,
0001
0001
0010
0010
0100
0100
1000
0000
,
0010
0000
0000
0100
0000
0000
0100
0000
0010
0000
1000
0000
0010
0000
0000
0000
,
0100
0010
0001
0100
0010
1000
0001
0000
,
0001
0000
0000
0010
0000
0000
1000
0000
0010
0000
0100
0000
0001
0000
0100
0000
,
0010
0000
1000
0100
0010
0000
0100
0000
,
0100
0010
0001
1000
0001
0000
0100
0100
,
0000
0000
0100
0001
0100
0010
0100
0001
,
0100
1000
0001
0010
1000
0000
0010
0010
,
0100
0120
0030
0100
,
0100
0010
0001
0100
0010
0000
0001
1000
,
0000
0010
1000
0010
0100
0010
0100
0001
,
0010
1000
0010
0001
0001
0000
0100
0010
,
0100
0000
0000
0100
0000
0000
0100
0000
0010
0000
0000
0000
0010
0000
0000
0000
,
0101
0000
0000
0001
0100
0000
0010
0010
,
1000
0000
0000
1000
0000
0000
1000
0000
0001
0000
0000
0000
0100
0000
0000
0000
,
0101
0000
0000
0100
0001
0000
0100
0010
,
0010
0000
0000
0010
0000
0000
0010
0000
0100
0000
0000
0000
0100
0000
0000
0000
,
1010
0000
0000
1000
0010
0000
0100
0100
,
0001
0000
0000
0001
0000
0000
0001
0000
1000
0000
0000
0000
0010
0000
0000
0000
,
1010
0000
0000
0010
1000
0000
0010
0100
,
0020
2030
3020
0030
,
0200
0000
0000
0010
0310
0000
0000
0000
,
0002
0023
0230
0300
,
2000
0000
0000
0010
3010
0000
0000
0000
;

//---------------dance-single - ----------------
#NOTES:
     dance-single:
     :
     Hard:
     12:
     0.433,0.529,0.179,0.021,0.300: // measure 1
0000
0000
0000
0000
0000
0000
0010
0010
,  // measure 2
0100
0000
0000
0010
0000
0010
0100
0000
0001
0000
0000
0000
0010
0000
0000
0000
,  // measure 3
1001
0000
0000
0000
0000
0000
0001
1000
0010
0000
0000
0000
1000
0000
0010
0000
,  // measure 4
1000
0000
0000
0010
0000
0010
1000
0000
0010
0000
0000
0000
0100
0000
0000
0000
,  // measure 5
0101
0000
0000
0000
0000
0100
0010
0000
0100
0000
0000
0000
0100
0000
0100
0000
,  // measure 6
0001
0000
0000
1000
0000
1000
0001
0000
0100
0000
0000
0000
0100
0000
0000
0000
,  // measure 7
1100
0000
0000
0000
0000
0000
1000
0001
0010
0000
0000
0000
1000
0000
1000
0000
,  // measure 8
0100
0000
0000
1000
0000
1000
0100
0000
1000
0000
0000
0000
0001
0000
0000
0000
,  // measure 9
0011
0000
0000
0000
0000
0100
0001
0000
0100
0000
0010
0000
0000
0010
0100
0010
,  // measure 10
1000
0001
0100
0001
1000
0010
1000
0000
0000
0000
0010
0000
0000
0100
0010
1000
,  // measure 11
0010
0100
0001
1000
0010
1000
0001
0000
0000
0000
0100
0000
0000
0001
1000
0010
,  // measure 12
1000
0001
0100
0010
0100
0000
0010
1000
0010
0000
0100
0001
0010
0000
1000
0000
,  // measure 13
1000
0010
0100
0001
0100
0010
1000
0001
0100
0010
1000
0010
0100
0000
0001
0000
,  // measure 14
0001
0000
0101
0000
0100
0000
1010
0000
1000
0001
1000
0000
0110
0000
0000
0000
,  // measure 15
1000
0010
1000
0000
0100
0010
0100
0001
1000
0010
0100
0010
1000
0000
0000
0000
,  // measure 16
0001
0100
0010
0000
0100
0000
0010
0000
0100
0010
1000
0000
0001
0000
0000
0000
,  // measure 17
1000
0001
0100
0001
1000
0000
0010
0000
0001
1000
0010
1000
0001
0000
0001
0000
,  // measure 18
0100
0000
0010
0100
0010
0000
1010
0000
,  // measure 19
0001
0010
0100
1000
0010
0000
0010
0100
,  // measure 20
0010
1000
0010
0001
0010
1000
0100
0010
,  // measure 21
0001
0100
0010
0100
0001
0000
1000
0010
,  // measure 22
0001
0000
0102
0000
0103
0000
0000
0010
,  // measure 23
1000
1000
0010
0100
0010
0000
0100
0010
,  // measure 24
0100
0001
0010
0100
1000
0010
0100
0010
,  // measure 25
0001
1000
0010
1000
1000
0000
1000
1000
,  // measure 26
0010
0000
0000
1000
0000
1000
0010
0000
0001
0000
0000
0000
1000
0000
0000
0000
,  // measure 27
0101
0000
0000
0000
0000
0000
0001
1000
0010
0000
0000
0000
0100
0000
1000
0000
,  // measure 28
0100
0000
0000
1000
0000
1000
0100
0000
1000
0000
0000
0000
0010
0000
0000
0000
,  // measure 29
0101
0000
0000
0000
0000
0001
0100
0000
0010
0000
0000
0000
0100
0000
0010
0000
,  // measure 30
0100
0010
0100
0000
0001
1000
0001
0000
1000
0000
0100
0000
0010
0000
0001
0000
,  // measure 31
0001
0000
0000
0010
0000
0000
0100
0000
1000
0000
0010
0000
0001
0000
0000
0000
,  // measure 32
1000
0010
1000
0000
0001
1000
0100
0000
0001
0000
0100
0000
0010
0000
1000
0000
,  // measure 33
0010
0000
0000
0001
0000
0000
0100
0000
0000
0000
0110
0000
0000
0000
0100
0010
,  // measure 34
0100
0000
0010
0000
0110
0000
0100
0010
1000
0000
0010
0000
1010
0000
0100
0000
,  // measure 35
1000
0000
0000
1000
0000
0000
0001
0000
0100
0000
0000
0010
0000
0000
0010
0100
,  // measure 36
0010
0000
0100
0000
0110
0000
0010
0100
0001
0000
0100
0000
0101
0000
0010
0000
,  // measure 37
0001
0000
0000
0001
0000
0000
1000
0000
0010
0000
0000
0100
0000
0000
0010
0000
,  // measure 38
1000
0000
0100
0010
0100
0000
0101
0000
,  // measure 39
1000
0100
0010
0001
0100
0000
0100
0010
,  // measure 40
0000
0000
0100
1000
0100
0001
0010
0100
,  // measure 41
1000
0010
0100
0010
1000
0000
0001
0100
,  // measure 42
1000
2010
3010
0100
,  // measure 43
0001
0001
0100
0010
0100
0000
0010
0100
,  // measure 44
0000
1000
0100
0010
0001
0100
0010
0100
,  // measure 45
1000
0001
0100
0001
0101
1000
1001
0010
,  // measure 46
0110
0000
0000
0100
0000
0100
0010
0000
1000
0000
0000
0000
0100
0000
0000
0000
,  // measure 47
1001
0000
0000
0000
0000
0000
1000
0001
0100
0000
0000
0000
0001
0000
0100
0000
,  // measure 48
0001
0000
0000
0100
0000
0100
0001
0000
0100
0000
0000
0000
0010
0000
0000
0000
,  // measure 49
1010
0000
0000
0000
0000
0010
0100
0000
0010
0000
0000
0000
0010
0000
0010
0000
,  // measure 50
1000
0000
0000
0001
0000
0001
1000
0000
0010
0000
0000
0000
0010
0000
0000
0000
,  // measure 51
0011
0000
0000
0000
0000
0000
0001
1000
0100
0000
0000
0000
0001
0000
0001
0000
,  // measure 52
0010
0000
0000
0001
0000
0001
0010
0000
0001
0000
0000
0000
1000
0000
0000
0000
,  // measure 53
1100
0000
0000
0000
0000
0010
1000
0000
0010
0000
0000
0000
0100
0000
0100
0000
,  // measure 54
0010
0000
0100
0010
0000
0100
0010
0000
0000
0000
0000
0000
0000
0000
0000
0000
,  // measure 55
1000
0000
0000
1000
0000
0000
1000
0000
0000
0000
0000
0000
0000
0000
0000
0000
,  // measure 56
0001
0000
1000
0010
0000
0100
0001
0000
0000
0000
0000
0000
0000
0000
0000
0000
,  // measure 57
0010
0000
0000
0010
0000
0000
0020
0000
0000
0000
0000
0000
0000
0000
0000
0000
,  // measure 58
0030
0000
0000
0000
;
