#TITLE:SCIENTIST;
#SUBTITLE:;
#ARTIST:TWICE;
#TITLETRANSLIT:;
#SUBTITLETRANSLIT:;
#ARTISTTRANSLIT:;
#CREDIT:;
#BANNER:SCIENTIST.png;
#BACKGROUND:SCIENTIST-bg.png;
#LYRICSPATH:;
#CDTITLE:;
#MUSIC:SCIENTIST.mp3;
#OFFSET:1.100;
#SAMPLESTART:106.360;
#SAMPLELENGTH:15.000;
#SELECTABLE:YES;
#BPMS:0.000=113.000;
#STOPS:;
#BGCHANGES:2.000=SCIENTIST.avi=1.000=0=0=0,
99999=-nosongbg-=1.000=0=0=0 // don't automatically add -songbackground-
;

//---------------dance-single - ----------------
#NOTES:
     dance-single:
     :
     Easy:
     4:
     0.208,0.228,0.096,0.116,0.000:
0000
0000
0000
0000
,
0000
0000
0000
0000
,
0000
0000
0000
0000
,
0000
0001
0001
0010
,
0000
0100
0010
0100
,
0000
0010
1000
0010
,
0000
1000
0010
0010
,
0000
0100
0010
1000
,
0000
1000
0001
0001
,
0000
0001
0010
0100
,
0000
1000
0100
0010
,
0002
1000
0000
1003
,
0200
0010
0000
0310
,
0020
1000
0000
1030
,
2000
0001
0000
3001
,
2000
0001
0000
3001
,
0020
0100
0000
0130
,
0200
0001
0000
0301
,
2002
0000
3003
0000
,
1001
0100
0001
0000
,
0100
0010
1000
0000
,
1000
0010
1000
0000
,
0010
0100
0001
0000
,
0101
0001
0100
0000
,
0100
0010
0100
0000
,
0010
0100
1000
0000
,
0002
0000
0003
0000
,
0101
0100
0001
0000
,
0010
1000
0010
0000
,
1000
0100
1000
0000
,
0100
0010
1000
0000
,
1010
0000
0100
0000
,
0010
0000
1000
0000
,
0001
0000
0100
0000
,
0001
0010
0100
1000
,
0000
0001
0100
0001
,
0000
0100
0100
0010
,
0000
0010
1000
0100
,
0000
0010
0010
1000
,
0000
1000
0100
0001
,
0000
1000
0010
1000
,
2020
0000
3030
0000
,
0202
0000
0303
0000
,
0001
0100
0001
0000
,
1000
0010
1000
0000
,
1000
0001
1000
0001
,
0100
0010
0100
0110
,
0010
1000
0001
0000
,
0001
1000
0010
0000
,
0100
0010
1000
0001
,
0202
0000
0303
0000
,
1001
0010
1000
0000
,
0010
0100
0001
0000
,
0001
0100
0001
0000
,
0100
0010
1000
0000
,
1010
1000
0010
0000
,
0010
0100
0010
0000
,
0100
0010
0001
0000
,
2000
0000
3000
0000
,
1010
0010
1000
0000
,
0100
0001
0100
0000
,
0001
0010
0001
0000
,
0010
0100
0001
0000
,
0101
0001
0100
0000
,
0010
0100
0010
0000
,
1000
0100
1000
0000
,
0001
0000
1000
0000
0001
0000
0000
1001
;

//---------------dance-single - ----------------
#NOTES:
     dance-single:
     :
     Beginner:
     1:
     0.163,0.182,0.034,0.061,0.000: // measure 1
0000
0000
0000
0000
,  // measure 2
0000
0000
0000
0000
,  // measure 3
0000
0000
0000
0000
,  // measure 4
0000
1000
0000
1000
,  // measure 5
0000
0001
0001
0001
,  // measure 6
0000
0010
0000
0010
,  // measure 7
0000
0100
0100
0100
,  // measure 8
0000
1000
0000
1000
,  // measure 9
0000
0010
0010
0010
,  // measure 10
0000
0010
0000
0010
,  // measure 11
0000
2002
0000
3003
,  // measure 12
0000
0100
0000
0010
,  // measure 13
0000
1000
0000
0001
,  // measure 14
0000
0100
0000
0001
,  // measure 15
0000
0100
0010
0100
,  // measure 16
0000
0010
0000
1000
,  // measure 17
0000
0001
0000
0100
,  // measure 18
0000
1000
0000
0001
,  // measure 19
0002
0000
0003
0000
,  // measure 20
0000
0100
0000
0100
,  // measure 21
0000
0001
1000
0001
,  // measure 22
0000
1000
0000
1000
,  // measure 23
0000
0100
0010
0100
,  // measure 24
0000
0010
0000
0010
,  // measure 25
0000
1000
0010
1000
,  // measure 26
0000
0100
0000
0100
,  // measure 27
0200
0000
0300
0000
,  // measure 28
0010
0010
0010
0000
,  // measure 29
1000
0100
1000
0000
,  // measure 30
0001
0100
0001
0000
,  // measure 31
1000
0001
1000
0000
,  // measure 32
0010
0100
0010
0000
,  // measure 33
0100
0010
0100
0000
,  // measure 34
0010
1000
0010
0000
,  // measure 35
0100
0001
0200
0300
,  // measure 36
0000
0010
0000
0100
,  // measure 37
0000
0010
0000
0100
,  // measure 38
0000
0001
0000
0001
,  // measure 39
0000
1000
0000
1000
,  // measure 40
0000
0010
0000
0100
,  // measure 41
0000
0001
0000
0100
,  // measure 42
0000
0001
0000
1000
,  // measure 43
2000
0000
3000
0000
,  // measure 44
0110
0000
0000
0000
,  // measure 45
1001
0000
0000
0000
,  // measure 46
1000
0001
1000
0001
,  // measure 47
0100
0010
0100
0010
,  // measure 48
0000
0010
0000
0100
,  // measure 49
0000
0001
0000
1000
,  // measure 50
0001
0001
1000
1000
,  // measure 51
2002
0000
3003
0000
,  // measure 52
0000
0010
0000
0010
,  // measure 53
0000
1000
0001
1000
,  // measure 54
0000
0001
0000
0001
,  // measure 55
0000
0010
0100
0010
,  // measure 56
0000
0100
0000
0100
,  // measure 57
0000
0001
0100
0001
,  // measure 58
0000
0010
0000
0010
,  // measure 59
0020
0000
0030
0000
,  // measure 60
0100
0100
0100
0000
,  // measure 61
0001
0010
0001
0000
,  // measure 62
1000
0010
1000
0000
,  // measure 63
0010
0010
0010
0000
,  // measure 64
0100
0010
0100
0000
,  // measure 65
1000
0010
1000
0000
,  // measure 66
0001
0001
0001
0000
,  // measure 67
1000
0000
0010
0000
1000
0000
0000
1001
;

//---------------dance-single - ----------------
#NOTES:
     dance-single:
     :
     Medium:
     7:
     0.346,0.365,0.055,0.130,0.014:
0000
0000
0000
0000
,
0000
0000
0000
0000
,
0000
0000
0000
0000
,
0010
0010
0000
0100
0010
0000
0100
0000
,
0001
0001
0000
0100
0001
0000
1000
0000
,
0010
1000
0000
1000
0010
0000
0100
0000
,
0001
1000
0000
0001
1000
0000
0100
0000
,
1000
1000
0000
0001
0001
0000
0100
0000
,
0010
0100
0000
0100
0100
0000
0010
0000
,
0100
0010
0000
1000
0100
0000
1000
0000
,
0001
0100
0000
0010
0100
0000
0010
0000
,
0020
0000
0100
0100
0130
0000
0010
0000
,
2000
0000
0001
0001
3001
0000
0001
0000
,
0200
0000
0010
0010
0310
0000
0010
0000
,
1002
0000
0003
1000
0002
0000
0103
0000
,
0200
0000
0010
0010
0310
0000
0100
0000
,
0002
0000
1000
1000
1003
0000
1000
0000
,
0020
0000
0100
0100
0130
0000
0100
0000
,
2002
0000
0000
0000
0000
0000
3003
0000
0001
0000
1000
0001
1000
0000
0010
0000
,
0100
0000
0010
0100
0010
0000
1000
0000
,
0001
0000
0001
0100
0001
0000
0100
0000
,
0010
0000
1000
0010
0100
0000
0010
0000
,
0100
0010
0100
0010
0001
1000
0100
0010
,
0001
0000
0001
0100
0010
0000
0100
0000
,
0010
0000
0100
0010
1000
0000
0001
0000
,
0100
0000
0010
1000
0001
0000
0100
0010
,
0000
0000
0000
0000
0010
0000
0000
0000
0100
0000
0001
1000
0001
0000
1000
0000
,
0002
0000
0000
0003
0001
0000
1000
2000
,
0000
0000
3000
0000
0010
0000
0010
1000
,
1010
0000
0010
0000
0100
0010
0100
0000
,
0001
0000
0100
0001
1000
0000
0001
0000
,
0001
0000
0100
0001
0100
0000
0010
0000
,
1000
0000
0010
1000
0100
0000
1000
0000
,
0010
0000
0100
0010
0100
0000
0110
0000
,
0010
1000
0100
0000
0100
1000
0010
0000
,
1000
1000
0100
0100
,
0010
0010
0001
0001
,
0001
1000
0010
0100
,
0010
1000
0001
0100
,
0010
0001
1000
0100
,
1000
0001
0100
0001
,
0002
0000
0003
0000
,
2000
0000
0000
0000
0000
0000
0000
0000
3010
0000
1000
0010
1000
0000
0001
0000
,
0100
0001
0000
0001
0100
0000
0010
0000
,
0100
0010
0000
0010
0100
0000
0010
0000
,
1000
0010
1000
0010
0100
0001
0100
0001
,
2001
0000
3010
0010
0000
0010
0100
0010
,
0100
0000
0010
0010
0000
0100
0010
0100
,
0010
0000
0100
0100
0000
0010
0100
0010
,
1000
1000
0001
0001
1000
1000
0001
0001
,
2002
0000
0000
0000
0000
0000
0000
0000
3003
0000
0010
0100
0010
0000
0100
0000
,
0010
0000
0100
0010
0100
0000
0001
0000
,
1000
0000
1000
0010
1000
0000
0010
0000
,
0100
0000
0001
0100
0010
0000
0100
0000
,
0010
0100
0010
0100
1000
0001
0010
0100
,
1000
0000
1000
0010
0100
0000
0010
0000
,
0100
0000
0010
0100
0001
0000
1000
0000
,
0010
0000
0100
0001
1000
0000
0010
0100
,
0110
0000
0001
0010
0100
1000
0001
0000
,
0202
0000
0303
0000
0001
0100
0001
0000
,
0100
0000
0010
0000
0010
1000
0100
0000
,
0100
0000
0010
0000
1000
1000
0010
0000
,
0001
0000
0100
0000
0010
0001
1000
0000
,
0010
0000
0100
0000
1000
0010
1000
0000
,
0010
0000
0100
0000
0100
0001
0010
0000
,
0010
0000
0100
0000
0001
0001
0100
0000
,
1000
0000
0010
0000
0100
1000
0001
1000
;

//---------------dance-single - ----------------
#NOTES:
     dance-single:
     :
     Hard:
     13:
     0.532,0.525,0.280,0.355,0.239:
0000
0000
0000
0000
,
0000
0000
0000
0000
,
0000
0000
0000
0000
0000
0000
0000
0000
0000
0000
0000
0000
0000
0000
0000
0100
,
0001
0100
0000
0000
0001
0100
0001
0000
0100
0000
0010
0000
0000
0000
0100
0000
,
0010
0000
0000
0000
1000
0000
0010
0000
0200
0000
0000
0000
0301
0000
0000
0100
,
0001
0100
0000
0000
1000
0010
0100
0010
1000
0000
1000
0001
0000
0000
0001
0000
,
0100
0100
0001
1000
0020
0000
1030
0010
,
0010
0000
0100
0000
0010
0000
1000
0000
0001
0000
0100
0001
0000
0000
0001
0000
,
0010
0100
1000
0100
2000
0000
3001
0000
,
0000
0000
0010
0000
0001
0000
1000
0010
0100
0000
0010
0100
0000
0000
0001
1000
,
0001
0100
0010
0100
0001
1000
0010
1000
0000
0000
0000
0000
0100
0000
0000
0000
,
2020
0000
0030
3010
1000
0001
0100
0020
,
0200
0000
0300
0130
0010
1000
0001
0200
,
0002
0000
0003
0301
0100
0010
1000
2010
,
0000
0010
3010
0100
0001
0000
0101
0000
,
0202
0000
0303
0001
0100
1000
0001
2000
,
0002
0000
0003
3001
1000
0010
1000
0020
,
0200
0000
0300
0130
0001
0100
0001
1000
,
2002
0000
0003
0000
0000
0000
3000
0000
1000
0000
0001
0100
0010
0000
0100
0000
,
0102
0000
0103
0100
1020
0030
0020
1030
,
0000
1010
0000
1000
0010
0001
0010
1000
,
2002
3003
2020
3030
0202
0303
0100
0220
,
0030
0310
0000
0001
0100
1000
0100
0001
,
0102
0000
0103
1000
0210
0300
0200
0310
,
0000
0000
0110
0000
0000
0000
0100
0000
0010
1000
0100
1000
0000
0010
1000
0000
,
0000
0000
0100
0000
0100
0000
0000
0000
0100
0001
0100
0010
0000
0100
0001
0000
,
0000
0000
0001
0100
0010
0000
1000
0010
0100
0000
0010
0100
0010
0000
0100
0000
,
0220
0000
0000
0330
0000
0100
0010
1000
0010
0000
1000
0001
0000
0000
0202
0000
,
0000
0000
0000
0303
0000
0100
0001
1000
0010
0000
0100
0010
0000
0000
1000
0000
,
1000
0000
0010
0100
0001
0000
1000
0001
0100
0000
0100
0001
0000
0000
0001
1000
,
0010
0000
0100
0010
1000
0000
1000
0010
0000
0000
0010
0000
0010
0000
0100
0010
,
0100
0000
0001
0100
0010
0000
1000
0000
0100
0000
0000
1100
0000
0000
0010
0100
,
0010
0000
1000
0010
0100
0000
0001
0000
0010
0000
0000
0011
0000
0000
0001
0100
,
0010
0000
0100
0010
1000
0000
1000
0001
1000
0001
0000
0100
0000
0000
0100
0010
,
0100
0000
0001
0100
0001
0000
0100
0010
1000
0000
1000
0000
1000
0000
0000
0000
,
0010
0001
0100
0010
1000
0100
1000
0010
,
0100
0000
0010
0100
0010
0000
0101
0000
,
0100
1000
0010
0100
0001
0010
0001
0100
,
0010
0000
0100
0010
0100
0000
1010
0000
,
1000
1000
0010
0010
0100
0100
0001
0001
,
0100
0000
0000
0000
0010
0000
1000
0000
0100
0000
0000
0000
1001
0000
0000
0100
,
0001
0100
0010
1000
0000
0001
0000
0000
0001
0000
0000
0000
1000
0000
0000
0010
,
0100
0001
0100
0010
0000
1000
0000
0000
0010
0000
1000
0010
1000
0000
0001
0000
,
0100
0000
0010
0010
0000
0100
0010
1000
,
0001
0000
1010
1010
0000
0001
0100
1000
,
1000
0001
1000
0001
0100
0001
1000
0010
,
0100
0000
0110
0110
0000
1000
0100
0010
,
0001
0000
0001
0001
0000
0001
0010
0100
,
1000
0000
0000
0000
1001
0000
1001
0000
0000
0000
0100
0000
0010
0100
0010
0000
,
1000
0010
0001
0010
1000
0001
0100
2000
,
0002
0000
0000
0000
0000
0000
0000
0000
3003
0000
1000
0001
0100
0000
0010
0000
,
2010
0000
3010
0010
0201
0300
0200
0301
,
0000
0101
0000
0001
0100
1000
0100
0001
,
2002
3003
0202
0303
2020
3030
0010
0220
,
0300
0130
0000
1000
0010
0001
0010
1000
,
2010
0000
3010
0001
0120
0030
0020
0130
,
0000
0000
0110
0000
0000
0000
0010
0000
0100
0001
0010
0001
0000
0100
0001
0000
,
0000
0000
0010
0000
0010
0000
0000
0000
0010
1000
0010
0100
0000
0010
1000
0000
,
1010
0000
1000
0010
1000
0000
0001
0000
0100
0000
0010
0000
1000
0000
0001
0000
,
1001
0000
1000
0010
0100
0010
1000
0000
,
0010
0000
0100
0010
0100
0001
0010
0000
,
0100
0000
0001
0100
1000
0100
0001
0000
,
0010
0000
0010
0001
0100
1000
0010
0000
,
1000
0000
0100
0001
0100
1000
0100
0000
,
0010
0000
0100
0010
1000
0001
0100
0000
,
0010
0000
0100
0001
1000
0001
0100
0000
,
0010
0000
1000
0001
1000
0001
0100
1001
;
