#TITLE:Ryuusei;
#SUBTITLE:;
#ARTIST:Tia;
#TITLETRANSLIT:;
#SUBTITLETRANSLIT:;
#ARTISTTRANSLIT:;
#CREDIT:;
#BANNER:Ryuusei.png;
#BACKGROUND:Ryuusei-bg.png;
#LYRICSPATH:;
#CDTITLE:;
#MUSIC:Ryuusei.mp3;
#OFFSET:-0.700;
#SAMPLESTART:58.360;
#SAMPLELENGTH:15.000;
#SELECTABLE:YES;
#BPMS:0.000=102.000;
#STOPS:;
#BGCHANGES:;

//---------------dance-single - ----------------
#NOTES:
     dance-single:
     :
     Easy:
     4:
     0.196,0.279,0.114,0.164,0.000:
0000
0000
0000
0000
,
0000
0000
0000
0000
,
0000
0000
0000
0000
,
0000
0000
0000
0000
,
1001
0000
0000
0000
,
1100
0000
0000
0000
,
0011
0000
0000
0000
,
0110
0000
0000
0000
,
0010
0100
0010
0000
,
1000
1000
0010
0000
,
0001
0100
0010
0000
,
0010
0010
0001
0000
,
0001
1000
0001
0000
,
0100
0010
0001
0000
,
1000
0100
0010
0000
,
2000
3000
0002
0003
,
1001
0001
0100
0001
,
0202
0303
1000
0010
,
2020
3030
0100
0010
,
2002
3003
0100
0010
,
0220
0330
0100
0010
,
0022
0033
0001
1000
,
2200
3300
2200
3300
,
0010
0100
0010
0100
,
0110
0100
0010
1000
,
0010
0100
0010
0100
,
0001
0010
0001
1000
,
0010
0100
0010
0100
,
0001
0100
0001
1000
,
0010
1000
0001
0100
,
0002
0103
0200
0310
,
2000
0000
3100
0000
1000
0001
1000
0000
,
0010
1000
0010
0100
,
0010
0100
0001
0100
,
0010
1000
0010
0100
,
0010
1000
0001
0100
,
0001
0101
0000
1010
,
1000
0001
0100
0001
,
1000
0010
0001
0010
,
1000
0001
0100
0001
,
0020
0100
0000
0130
,
2000
0001
0000
3001
,
0002
0100
0000
0103
,
0200
0001
0000
0301
,
0000
0010
0000
1000
,
0000
0010
0000
0100
,
0000
0001
0000
1000
,
0000
0001
0000
1000
,
1001
0010
0000
0100
,
0000
0010
0000
1000
,
0000
0001
0000
0100
,
0000
0010
0000
0100
,
0000
0001
0000
0010
,
0000
0100
0000
1000
,
0000
0001
0000
1000
,
0000
0001
0000
1000
;

//---------------dance-single - ----------------
#NOTES:
     dance-single:
     :
     Beginner:
     1:
     0.123,0.139,0.079,0.000,0.000:
0000
0000
0000
0000
,
0000
0000
0000
0000
,
0000
0000
0000
0000
,
0000
0000
0000
0000
,
0110
0000
0000
0000
,
1001
0000
0000
0000
,
1010
0000
0000
0000
,
0101
0000
0000
0000
,
0000
0100
0000
0100
,
0000
0010
0000
0010
,
0000
1000
0000
1000
,
0000
0001
0000
0001
,
0000
0100
0000
0010
,
0000
1000
0000
0010
,
0000
1000
0000
0001
,
0000
0100
0000
0010
,
0000
0110
0000
0100
,
0000
0001
0000
1000
,
0000
0001
0000
0100
,
0000
0010
0000
1000
,
0000
1001
0000
0010
,
0000
0100
0000
0001
,
0000
1000
0000
0010
,
0000
0100
0010
0100
,
0110
0010
0000
0100
,
0000
0001
1000
0001
,
0000
0100
0000
0001
,
0000
0001
0001
0001
,
0000
1001
0000
1001
,
0000
1000
1000
1000
,
0000
0010
0000
0100
,
0000
0010
0100
0010
,
0000
0010
0000
0100
,
0000
1000
0100
1000
,
0000
0010
0000
0100
,
0000
0010
0001
0010
,
0000
0110
0000
1001
,
0000
1000
0010
1000
,
0000
0010
0000
0010
,
0000
0100
0010
0100
,
0000
0001
0000
0001
,
0000
1000
0000
1000
,
0000
0010
0000
0010
,
0000
0100
0000
0100
,
0000
0001
0000
1000
,
0000
0010
0000
1000
,
0000
0001
0000
0100
,
0000
0010
0000
1000
,
0000
0001
0000
1000
,
0000
0010
0000
0100
,
0000
0001
0000
0001
,
0000
1000
0000
0001
,
0000
0100
0000
0010
,
0000
0100
0000
1000
,
0000
0001
0000
1000
,
0000
0010
0000
0100
;

//---------------dance-single - ----------------
#NOTES:
     dance-single:
     :
     Medium:
     7:
     0.249,0.358,0.086,0.121,0.061:
0000
0000
0000
0000
,
0000
0000
0000
0000
,
0000
0000
0000
0000
,
0000
0000
0000
0000
,
0001
0100
0001
0000
,
1000
0010
1000
0000
,
0010
0100
0010
0000
,
0100
0000
0000
0010
0000
0000
0100
0000
0000
0010
0000
0000
1001
0000
0000
0000
,
0001
0000
0100
0000
0000
0001
0000
0100
0000
0000
0000
0000
0010
0000
0000
0000
,
1000
0000
0010
0000
0000
1000
0000
0010
0000
0000
0000
0000
0100
0000
0000
0000
,
0010
0000
0100
0000
0000
0010
0000
1000
0000
0000
0000
0000
0001
0000
0000
0000
,
0100
0000
0001
0000
0000
1000
0000
0010
0000
0000
0000
0000
0100
0000
0000
0000
,
1000
0000
0010
0000
0000
1000
0000
0010
0000
0000
0000
0000
0100
0000
0000
0000
,
0001
0000
0100
0000
0000
0001
0000
0100
0000
0000
0000
0000
0010
0000
0000
0000
,
0100
0000
0010
0000
0000
0100
0000
0001
0000
0000
0000
0000
1000
0000
0000
0000
,
0010
0000
1000
0000
0000
0001
0000
0000
0100
0000
0000
0000
0010
0000
0000
0000
,
0100
0010
1000
0010
,
0200
0310
0010
0100
,
0020
0130
0010
1000
,
0002
0103
0001
1000
,
2000
3010
0010
0100
,
0200
0301
0001
1000
,
2010
3010
0102
0103
,
0001
1000
0001
1000
0010
0100
0010
0100
,
0110
0000
0010
0000
1000
1000
0010
0000
,
0001
0000
0100
0000
0001
0100
0010
0000
,
1000
0000
0010
0000
0100
0010
0100
0000
,
0010
0000
1000
0000
0001
0100
0001
0000
,
1000
0010
1000
0000
0001
0100
0010
0000
,
0100
0010
1000
0001
,
0201
0301
0210
0310
,
1020
0000
1030
0000
1000
0001
1000
0000
,
0110
0000
0100
0000
0001
0001
0100
0000
,
1000
0000
0010
0000
1000
0010
0100
0000
,
0001
0000
0100
0000
0010
0100
0010
0000
,
0100
0000
0001
0000
1000
0010
1000
0000
,
0001
0100
0001
0000
1000
0010
0100
0000
,
0010
0100
0001
1000
,
1020
1030
0120
0130
,
0201
0000
0301
0000
0001
1000
0001
0000
,
0002
1000
0100
1003
,
0020
1000
1000
0130
,
2000
0010
0010
3100
,
0200
1000
0010
1300
,
0000
1000
0000
0001
,
0000
0100
0000
0001
,
0000
1000
0000
0010
,
0100
0010
0100
0010
1000
0001
1000
0001
,
1001
0001
0000
0100
,
0000
0010
0000
1000
,
0000
0001
0000
0100
,
0000
0001
0000
1000
,
0000
0010
0000
0100
,
0000
0001
0000
1000
,
0000
0010
0000
0100
,
0000
0010
0000
0100
;

//---------------dance-single - ----------------
#NOTES:
     dance-single:
     :
     Hard:
     10:
     0.323,0.320,0.057,0.228,0.086: // measure 1
0000
0000
0000
0000
,  // measure 2
0000
0000
0000
0000
,  // measure 3
0000
0000
0000
0000
,  // measure 4
0000
0000
0000
0000
0000
0000
0001
1000
,  // measure 5
0001
0000
0100
0000
0000
0010
0000
0100
0000
0000
0000
0000
0010
0000
0000
0000
,  // measure 6
1000
0000
0000
0010
0000
0000
1000
0000
0000
0010
0000
0000
0100
0000
0001
0000
,  // measure 7
0100
0000
0001
0000
0000
0100
0000
0010
0000
0000
0000
0000
0100
0000
0000
0000
,  // measure 8
0010
0000
0000
0100
0000
0000
0001
0000
0000
1000
0000
0000
1010
0000
0000
0000
,  // measure 9
1000
0000
0010
0000
0000
0100
0000
0010
0000
0000
0000
0000
0100
0000
0000
0000
,  // measure 10
0001
0000
0100
0000
0000
0010
0000
0100
0000
0000
0000
0000
0010
0000
0000
0000
,  // measure 11
0001
0000
0010
0000
0000
0100
0000
1000
0000
0000
0000
0000
1000
0000
0000
0000
,  // measure 12
1000
0000
0010
0000
0000
0001
0000
0010
0000
0000
0000
0000
1000
0000
0000
0000
,  // measure 13
1000
0000
0100
0000
0000
0010
0000
0100
0000
0000
0000
0000
1000
0000
0000
0000
,  // measure 14
0001
0000
0100
0000
0000
0010
0000
0100
0000
0000
0000
0000
0001
0000
0000
0000
,  // measure 15
1000
0000
0001
0000
0000
0001
0000
1000
0000
0000
0010
0000
0001
0000
0010
0000
,  // measure 16
0200
0000
1300
0000
1010
0000
1000
0001
,  // measure 17
0200
0000
0001
0000
0301
0001
1000
0010
,  // measure 18
2000
0000
3200
0000
0320
0000
0031
0001
,  // measure 19
0001
0000
0100
0000
0001
0000
0001
1000
,  // measure 20
0020
0000
1030
0000
0101
0000
0001
1000
,  // measure 21
0020
0000
1000
0000
1030
0000
0010
1000
,  // measure 22
0010
0000
0100
0020
0000
0130
0000
0202
,  // measure 23
0000
0303
0000
2020
0000
3030
0000
0001
,  // measure 24
1000
0001
1000
0100
0010
0001
0100
0001
,  // measure 25
1001
0000
0001
0000
0001
0100
1000
0200
,  // measure 26
0000
1300
0001
1000
0000
0010
0100
0020
,  // measure 27
0000
0030
0010
0000
0010
0001
0100
1000
,  // measure 28
0000
1000
0010
0100
0000
0001
0100
0020
,  // measure 29
0000
0130
0010
0100
0000
0001
1000
0001
,  // measure 30
0100
0000
0000
0001
0000
0000
0100
0000
0000
0000
0010
0000
1000
0000
0001
0000
,  // measure 31
0200
0301
0020
1030
,  // measure 32
2000
0000
3100
0000
0001
1000
0001
0000
,  // measure 33
1001
0000
1000
0000
1000
0010
0001
0020
,  // measure 34
0000
0031
1000
0001
0000
0100
0010
0200
,  // measure 35
0000
0300
0100
0000
0100
1000
0010
0001
,  // measure 36
0000
0001
0100
0010
0000
1000
0010
0200
,  // measure 37
0010
0310
0100
0010
0000
1000
0001
1000
,  // measure 38
0010
0000
0000
1000
0000
0000
0010
0000
0000
0000
0100
0000
0001
0000
1000
0000
,  // measure 39
0020
0000
1030
0000
1000
1000
0010
1000
,  // measure 40
0000
0000
0001
0200
0000
0300
0001
0200
,  // measure 41
0020
0300
0100
0000
1000
0000
0130
0000
,  // measure 42
2000
0001
0100
3001
,  // measure 43
0020
0100
1000
0130
,  // measure 44
0002
1000
0010
1003
,  // measure 45
0001
0000
0100
0000
0001
1000
0001
0000
,  // measure 46
0100
0000
0010
0000
1000
0100
0010
0100
,  // measure 47
0010
0000
0010
0000
1000
0001
1000
0000
,  // measure 48
0001
0100
0001
0100
0010
1000
0010
1000
,  // measure 49
0200
0010
0001
0310
,  // measure 50
0002
1000
0010
1003
,  // measure 51
0200
0010
0001
0310
,  // measure 52
2000
0001
0100
3001
,  // measure 53
1000
0000
0010
0000
1000
0001
1000
0000
,  // measure 54
0010
0000
0100
0000
0001
0010
0100
0010
,  // measure 55
0100
0000
0100
0000
0001
1000
0001
0000
,  // measure 56
1000
0010
1000
0010
0100
0001
0100
0001
,  // measure 57
1001
0000
0000
0000
;
