#TITLE:Rain On Me;
#SUBTITLE:;
#ARTIST:Lady Gaga & Ariana Grande;
#TITLETRANSLIT:;
#SUBTITLETRANSLIT:;
#ARTISTTRANSLIT:;
#CREDIT:;
#BANNER:Rain On Me.png;
#BACKGROUND:Rain On Me-bg.png;
#LYRICSPATH:;
#CDTITLE:;
#MUSIC:Rain On Me.mp3;
#OFFSET:-0.020;
#SAMPLESTART:85.880;
#SAMPLELENGTH:15.000;
#SELECTABLE:YES;
#BPMS:0.000=123.000;
#STOPS:;
#BGCHANGES:-0.220=Rain On Me.avi=1.000=0=0=0,
99999=-nosongbg-=1.000=0=0=0 // don't automatically add -songbackground-
;

//---------------dance-single - ----------------
#NOTES:
     dance-single:
     :
     Beginner:
     2:
     0.192,0.221,0.129,0.000,0.000:
0000
0000
0000
0000
,
1001
0000
0000
0000
,
0010
0000
0000
0000
,
0110
0000
0000
0000
,
0010
0000
0000
0000
,
0101
0000
0000
0000
,
0100
0000
0000
0000
,
1010
0000
0000
0000
,
0100
0000
0000
0000
,
0000
1000
0000
1000
,
0000
0010
0000
0010
,
0000
0100
0000
0100
,
0000
0001
0000
0001
,
0000
0010
0000
0010
,
0000
0100
0000
0100
,
0000
1000
0000
1000
,
0000
0001
0000
0001
,
0000
1000
1000
1000
,
0000
0010
0010
0010
,
0000
0100
0100
0100
,
0000
0010
0010
0010
,
0000
1000
0001
1000
,
0000
0001
0100
0001
,
0000
0100
0010
0100
,
1001
0000
0110
0000
,
1001
0001
1000
0001
,
0000
0100
0001
0100
,
0000
0010
1000
0010
,
0000
0100
0001
0100
,
0000
0010
0001
0010
,
0000
0100
1000
0100
,
0000
0100
0010
0100
,
0000
0010
1000
0010
,
1000
0000
0010
0000
,
0100
0000
0001
0000
,
0010
0000
0001
0000
,
1000
0000
0010
0000
,
1000
0010
1000
0000
,
0001
0100
0001
0000
,
0100
0001
0100
0000
,
0001
0001
0001
0000
,
1000
0010
1000
0000
,
0001
0100
0001
0000
,
0100
0010
0100
0000
,
1001
0000
0110
0000
,
1001
1000
0001
1000
,
0000
0010
1000
0010
,
0000
0100
0001
0100
,
0000
0010
1000
0010
,
0000
0100
1000
0100
,
0000
0010
0001
0010
,
0000
0010
0100
0010
,
0101
0000
0110
0000
,
1010
0010
1000
0000
,
0001
0100
0001
0000
,
0100
0001
0100
0000
,
0010
1000
0010
0000
,
0100
0010
0100
0000
,
0010
1000
0010
0000
,
0100
0001
0100
0000
,
0110
0000
1001
0000
,
0110
0000
0000
0000
;

//---------------dance-single - ----------------
#NOTES:
     dance-single:
     :
     Easy:
     4:
     0.250,0.271,0.185,0.064,0.000:
0000
0000
0000
0000
,
0010
0100
0010
0000
,
1000
0001
1000
0000
,
0001
0100
0001
0000
,
0010
0100
0010
0000
,
0100
0010
1000
0000
,
0010
0100
0001
0000
,
1000
0010
0100
0000
,
0100
0010
0100
0000
,
1001
0010
0100
0001
,
0000
0100
0000
0010
,
0110
0010
1000
0010
,
0000
0100
0000
0001
,
0101
0001
1000
1000
,
0000
0100
0000
0010
,
0110
0010
1000
0010
,
0000
0100
0000
0001
,
0001
1000
0010
0000
,
0100
0001
1000
0000
,
0100
0010
0100
0000
,
0001
0010
0001
0000
,
1000
0010
0100
0000
,
0001
1000
0100
0000
,
0001
0100
0001
0000
,
0101
0000
1010
0000
,
1001
0001
0100
0001
,
0100
0010
2000
3020
,
1030
0010
0000
1000
,
0010
0100
0010
0100
,
0001
0010
1000
0000
,
0001
0100
0001
0000
,
1000
0010
0100
0000
,
1010
0000
0000
0000
,
0101
0000
1000
0000
,
0001
0000
0100
0000
,
0110
0000
0010
0000
,
0101
0000
0010
0000
,
1010
1000
0010
0000
,
0000
0100
0001
0100
,
0010
0001
1000
0000
,
0000
0100
0010
1000
,
0010
0100
0001
0000
,
0000
1000
0001
0100
,
0001
0100
0010
0000
,
0011
0000
1100
0000
,
1001
0001
0100
0010
,
0100
0001
2000
3001
,
0100
0001
1000
0010
,
0100
0010
0100
0001
,
0010
0001
1000
0010
,
1000
0010
0002
0013
,
1000
0010
1000
0010
,
1010
0000
0101
0000
,
1010
0010
1000
0010
,
0110
0001
0100
0001
,
1000
0001
0100
0001
,
0102
2003
0000
3010
,
0000
0001
0100
0001
,
0010
0100
1000
0010
,
1000
0010
0100
0001
,
1001
0000
0110
0000
,
2002
3003
0000
0000
;

//---------------dance-single - ----------------
#NOTES:
     dance-single:
     :
     Medium:
     7:
     0.345,0.419,0.201,0.250,0.052:
0000
0000
0000
0000
,
0001
0000
0000
0100
0000
0000
0001
0000
0000
0000
0000
0000
1000
0000
0000
0000
,
0010
2000
0000
3000
,
0010
0000
0000
0100
0000
0000
1000
0000
0000
0000
0000
0000
0001
0000
0000
0000
,
0100
0020
0000
0030
,
0010
0000
0000
0001
0000
0000
0100
0000
0000
0000
0000
0000
0100
0000
0000
0000
,
1000
0200
0000
0300
,
1000
0000
0000
0010
0000
0000
0001
0000
0000
0000
0000
0000
0001
0000
0000
0000
,
0100
0000
0000
0000
0001
0000
0000
0000
0001
0000
0000
0100
0000
0000
1000
0000
,
0100
0000
0000
0001
0000
0000
0100
0000
0000
1000
0000
0000
0001
0000
0000
0000
,
0000
0100
0010
0100
,
0010
0000
0000
0100
0000
0000
1000
0000
0000
0100
0000
0000
0010
0000
0000
0000
,
0001
1000
0010
1000
,
0001
0000
0000
0010
0000
0000
0100
0000
0000
1000
0000
0000
1000
0000
0000
0000
,
0000
0010
1000
0001
,
1000
0000
0000
0010
0000
0000
0001
0000
0000
0010
0000
0000
1000
0000
0000
0000
,
0000
1000
0001
1000
,
1000
0010
0001
0010
0000
0010
1000
0000
,
1000
0010
0100
0001
0200
0000
0301
0000
,
0000
0010
0000
0100
,
0000
1000
0000
0001
,
0001
1000
0010
0100
0000
0100
1000
0000
,
0100
0010
1000
0001
0200
0000
0301
0001
,
1000
0010
0000
1000
0000
1000
0000
0000
,
2002
3003
0000
0000
2020
3030
0000
0000
,
0202
0303
0001
0000
0100
0000
1001
0000
,
1000
0010
1000
0110
,
0200
0010
0010
0310
,
1000
0010
0100
1001
,
0010
0001
1000
1010
,
1000
0010
0100
0101
,
0010
0100
0001
1100
,
0010
0100
0010
1010
,
1000
0100
1000
0100
,
0001
0010
0001
0010
,
0100
0001
0100
0001
,
0010
1000
0010
1000
,
1000
0000
0010
1000
0010
0000
0001
0000
,
0100
0000
0001
0100
0001
0000
0100
0000
,
0010
0000
0100
0010
0100
0000
0001
0000
,
1000
0000
0010
1000
0010
0000
0100
0000
,
0010
0000
1000
0010
1000
0000
0100
0000
,
0001
0000
0100
0001
0010
0000
0001
0000
,
0100
0000
0001
0010
1000
0000
0100
0000
,
2002
3003
0000
0000
0220
0330
0000
0000
,
2020
3030
1000
0000
0010
0000
1001
0000
,
0001
0100
0001
0110
,
0020
0100
0100
0130
,
0001
0100
0010
1001
,
0100
1000
0001
0101
,
0001
0100
0010
1010
,
0100
0010
1000
0011
,
2200
3300
0000
0000
0202
0303
0000
0000
,
2002
3003
0010
0000
0001
0000
0010
0000
,
1000
0100
1000
0100
,
0010
1000
0010
1000
,
0100
0001
0100
0001
,
0001
0000
0100
0001
0100
0000
1000
0000
,
0010
0000
1000
0010
0100
0000
0010
0000
,
1000
0000
0001
0100
1000
0000
0001
0000
,
2002
3003
0000
0000
0220
0330
0000
0000
,
0220
0330
0000
0000
0000
0000
0000
0000
;

//---------------dance-single - ----------------
#NOTES:
     dance-single:
     :
     Hard:
     8:
     0.420,0.442,0.201,0.242,0.073: // measure 1
0000
0000
0000
0000
,  // measure 2
0001
0000
0000
0100
0000
0000
0001
0000
0010
0000
0000
0000
1000
0000
0000
0000
,  // measure 3
0010
0020
0000
0030
,  // measure 4
1000
0000
0000
0010
0000
0000
0001
0000
0010
0000
0000
0000
1000
0000
0000
0000
,  // measure 5
0001
0000
0000
0000
0100
0000
0001
0000
0010
0000
0000
0100
0000
0000
0110
0000
,  // measure 6
0010
0000
0000
1000
0000
0000
0001
0000
1000
0000
0000
0000
0010
0000
0000
0000
,  // measure 7
1000
2000
0000
3000
,  // measure 8
0000
0100
0001
1000
0020
0000
1030
0010
,  // measure 9
0200
0000
0000
0000
0310
0000
0100
0000
0001
0000
0000
1000
0000
0000
0001
0000
,  // measure 10
0100
0000
0000
0010
0000
0000
1000
0000
0000
0010
0000
0000
0100
0000
0000
0000
,  // measure 11
0000
0001
0000
1000
,  // measure 12
0001
0000
0000
0010
0000
0000
0100
0000
0000
1000
0000
0000
1010
0000
0000
0000
,  // measure 13
0000
0000
1000
0000
0010
0000
1000
0000
0001
0000
0000
0100
0000
0000
0001
0000
,  // measure 14
1000
0000
0000
0100
0000
0000
0010
0000
0000
0001
0000
0000
0101
0000
0000
0000
,  // measure 15
0000
0000
1000
0000
0010
0000
0001
0000
0010
0000
0000
1000
0000
0000
0010
0000
,  // measure 16
0001
0000
0000
0010
0000
0000
1000
0000
0000
0010
0000
0000
1001
0000
0000
0000
,  // measure 17
0000
0000
1000
0000
0100
0000
0010
0000
0001
0000
0000
0101
0000
0000
1001
0000
,  // measure 18
0001
0100
0001
0200
0000
0000
0310
0100
,  // measure 19
0001
0100
0010
2000
0000
0000
3010
0010
,  // measure 20
1000
0001
0000
0001
0000
1001
0000
1000
,  // measure 21
0010
1000
0000
0001
0000
0101
0000
1010
,  // measure 22
1000
0010
1000
0020
0000
0000
0130
0010
,  // measure 23
1000
0010
0100
0002
0000
0000
0103
0100
,  // measure 24
0001
0100
0000
0010
0000
1001
0000
0000
,  // measure 25
0220
0330
0000
0000
2002
3003
0000
0000
,  // measure 26
0220
0330
0010
1000
0010
0100
0010
0000
,  // measure 27
1000
0000
0010
0100
0001
0100
0010
0000
,  // measure 28
0001
0000
1000
0010
1000
0001
1000
0000
,  // measure 29
0010
0000
0010
0100
1000
0001
0010
0000
,  // measure 30
1000
0000
0010
1000
0001
1000
0010
0000
,  // measure 31
0001
0000
0001
0010
0100
1000
1000
0000
,  // measure 32
0010
0000
1000
0010
1000
0001
0100
0000
,  // measure 33
0010
0110
0100
1001
,  // measure 34
1000
0010
1000
0010
,  // measure 35
0100
1000
0001
0010
,  // measure 36
0100
0001
0010
0100
,  // measure 37
1000
0000
0100
0000
1000
0000
0000
0010
,  // measure 38
0000
0100
0010
0100
0001
0000
1000
0000
,  // measure 39
0000
0001
0100
1000
0100
0001
0000
0100
,  // measure 40
0000
0010
1000
0010
0100
0000
0010
0000
,  // measure 41
0000
1000
0001
0100
0010
0100
0001
1001
,  // measure 42
0001
0100
0001
1000
0010
0000
0100
0000
,  // measure 43
0000
1000
0010
0001
0010
1000
0010
0002
,  // measure 44
0000
1003
0010
1000
1010
0000
0000
0000
,  // measure 45
0220
0330
0000
0000
2002
3003
0000
0000
,  // measure 46
0220
0330
0100
0001
0100
0010
0100
0000
,  // measure 47
0001
0000
0100
0010
1000
0010
0100
0000
,  // measure 48
1000
0000
0001
0100
0001
1000
0001
0000
,  // measure 49
0100
0000
0100
0010
0001
1000
0100
0000
,  // measure 50
0001
0000
0100
0001
1000
0001
0100
0000
,  // measure 51
1000
0000
1000
0100
0010
0001
0001
0000
,  // measure 52
0100
0000
0001
0100
0001
1000
0010
0000
,  // measure 53
2020
3030
0000
0000
0202
0303
0000
0000
,  // measure 54
1000
0010
1000
0001
1000
0010
1000
0001
,  // measure 55
0200
0000
0000
0000
0301
0000
0010
0000
0001
0000
0000
0010
0000
0000
0100
0000
,  // measure 56
0000
0000
0000
0101
0000
0001
1000
0010
,  // measure 57
2000
3010
0100
0001
,  // measure 58
0001
0100
0001
1000
0001
0100
0001
1000
,  // measure 59
0020
0000
0000
0000
1030
0000
0100
0000
1000
0000
0000
0100
0000
0000
0010
0000
,  // measure 60
0000
0000
0000
1010
0000
1000
0001
0100
,  // measure 61
0002
0103
2000
3010
,  // measure 62
1001
0000
0000
0000
;
