#TITLE:RUN2U;
#SUBTITLE:;
#ARTIST:STAYC;
#TITLETRANSLIT:;
#SUBTITLETRANSLIT:;
#ARTISTTRANSLIT:;
#CREDIT:;
#BANNER:RUN2U.png;
#BACKGROUND:RUN2U-bg.png;
#LYRICSPATH:;
#CDTITLE:;
#MUSIC:RUN2U.mp3;
#OFFSET:-0.440;
#SAMPLESTART:58.760;
#SAMPLELENGTH:15.000;
#SELECTABLE:YES;
#BPMS:0.000=130.000;
#STOPS:;
#BGCHANGES:;

//---------------dance-single - ----------------
#NOTES:
     dance-single:
     :
     Easy:
     4:
     0.241,0.374,0.200,0.067,0.013:
0000
0000
0000
0000
,
0000
0000
0000
0000
,
0000
0000
0000
0000
,
0000
0000
0000
0000
,
0000
0000
0000
0000
,
0000
0000
0000
0000
,
0000
0000
0000
0000
,
0000
0000
0000
0000
,
0001
0100
0001
1000
,
0010
0010
0010
0000
,
0100
0001
1000
0010
,
0100
0100
0100
0000
,
0101
0000
1010
0000
,
0010
1000
0001
0100
,
0002
0000
0003
0010
,
0010
0000
0000
0000
,
0100
1000
0100
0010
,
0001
0001
0001
0000
,
1000
0100
0010
0001
,
1000
1000
1000
0000
,
1100
0000
0011
0000
,
0001
0010
0100
1000
,
0200
0000
0300
0001
,
0001
0000
0000
0000
,
0010
0000
1000
0000
,
0001
0000
0100
0000
,
0001
0000
0100
0000
,
0010
0000
1000
0000
,
0010
0000
1000
0000
,
0010
0000
0100
0000
,
0001
1000
0001
1000
,
0001
1000
0001
1000
0001
1000
0001
0000
0000
1001
0000
0000
,
0001
0000
0100
0001
,
0101
0000
0010
1000
,
1001
0000
0100
0010
,
0110
0000
1000
0010
,
1010
0000
0010
0100
,
0110
0000
0001
0010
,
0011
0000
0100
0010
,
2002
0000
3003
0000
,
1001
0000
0010
0100
,
0110
0000
1000
0100
,
1100
0000
1000
0001
,
0101
0001
0001
0100
,
0001
0100
0010
1000
,
0010
0100
0001
1000
,
0010
1000
0010
0100
,
0020
0000
0030
0010
,
0010
0010
0000
1000
,
1000
1000
0000
0001
,
0010
0001
0000
0100
,
0010
0010
0000
1000
,
0010
1000
0000
0001
,
0010
0001
0000
0100
,
0100
1000
0000
1000
,
0010
0000
1001
0000
,
0110
0000
0010
0100
,
0010
0000
1000
0010
,
0100
0000
0001
0010
,
1000
0000
1000
0100
,
0001
0000
0010
0001
,
0100
0000
0010
1000
,
0100
0000
1000
0001
,
0001
0000
0001
1000
,
2020
0000
3030
1000
,
1010
0000
0100
0001
,
1001
0000
0010
0100
,
0110
0000
0001
0100
,
0101
0000
0100
0010
,
0110
0000
1000
0100
,
1100
0000
0010
0100
,
2002
0000
3003
0000
,
1001
0000
0100
0010
,
0110
0000
0001
0010
,
0011
0000
0001
1000
,
1010
1000
1000
0010
,
1000
0010
0100
0001
,
0100
0010
1000
0001
,
0100
0001
0100
0010
,
0200
0000
0000
0000
,
0300
0000
0000
0000
;

//---------------dance-single - ----------------
#NOTES:
     dance-single:
     :
     Beginner:
     2:
     0.174,0.214,0.087,0.060,0.000:
0000
0000
0000
0000
,
0000
0000
0000
0000
,
0000
0000
0000
0000
,
0000
0000
0000
0000
,
0000
0000
0000
0000
,
0000
0000
0000
0000
,
0000
0000
0000
0000
,
0000
0000
0000
0000
,
0000
1000
0000
0001
,
0000
0100
0000
0010
,
0000
0100
0000
0001
,
0000
0001
0000
1001
,
0000
0010
0000
1000
,
0000
0010
0000
0100
,
0000
0010
0000
0001
,
0000
0010
0000
0001
,
0000
0001
0001
0001
,
0000
0010
0010
0010
,
0000
0001
0001
0001
,
0000
1000
1000
1000
,
0000
0010
0000
1000
,
0000
0010
0000
0100
,
0000
0001
0000
0010
,
0000
0001
0000
0100
,
0200
0000
0300
0000
,
0002
0000
0003
0000
,
2000
0000
3000
0000
,
0020
0000
0030
0000
,
0010
0000
0010
0000
,
0100
0000
0100
0000
,
0010
0010
0010
0010
,
0020
0000
0030
0000
,
1001
0000
0001
0000
,
0100
0000
0010
0000
,
1001
0000
0010
0000
,
0110
0000
0010
0000
,
0100
0010
0100
0000
,
0001
1000
0001
0000
,
1000
0001
1000
0000
,
0010
1000
0010
0000
,
0110
0000
0010
0010
,
0010
0000
1000
1000
,
1000
0000
0001
0001
,
0001
0000
0100
0000
,
0001
0000
1000
0000
,
0010
0000
0100
0000
,
0001
0000
1000
0000
,
0020
0000
0030
0000
,
1000
0000
0010
0000
,
1000
0000
0001
0000
,
0100
0000
0001
0000
,
0010
0000
0001
0000
,
0100
0000
0010
0000
,
1000
0000
0001
0000
,
0100
0000
0001
0000
,
1000
0000
0110
0000
,
1001
0000
1000
0000
,
0010
0000
0100
0000
,
1001
0000
0100
0000
,
0110
0000
0100
0000
,
0010
0100
0010
0000
,
1000
0001
1000
0000
,
0001
1000
0001
0000
,
0100
0001
0100
0000
,
2002
0000
0000
3003
,
0001
0000
1000
0000
,
0110
0000
1000
0000
,
1001
0000
1000
0000
,
0001
1000
0001
0000
,
0010
0100
0010
0000
,
0100
0010
0100
0000
,
1000
0100
1000
0000
,
1001
0000
1000
1000
,
1000
0000
0010
0010
,
0010
0000
0100
0100
,
0100
0000
0001
0000
,
0001
0000
0100
0000
,
0010
0000
1000
0000
,
0010
0000
1000
0000
,
0200
0000
0000
0000
,
0300
0000
0000
0000
;

//---------------dance-single - ----------------
#NOTES:
     dance-single:
     :
     Medium:
     8:
     0.320,0.507,0.047,0.033,0.374:
0000
0000
0000
0000
,
0000
0000
0000
0000
,
0000
0000
0000
0000
,
0000
0000
0000
0000
,
0000
0000
0000
0000
,
0000
0000
0000
0000
,
0000
0000
0000
0000
,
0000
0000
0000
0000
,
1000
0000
0010
0100
0000
0000
0010
0000
0100
0001
0000
0000
,
0100
0001
1000
0000
,
0010
0000
0100
0010
0000
0000
0100
0000
0010
1000
0000
0000
,
0001
0000
0000
0100
0000
0000
0001
0000
0000
0010
0000
0001
,
0100
0000
0000
0100
0000
0010
1000
0000
0000
1000
0000
0001
,
1000
0000
0000
0001
0000
0100
0010
0000
0000
0100
0000
0001
,
0100
0010
0100
0001
,
0010
0000
0000
0000
0000
0000
0000
0000
0100
0001
0000
0000
,
0001
0000
0100
0010
0000
0000
0100
0000
0010
1000
0000
0000
,
0010
1000
0001
0000
,
0100
0000
0010
0100
0000
0000
0010
0000
0100
0001
0000
0000
,
1000
0000
0000
0010
0000
0000
1000
0000
0000
0100
0000
1000
,
0010
0000
0000
0010
0000
0100
0001
0000
0000
0001
0000
1000
,
0001
0000
0000
1000
0000
0010
0100
0000
0000
0010
0000
1000
,
0010
0000
0000
0100
0000
0000
0010
0000
0000
1000
0000
0100
,
0000
0000
0000
0000
0000
2000
0000
0000
0000
0000
0000
0000
,
3001
0000
0100
0001
0100
0000
0010
0000
,
0100
0000
0010
0100
0010
0000
1000
0000
,
0100
0000
0000
0000
0010
1000
0001
0000
,
0000
0000
0001
1000
0001
0000
0100
0000
,
1000
0000
0010
1000
0010
0000
0100
0000
,
0010
0000
0100
0010
0100
0000
0001
0000
,
0010
0000
0000
0100
0000
0000
1000
0001
1000
0001
1000
0001
,
1000
0001
1000
0001
1000
0001
1000
0000
0000
0110
0000
0000
,
1001
0000
0000
0000
0010
0000
0100
0000
0010
0000
1000
0000
,
0000
0000
0000
0000
0100
0000
0001
0000
0100
0000
0001
0000
,
0000
0000
0000
0000
0010
0000
0100
0000
0010
0000
0100
0000
,
0000
0000
0000
0000
1000
0000
0001
0000
1000
0000
0010
0000
,
0000
0000
0000
0000
0010
0000
0100
0000
0010
0000
1000
0000
,
0000
0000
0000
0000
0100
0000
0001
0000
1000
0000
0010
0000
,
0000
0000
0000
0000
0001
0000
0100
0000
0010
0000
0100
0000
,
0000
0000
0000
0000
1000
0000
0010
0000
0100
0000
0001
0000
,
0000
0000
0000
0000
0000
0001
0100
0001
0100
0001
0100
0001
,
0000
0000
0000
0000
0000
1000
0010
1000
0010
1000
0010
1000
,
0000
0000
0000
0000
0000
0010
0100
0010
0100
0010
0100
0010
,
0000
0000
1001
0010
,
0100
0010
1000
0001
,
0001
0010
1000
0010
,
0001
0100
0010
1000
,
2000
0000
3000
0010
,
1010
0000
0000
1000
0000
0010
0100
0000
0000
0010
0000
0100
,
0010
0000
0000
0100
0000
0010
0100
0000
0000
0001
0000
0000
,
1000
0000
0000
0001
0000
0100
0001
0000
0000
0100
0000
0010
,
1000
1000
0001
0100
,
0001
0100
0010
1000
,
0010
1000
0001
0010
,
1000
0001
1000
0001
,
1000
0000
1001
0000
,
0110
0000
0000
0000
1000
0000
0001
0000
1000
0000
0100
0000
,
0000
0000
0000
0000
0001
0000
0010
0000
0001
0000
0010
0000
,
0000
0000
0000
0000
1000
0000
0001
0000
1000
0000
0001
0000
,
0000
0000
0000
0000
0100
0000
0010
0000
0100
0000
1000
0000
,
0000
0000
0000
0000
1000
0000
0001
0000
1000
0000
0100
0000
,
0000
0000
0000
0000
0001
0000
0010
0000
0100
0000
1000
0000
,
0000
0000
0000
0000
0010
0000
0001
0000
1000
0000
0001
0000
,
0000
0000
0000
0000
0100
0000
1000
0000
0001
0000
0010
0000
,
0202
0000
0000
0303
,
0001
0100
0001
0100
,
0010
1000
0010
0001
,
0010
1000
0010
1000
,
0001
0100
1000
0100
,
0001
1000
0010
0001
,
1000
0010
0001
0010
,
1000
0001
0100
0001
,
1000
0000
0000
0000
0000
1000
0010
1000
0010
1000
0010
1000
,
0000
0000
0000
0000
0000
0001
0100
0001
0100
0001
0100
0001
,
0000
0000
0000
0000
0000
0100
0010
0100
0010
0100
0010
0100
,
0000
0000
0000
0100
,
0010
0100
0001
1000
,
1000
0100
0001
0100
,
1000
0010
0100
0001
,
0002
0000
0000
0000
,
0003
0000
0000
0000
;

//---------------dance-single - ----------------
#NOTES:
     dance-single:
     :
     Hard:
     14:
     0.505,0.507,0.187,0.120,0.764: // measure 1
1001
0000
1000
0000
1000
0000
1000
0000
1000
0000
1000
0000
,  // measure 2
0100
0000
0100
0000
0100
0000
0100
0000
0100
0000
0100
0000
,  // measure 3
0010
0000
0010
0000
0010
0000
0010
0000
0010
0000
0010
0000
,  // measure 4
0001
0000
0001
0000
0001
0000
0001
1000
0001
1000
0001
1000
,  // measure 5
0001
0000
0001
0000
0001
0000
0001
0000
0001
0000
0001
0000
,  // measure 6
0010
0000
0010
0000
0010
0000
0010
0000
0010
0000
0010
0000
,  // measure 7
0100
0000
0100
0000
0100
0000
0100
0000
0100
0000
0100
0000
,  // measure 8
1000
0000
1000
0000
1000
0000
1000
0001
1000
0001
1000
0001
,  // measure 9
1000
0000
0010
0100
0000
0100
0010
0000
0010
1000
0000
0001
,  // measure 10
0000
0000
0000
0100
0000
0000
0001
0000
0100
0010
0000
1000
,  // measure 11
0001
0000
0100
0010
0000
0010
0100
0000
0001
0010
0000
0100
,  // measure 12
0000
0000
0000
1000
0000
0000
0010
0000
0010
1000
0000
0001
,  // measure 13
1000
0000
0001
1000
0000
1000
0001
0000
0001
0010
0000
0100
,  // measure 14
1000
0000
1000
0010
0000
0100
0001
0000
0100
0010
0000
0100
,  // measure 15
0000
0010
0100
0001
,  // measure 16
0202
0000
0000
0303
0000
0000
0100
0000
0001
0100
0000
0000
,  // measure 17
0001
0000
0100
0010
0000
0010
0100
0000
0100
0001
0000
1000
,  // measure 18
0000
0000
0000
0010
0000
0000
1000
0000
0010
0100
0000
0001
,  // measure 19
1000
0000
0010
0100
0000
0100
0010
0000
1000
0100
0000
0010
,  // measure 20
0000
0000
0000
0001
0000
0000
0100
0000
0100
0001
0000
1000
,  // measure 21
0001
0000
1000
0001
0000
0001
1000
0000
1000
0100
0000
0010
,  // measure 22
0001
0000
0001
0100
0000
0010
1000
0000
0010
0100
0000
0010
,  // measure 23
0000
0000
0000
0100
0000
0000
0010
0000
0000
1000
0000
2020
,  // measure 24
0000
0000
0000
3030
0000
1010
0000
0000
0000
0010
0000
0000
,  // measure 25
1000
0010
0000
0000
0100
0000
0010
0000
1000
0000
0000
0000
0010
0000
1000
0000
,  // measure 26
0100
0000
0001
0100
0010
0000
0100
0000
,  // measure 27
0002
0000
0000
0003
0000
0000
0001
0010
0100
1000
0000
0000
,  // measure 28
1000
0000
0000
1000
0100
0010
0001
0000
0000
0001
0000
0000
,  // measure 29
0001
0100
0000
0000
0010
0000
0100
0000
0001
0000
0000
0000
0100
0000
0001
0000
,  // measure 30
0010
0000
1000
0010
0100
0000
0010
0000
,  // measure 31
2000
0000
0000
3000
0000
0000
1000
0100
0010
0001
0010
0100
,  // measure 32
1000
0001
1000
0001
1000
0001
1000
0000
0000
0110
0000
0000
,  // measure 33
1010
0000
0000
0000
0010
0000
0100
0000
0010
0000
0001
0000
,  // measure 34
0101
0000
0000
0001
0000
0000
0100
0000
0001
0100
0001
0100
,  // measure 35
0010
0000
0000
0000
0100
0000
0010
0000
0100
0000
0001
0000
,  // measure 36
1001
0000
0000
0100
0000
0000
0010
0000
0000
0001
0000
0100
,  // measure 37
0001
0000
1000
0010
0000
0100
0010
0000
0000
0010
0100
0010
,  // measure 38
0100
0000
0000
0101
0000
0000
0001
0000
0000
0100
0000
0001
,  // measure 39
0100
0000
0010
1000
0000
1000
0010
0000
0100
0010
0000
0200
,  // measure 40
0000
0000
0000
0000
0000
0000
0300
0000
0100
0010
1000
0010
,  // measure 41
0100
0000
0000
0000
0000
1000
0100
1000
0100
1000
0100
0010
,  // measure 42
0001
0000
0000
0000
0000
0001
0100
0001
0100
0001
1000
0010
,  // measure 43
0100
0000
0000
0000
0000
0100
0010
1000
0010
0100
0001
0100
,  // measure 44
0010
0100
0000
0010
0000
0000
2002
0000
0000
3003
0000
1000
,  // measure 45
0001
0000
0001
0100
0000
0100
0001
0000
0000
0001
0010
0100
,  // measure 46
1000
0000
0000
1001
0000
0000
0010
0000
0000
0100
0000
0010
,  // measure 47
0100
0000
1000
0100
0000
0001
0010
0000
0100
0001
0000
2002
,  // measure 48
0000
0000
3003
0010
,  // measure 49
0010
0000
0000
0100
0000
0010
0100
0000
0000
1000
0000
1000
,  // measure 50
0010
0000
0000
0010
0000
0010
0100
0000
0100
0010
0000
0000
,  // measure 51
0001
0000
0000
0001
0000
0001
0100
0000
0000
0100
0000
0010
,  // measure 52
1000
0000
1000
0010
0000
0000
0100
0000
0100
0010
0000
0001
,  // measure 53
0010
0000
0000
1000
0000
0010
1000
0000
1000
0010
0000
0100
,  // measure 54
0001
0000
0000
0100
0000
0000
1000
0000
0001
0100
0000
0100
,  // measure 55
0001
0000
0000
0100
0000
0100
0010
0000
0010
0100
0000
1000
,  // measure 56
0100
0000
1001
0000
,  // measure 57
1001
0000
0000
0000
0010
0000
0100
0000
0010
0000
1000
0000
,  // measure 58
1010
0000
0000
0000
1000
0000
0001
0000
0100
0000
0001
0000
,  // measure 59
0101
0000
0000
0000
0001
0000
0010
0000
0100
0000
1000
0000
,  // measure 60
1100
0000
0000
0000
1000
0000
0010
0000
0100
0000
0010
0000
,  // measure 61
0110
0000
0000
0000
0001
0000
0100
0000
0010
0000
0100
0000
,  // measure 62
0011
0000
0000
0000
0001
0000
1000
0000
0001
0000
1000
0000
,  // measure 63
1001
0000
0000
0000
0100
0000
0010
0000
0100
0000
0001
0000
,  // measure 64
0110
0000
0000
0000
0010
0000
1000
0000
0010
0000
0100
0000
,  // measure 65
0202
0000
0000
0303
,  // measure 66
1010
0000
0000
1000
0000
0000
0010
0000
1000
0010
1000
0010
,  // measure 67
0100
0000
0000
0010
0000
0100
0010
0100
0010
0100
0010
0100
,  // measure 68
1001
0000
0000
0010
0000
0000
0100
0000
0000
1000
0000
0010
,  // measure 69
1000
0000
0001
0100
0000
0010
0100
0000
0000
0100
0010
0100
,  // measure 70
0010
0000
0000
1010
0000
0000
1000
0000
0000
0010
0000
1000
,  // measure 71
0010
0000
0100
0001
0000
0001
0100
0000
0010
0100
0000
0020
,  // measure 72
0000
0000
0000
0000
0000
0000
0030
0000
0010
0100
0001
0100
,  // measure 73
0010
0000
0000
0000
0000
0001
0010
0001
0010
0001
0010
0100
,  // measure 74
1000
0000
0000
0000
0000
1000
0010
1000
0010
1000
0001
0100
,  // measure 75
0010
0000
0000
0000
0000
0010
0100
0001
0100
0010
1000
0010
,  // measure 76
0100
0010
0000
0100
0000
0000
2002
0000
0000
3003
0000
0001
,  // measure 77
1000
0000
1000
0010
0000
0010
1000
0000
0000
1000
0100
0010
,  // measure 78
0001
0000
0000
1001
0000
0000
0100
0000
0000
0010
0000
0100
,  // measure 79
0010
0000
0001
0010
0000
1000
0100
0000
0010
1000
0000
2002
,  // measure 80
0000
0000
0000
0000
,  // measure 81
3003
0000
0000
0000
;
