#TITLE:Pirate;
#SUBTITLE:;
#ARTIST:EVERGLOW;
#TITLETRANSLIT:;
#SUBTITLETRANSLIT:;
#ARTISTTRANSLIT:;
#CREDIT:;
#BANNER:Pirate.png;
#BACKGROUND:Pirate-bg.png;
#LYRICSPATH:;
#CDTITLE:;
#MUSIC:Pirate.mp3;
#OFFSET:-0.460;
#SAMPLESTART:81.020;
#SAMPLELENGTH:15.000;
#SELECTABLE:YES;
#BPMS:0.000=130.000;
#STOPS:;
#BGCHANGES:;

//---------------dance-single - ----------------
#NOTES:
     dance-single:
     :
     Hard:
     13:
     0.499,0.529,0.202,0.278,0.174: // measure 1
0000
0000
0000
0000
,  // measure 2
0000
0000
0000
0000
,  // measure 3
0000
0000
0000
0000
,  // measure 4
0000
0000
0000
0000
,  // measure 5
1000
0000
0010
0100
0010
0000
0100
0000
0001
0000
0001
0100
0000
0000
0100
0000
,  // measure 6
0010
0100
0001
0000
0100
0000
0010
0000
0100
0000
0000
0010
0000
0000
0100
0000
,  // measure 7
0001
0000
0100
0010
0100
0000
0010
0000
1000
0000
1000
0010
0000
0000
0010
0000
,  // measure 8
0100
0010
1000
0000
0010
0000
0100
0000
0001
0000
0000
1000
0000
0000
0010
0000
,  // measure 9
0100
0000
0000
0010
0000
0000
1000
0000
0000
0000
0100
0000
0001
0000
0100
0000
,  // measure 10
0010
0000
0000
1000
0000
0000
0001
0000
0000
0000
0001
0000
0010
0000
0100
0000
,  // measure 11
1000
0000
0000
0001
0000
0000
0100
0000
0000
0000
0001
0000
0100
0000
0001
0000
,  // measure 12
0100
0000
0000
0000
0000
0000
0000
0000
0000
0010
0000
0000
0000
0000
0000
0000
0000
0000
0100
0000
0000
0000
0000
0000
0010
0000
0000
0000
1000
0000
0000
0000
0001
0000
0000
0000
0100
0000
0000
0000
0000
0000
0001
0000
0000
0000
0000
0000
,  // measure 13
0100
0001
0000
0010
0000
0101
0000
0010
,  // measure 14
1000
0010
0000
1000
0000
1010
0000
0001
,  // measure 15
1000
0001
0000
1000
0000
1001
0000
1000
,  // measure 16
0100
0010
0001
0010
0100
1000
0001
1000
,  // measure 17
0010
0000
1000
0000
0010
0000
0100
0000
0010
0000
0000
0100
0000
0000
0001
0000
,  // measure 18
0100
0000
0001
0000
1000
0000
0010
0000
1000
0000
0000
0100
0000
0000
1000
0000
,  // measure 19
0001
0000
0100
0001
0100
0000
0001
0000
0100
0000
0000
0010
0000
0000
0001
0000
,  // measure 20
0100
0010
0100
1000
0100
0010
0100
0000
,  // measure 21
1001
0010
0100
0001
,  // measure 22
0201
0300
0120
0030
2010
3000
1002
0003
,  // measure 23
0202
0000
0303
0001
0100
0000
0010
0000
,  // measure 24
1000
0000
0000
0100
0000
0000
0010
0000
0001
0000
0000
0000
0100
0000
0000
0000
,  // measure 25
0001
0100
0010
0100
,  // measure 26
2001
3000
0120
0030
2010
3000
0102
0003
,  // measure 27
0220
0000
0330
0010
0100
0000
0010
0000
,  // measure 28
0100
0000
0000
0010
0000
0000
1000
0000
0001
0000
0000
0000
1001
0000
0000
0000
,  // measure 29
0002
0000
0000
1003
0010
0001
0010
1000
,  // measure 30
0010
0000
0000
0001
0000
0000
0010
0000
0100
0000
0010
0000
0001
0000
1000
0000
,  // measure 31
0010
0000
0000
0100
0000
0000
0010
0000
0100
0000
0010
0000
1000
0000
0100
0000
,  // measure 32
0000
1000
0001
0100
0000
0010
0100
0000
,  // measure 33
2000
0000
0000
0010
0000
0000
0010
0000
3010
0000
1000
0000
0001
0000
0010
0000
,  // measure 34
0002
0000
0000
0100
0000
0000
0100
0000
0103
0000
0010
0000
1000
0000
0010
0000
,  // measure 35
0200
0000
0000
0010
0000
0000
0010
0000
0310
0000
1000
0000
0100
0000
0020
0000
,  // measure 36
0000
0000
0000
0031
0200
0000
0020
0000
,  // measure 37
0330
0000
0100
0001
0100
0000
0010
1000
0010
0000
0100
0001
0100
0000
0010
0000
,  // measure 38
0100
0001
1000
0010
2000
0000
3000
0000
,  // measure 39
0000
0000
0010
1000
0010
0000
0100
0001
0100
0000
0010
1000
0010
0000
0100
0000
,  // measure 40
0010
1000
0001
0100
0002
0000
0003
0000
,  // measure 41
0100
0000
0010
0000
0100
1000
0001
0000
,  // measure 42
1000
0000
0001
0000
1000
0001
0100
0000
,  // measure 43
0001
0000
0000
0000
1000
0010
0000
0000
1000
0000
0000
0000
0110
0000
0000
0000
,  // measure 44
0000
0000
2002
3003
0000
0000
0010
1000
,  // measure 45
0010
1000
0000
0100
0000
1010
0000
0100
,  // measure 46
0001
0100
0000
0001
0000
0101
0000
1000
,  // measure 47
0001
1000
0000
0001
0000
1001
0000
0001
,  // measure 48
0010
0100
1000
0100
0010
0001
1000
0001
,  // measure 49
0100
0000
0001
0000
0100
0000
0010
0000
0100
0000
0000
0010
0000
0000
1000
0000
,  // measure 50
0010
0000
1000
0000
0001
0000
0100
0000
0001
0000
0000
0010
0000
0000
0001
0000
,  // measure 51
1000
0000
0010
1000
0010
0000
1000
0000
0010
0000
0000
0100
0000
0000
1000
0000
,  // measure 52
0010
0100
0010
0001
0010
0100
0010
0000
,  // measure 53
0200
0000
0000
0000
0000
0000
0310
0100
0010
0000
0000
0000
0100
0000
0000
0000
,  // measure 54
0002
0000
0000
0000
0000
0000
1003
0001
1000
0000
0000
0000
0010
0000
0000
0000
,  // measure 55
2000
0000
0000
0000
0000
0000
3001
1000
0010
0000
0000
0000
0100
0000
0000
0000
,  // measure 56
0001
0010
0100
0010
0001
0000
1000
0000
,  // measure 57
2001
0000
0000
0000
0000
0000
0000
0000
3001
1000
0000
0000
1000
0010
0000
0000
,  // measure 58
0100
0010
0000
0000
0010
0100
0000
0000
0001
0010
0000
0000
0001
0100
0000
0000
,  // measure 59
2002
0000
0000
0000
3003
0000
0000
0010
,  // measure 60
1000
0000
0220
0330
,  // measure 61
2002
0000
3003
1000
0001
0100
0001
1000
,  // measure 62
0100
0000
1000
0000
0100
0000
1000
0000
0000
0010
0000
0000
0001
0000
0100
0000
0001
0000
0100
0000
0000
0000
0000
0000
,  // measure 63
0110
0000
0000
0100
0010
0100
0001
0010
,  // measure 64
0000
0001
1000
0010
0000
0100
0010
0000
,  // measure 65
0002
0000
0000
0100
0103
0001
1000
0010
,  // measure 66
2000
0000
0000
0010
3010
0100
0001
0100
,  // measure 67
0020
0000
0000
0100
0130
0001
0010
0200
,  // measure 68
0000
0000
0000
1300
0020
0000
0130
0010
,  // measure 69
0100
0001
0000
0010
0000
0101
0000
0010
,  // measure 70
1000
0010
0000
1000
0000
1010
0000
0001
,  // measure 71
1000
0001
0000
1000
0000
1001
0000
1000
,  // measure 72
0100
0010
0001
0010
0100
1000
0001
1000
,  // measure 73
0010
1000
0010
0100
0010
0000
0100
0001
,  // measure 74
0100
0001
1000
0010
1000
0000
0010
1000
,  // measure 75
0001
0000
0100
0001
0100
0000
0001
0000
0100
0000
0000
0000
0010
0000
0001
0000
,  // measure 76
0100
0010
0100
1000
0100
0010
0220
0000
,  // measure 77
0330
0000
0000
0000
;

//---------------dance-single - ----------------
#NOTES:
     dance-single:
     :
     Medium:
     7:
     0.385,0.397,0.209,0.188,0.024:
0000
0000
0000
0000
,
0000
0000
0000
0000
,
0000
0000
0000
0000
,
0000
0000
0000
0000
,
0001
0000
0001
0100
0000
0010
0100
0010
,
1000
0000
1000
0010
0000
1000
0100
0010
,
0001
0000
1000
0010
0000
0100
0010
0100
,
0010
0000
0010
0100
0000
0010
0100
0010
,
1000
0000
0000
1000
0000
0000
1000
0000
0000
0000
0000
0000
0000
0000
0000
0000
,
0010
0000
0000
0010
0000
0000
0010
0000
0000
0000
0000
0000
0000
0000
0000
0000
,
1000
0000
0000
1000
0000
0000
1000
0000
0000
0000
0000
0000
0000
0000
0000
0000
,
0001
0000
0000
0001
0000
0000
0001
0000
0000
0000
0010
0000
0100
0000
0010
0000
,
1000
0010
0000
1000
0000
1010
0000
0001
,
1000
0001
0000
1000
0000
1001
0000
0001
,
0010
0100
0000
0100
0000
1010
0000
1000
,
0010
1000
0010
0001
0010
1000
0010
0000
,
0100
0010
0100
0010
0000
0000
0000
1000
,
0010
0001
0010
1000
0000
0000
0000
0010
,
0100
0010
0001
0010
0000
0000
0000
0001
,
0001
0010
0010
0100
0100
1000
1000
0000
,
1010
0000
0000
0010
0000
0100
0000
0000
,
0110
0000
0000
0100
0000
0010
0000
0000
,
0101
0000
0000
0001
0000
0100
0000
0000
,
0100
0000
0000
0010
0000
0000
0100
0000
0010
0000
0000
0000
0100
0000
0000
0000
,
0101
0000
0000
0100
0000
0010
0000
0000
,
0110
0000
0000
0010
0000
0100
0000
0000
,
1010
0000
0000
1000
0000
0010
0000
0000
,
0010
0000
0000
0100
0000
0000
0010
0000
0100
0000
0000
0000
0010
0000
0000
0000
,
2000
0000
0000
0010
3010
0100
0010
0001
,
0000
0000
0000
0100
0001
0100
1000
0100
,
0000
0000
0000
0001
1000
0010
1000
0002
,
0003
1000
1000
0002
0003
0010
0010
0000
,
0010
0010
0100
0100
,
0010
1000
0001
1000
,
0100
1000
0010
0001
,
0200
0001
0010
0301
,
1001
0001
0100
0001
,
1000
0010
0100
0010
,
1000
0010
0100
0010
,
0001
0010
0001
0100
,
0002
0000
0000
0100
0103
0010
0100
1000
,
0000
0000
0000
0010
1000
0010
0001
0010
,
0000
0000
0000
0000
1000
0010
0000
0000
0100
0000
0000
0000
1010
0000
0000
0000
,
2002
0000
0000
0000
3003
0100
0010
0100
,
0001
0100
0000
0001
0000
0101
0000
1000
,
0001
1000
0000
0001
0000
1001
0000
1000
,
0100
0010
0000
0010
0000
0101
0000
0001
,
0100
0001
0100
1000
0100
0001
0100
0000
,
0010
0100
0010
0100
0000
0000
0000
0001
,
0100
1000
0100
0001
0000
0000
0000
0100
,
0010
0100
1000
0100
0000
0000
0000
1000
,
1000
0100
0100
0010
0010
0001
0001
0000
,
0202
0000
0303
0000
,
2020
0000
3030
0000
,
2002
0000
3003
0000
,
2000
0000
3002
0000
,
0203
0000
0300
0000
,
0220
0000
0330
0000
,
2002
0000
3003
0000
,
0202
0303
2020
3030
,
2002
0000
3003
0001
1000
0001
1000
0010
,
0000
0000
0000
1000
0100
0010
0001
0100
,
0001
0101
0010
1010
,
0100
0010
1000
0000
0010
0100
0001
0000
,
0001
0000
1000
0010
0100
0010
1000
0100
,
1000
0000
0010
1000
0010
0100
0001
0100
,
0001
0000
0100
0010
1000
0010
1000
0001
,
0100
0000
0001
0000
0001
1000
0010
1000
,
0001
0100
0000
0110
0000
1001
0000
0010
,
0100
0010
0000
1010
0000
0101
0000
0001
,
0010
0100
0000
0010
0000
0110
0000
1000
,
0100
0010
0001
0010
0100
1000
0001
1000
,
0001
1000
0010
0000
0100
0000
0010
0000
,
1000
0010
1000
0000
0010
0000
0100
0000
,
0001
0100
0010
0000
0100
0000
0001
0000
,
0001
0010
0100
1000
0010
0100
0002
0000
,
0003
0000
0000
0000
;

//---------------dance-single - ----------------
#NOTES:
     dance-single:
     :
     Easy:
     4:
     0.255,0.344,0.188,0.160,0.000:
0000
0000
0000
0000
,
0000
0000
0000
0000
,
0000
0000
0000
0000
,
0000
0000
0000
0000
,
0000
0001
0100
0001
,
0000
1000
0010
1000
,
0000
0010
0010
0100
,
0000
0100
0010
1000
,
0001
0000
0000
0101
0000
0000
0000
0000
,
1000
0000
0000
1001
0000
0000
0000
0000
,
0010
0000
0000
0110
0000
0000
0000
0000
,
0100
0000
0000
1001
0000
0000
0000
0000
,
1000
0001
1000
0001
,
0001
1000
0001
1000
,
0010
0100
0010
0100
,
0010
0001
0100
1000
,
0000
0010
1000
0010
,
0000
0100
0001
0100
,
0000
0010
0100
1000
,
0000
0001
0001
0100
,
0000
0010
1000
0010
,
0100
0001
1000
0001
,
1001
0000
1000
0000
,
0010
1000
1010
0000
,
0000
0100
0001
0100
,
0010
1000
0001
1000
,
1001
0000
0001
0000
,
0100
0001
0101
0000
,
2002
0000
3003
0000
,
0010
0000
1000
0000
,
0010
0000
0100
0000
,
0001
0000
0100
0000
,
0010
1000
0010
1000
,
0001
0100
0001
0100
,
0010
0100
0010
0100
,
2002
3003
0220
0330
,
0000
0100
0010
0001
,
0001
0010
0100
1010
,
0000
1000
0001
0100
,
0001
1000
0010
1001
,
0000
1000
0001
0100
,
0001
0100
0010
0110
,
0000
0010
0100
0001
,
0000
1001
0000
0000
,
0001
1000
0001
1000
,
1000
0001
1000
0001
,
0100
0010
0100
0010
,
0100
1000
0010
0001
,
0000
0100
0001
0100
,
0000
0010
1000
0010
,
0000
0100
0010
0001
,
0000
1000
1000
0010
,
2000
0000
3000
0000
,
0002
0000
0003
0000
,
0200
0000
0300
0000
,
0002
0000
2003
0000
,
3020
0000
0030
0000
,
0220
0000
0330
0000
,
2002
0000
3003
0000
,
0110
0000
0010
0000
,
2002
0000
3003
0000
,
1000
0000
1000
0000
,
0010
0100
0010
1000
,
0001
1000
0010
0100
,
0001
0100
0010
1000
,
0001
1000
0010
0100
,
0001
1000
0010
1000
,
2002
3003
0220
0330
,
1000
0000
0000
1010
0000
1001
0000
0000
,
0001
0000
0000
0101
0000
1001
0000
0000
,
1000
0000
0000
1010
0000
0110
0000
0000
,
0010
0100
0010
1000
,
0001
0100
0001
0000
,
1000
0100
1000
0000
,
0010
0100
1000
0000
,
1000
0100
0010
0002
,
0003
0000
0000
0000
;

//---------------dance-single - ----------------
#NOTES:
     dance-single:
     :
     Beginner:
     2:
     0.203,0.291,0.070,0.139,0.000:
0000
0000
0000
0000
,
0000
0000
0000
0000
,
0000
0000
0000
0000
,
0000
0000
0000
0000
,
0000
1000
0000
0001
,
0000
1000
0000
0001
,
0000
0100
0000
0001
,
0000
0100
0000
0001
,
0000
0100
0000
1000
,
0000
0100
0000
1000
,
0000
0010
0000
1000
,
2000
0000
3000
0000
,
0000
1000
1000
1000
,
0000
0001
0001
0001
,
0000
1000
1000
1000
,
0000
0010
0010
0010
,
0000
0100
0100
0100
,
0000
0001
0001
0001
,
0000
1000
1000
1000
,
0000
0001
0001
0001
,
0000
0001
0000
0100
,
0000
0010
0000
0100
,
0000
0010
0000
1000
,
0000
0001
0000
1000
,
0000
0001
0000
1000
,
0000
1001
0000
0110
,
0000
0001
0000
0100
,
0000
0010
0000
1000
,
2000
0000
3000
0000
,
1000
0000
0010
0000
,
1000
0000
0001
0000
,
0001
0000
1000
0000
,
0010
0010
0010
0000
,
1000
1000
1000
0000
,
0001
0001
0001
0000
,
2002
3003
0220
0330
,
0000
0100
0010
0100
,
0000
0001
1000
0001
,
0000
1000
0010
1000
,
0000
0100
0010
0100
,
0000
0001
0010
0001
,
0000
1000
0001
1000
,
0000
0010
1000
0010
,
0000
0220
0330
0000
,
0000
0001
0001
0001
,
0000
1000
1000
1000
,
0000
0001
0001
0001
,
0000
0100
0100
0100
,
0000
0010
0010
0010
,
0000
1000
1000
1000
,
0000
0001
0001
0001
,
0000
1000
1000
1000
,
2000
0000
3000
0000
,
0020
0000
0030
0000
,
2000
0000
3000
0000
,
0002
0000
0003
0000
,
2002
0000
3003
0000
,
0020
0000
0030
0000
,
0200
0000
0300
0000
,
0110
0000
1001
0000
,
0220
0000
0330
0000
,
0000
0010
0100
0010
,
0000
0001
1000
0001
,
0000
1000
0010
1000
,
0000
0010
0100
0010
,
0000
0100
0001
0100
,
0000
0010
1000
0010
,
0000
1000
0001
1000
,
0000
0001
0100
0001
,
0000
0010
1000
0010
,
0000
1000
0100
1000
,
0000
0001
1000
0001
,
0000
0100
0010
0100
,
0000
0010
0100
0010
,
0000
0001
1000
0001
,
0000
1000
0001
2002
,
3003
0000
0000
0000
;
