#TITLE:Physical;
#SUBTITLE:;
#ARTIST:Dua Lipa;
#TITLETRANSLIT:;
#SUBTITLETRANSLIT:;
#ARTISTTRANSLIT:;
#CREDIT:;
#BANNER:Physical.png;
#BACKGROUND:Physical-bg.png;
#LYRICSPATH:;
#CDTITLE:;
#MUSIC:Physical.mp3;
#OFFSET:-0.320;
#SAMPLESTART:39.478;
#SAMPLELENGTH:15.000;
#SELECTABLE:YES;
#BPMS:0.000=147.000;
#STOPS:;
#BGCHANGES:;

//---------------dance-single - ----------------
#NOTES:
     dance-single:
     :
     Easy:
     5:
     0.270,0.323,0.169,0.107,0.000:
0000
0000
0000
0000
,
0000
0000
0000
0000
,
0000
0000
0000
0000
,
0000
0000
0000
0000
,
0001
0000
0000
0000
,
0000
0000
0000
0000
,
1000
0000
0000
0000
,
0000
0000
0000
0000
,
1000
0010
1000
0000
,
0010
0100
0010
0000
,
0001
1000
0001
0000
,
0100
0001
1000
0000
,
0010
0100
0010
0000
,
0001
1000
0001
0000
,
1000
0001
1000
0000
,
0100
1000
0010
0000
,
0100
0001
0010
0000
,
1000
0100
0010
0000
,
0001
0010
0100
0000
,
0010
0001
1000
0000
,
1000
0001
1000
0000
,
0001
0100
0010
0000
,
1000
0001
0100
0000
,
1000
0100
0010
0000
,
0010
0100
0010
1000
,
0001
1000
0001
1001
,
1000
2020
3030
0000
,
0010
0001
0100
0000
,
0100
0010
1000
0000
,
0001
0000
0010
0000
0100
0000
0001
1000
,
0000
0000
0100
0000
0010
0000
0100
0010
,
0000
0000
1000
0000
0001
0000
1000
0001
,
0000
0001
0010
0100
,
1000
1010
0001
0101
,
0010
0220
0330
0000
,
1000
0010
0100
0000
,
0001
1000
0010
0000
,
0100
0000
0001
0000
1000
0000
0010
1000
,
0000
0000
0010
0000
0001
0000
1000
0010
,
0000
0000
0100
0000
0010
0000
0010
0200
,
0000
0000
0000
0300
,
0100
0110
0010
1001
,
0000
0001
0000
0001
,
0000
1000
0000
1000
,
0000
0010
0000
0100
,
0000
0001
0000
0010
,
0000
0100
0000
1000
,
0000
0000
0001
0000
0000
0000
2000
0002
,
0000
0000
0000
3003
,
0001
0101
1000
1010
,
0001
0202
0303
0000
,
0100
1000
0010
0000
,
0010
0100
0001
0000
,
1000
0000
0100
0000
0010
0000
1000
0001
,
0000
0000
0010
0000
0100
0000
0010
0100
,
0000
0000
0001
0000
1000
0000
0001
2000
,
0000
0000
0000
3000
,
0001
0101
1000
1010
,
1000
1000
0010
0000
,
0001
0101
0010
1010
,
0100
0001
0100
0000
,
0010
1000
0001
0011
,
1000
0100
1000
0000
,
0100
0110
0010
0110
,
0010
1000
0001
0000
,
0010
0110
0100
2002
,
3003
0000
0000
0000
;

//---------------dance-single - ----------------
#NOTES:
     dance-single:
     :
     Beginner:
     3:
     0.197,0.264,0.053,0.027,0.000:
0000
0000
0000
0000
,
0000
0000
0000
0000
,
0000
0000
0000
0000
,
0000
0000
0000
0000
,
0000
0000
0000
0000
,
0000
0000
0000
0000
,
0000
0000
0000
0000
,
0000
0000
0000
1001
,
0000
0100
0000
0100
,
0000
1000
0000
1000
,
0000
0010
0000
0010
,
0000
0001
0000
0001
,
0000
0100
0000
0100
,
0000
0001
0000
0001
,
0000
1000
0000
1000
,
0000
0010
0000
0010
,
0000
1000
0000
0010
,
0000
0100
0000
0010
,
0000
1000
0000
0001
,
0000
0100
0000
0001
,
0000
0100
0000
0010
,
0000
0100
0000
0001
,
0000
1000
0000
0010
,
0000
0100
0000
0000
,
1000
1000
1000
1000
,
0001
0001
0001
0001
,
0000
1000
0000
0001
,
0000
0100
0000
0001
,
0000
0100
0000
0010
,
0000
0100
0000
0010
,
0000
1000
0000
0010
,
0000
1000
0000
0010
,
0000
1000
0000
0010
,
0100
0010
0100
0110
,
0000
0010
0100
0010
,
0000
0001
0001
0001
,
0000
1000
0001
1000
,
0000
1000
1000
1000
,
0000
1000
0100
1000
,
0000
0100
0100
0100
,
0000
0010
0000
0001
,
1000
0001
1000
1001
,
0000
0100
0100
0001
,
0000
1000
0010
0010
,
0000
1000
0001
0001
,
0000
0001
1000
0001
,
0000
1000
1000
0010
,
0000
0100
0100
0200
,
0000
0000
0000
0300
,
0010
0100
0010
0110
,
0000
0001
0000
1000
,
0000
0010
0000
1000
,
0000
0010
0000
0100
,
0000
0010
0000
0100
,
0000
0001
0000
0100
,
0000
0001
0000
0100
,
0000
0001
0000
0100
,
0010
0100
0010
0110
,
0000
0100
0010
0100
,
0000
1000
1000
1000
,
0000
0001
1000
0001
,
0000
0001
0001
0001
,
0000
0001
0010
0001
,
0000
0010
0010
0010
,
0000
0100
0000
1000
,
0001
1000
0001
2002
,
3003
0000
0000
0000
;

//---------------dance-single - ----------------
#NOTES:
     dance-single:
     :
     Medium:
     7:
     0.359,0.411,0.160,0.045,0.000:
0000
0000
0000
0000
,
0000
0000
0000
0000
,
0000
0000
0000
0000
,
0000
0000
0000
0000
,
0000
0000
0000
0000
,
0000
0000
0000
0000
,
0000
0000
0000
0000
,
0000
0000
0000
1001
,
0100
0000
0010
0000
0100
0010
0010
0000
,
0010
0000
1000
0000
0010
1000
0001
0000
,
0100
0000
0001
0000
0001
0010
0100
0000
,
1000
0000
0010
0000
1000
0001
0100
0000
,
0001
0000
0001
0000
0001
1000
0010
0000
,
1000
0000
1000
0000
0010
0100
0010
0000
,
1000
0000
0010
0000
1000
0100
0010
0000
,
1000
0000
0100
0000
0010
0001
0001
0000
,
0010
0000
0100
0000
0010
0100
0100
0000
,
0100
0000
0001
0000
0100
0001
1000
0000
,
0010
0000
1000
0000
1000
0100
0010
0000
,
0001
0000
0100
0000
0001
1000
0010
0000
,
1000
0000
1000
0000
1000
0001
0100
0000
,
0001
0000
0001
0000
0100
0010
0100
0000
,
0001
0000
0100
0000
0001
0010
0100
0000
,
0001
0000
0010
0000
0100
1000
1000
0000
,
1000
1000
0100
0100
,
0001
0001
0010
0010
,
0100
0000
0010
0000
0110
0010
0100
0000
,
0001
1000
0010
0000
0100
0010
1000
0000
,
1000
0000
0100
0000
0010
1000
0010
0000
,
0100
0001
1000
0000
0010
0100
0010
0000
,
0100
0000
0001
0000
1000
0000
0010
1000
,
0100
0000
0010
0000
0100
0000
0010
0100
,
0010
0100
0001
1000
,
0010
1010
0100
0101
,
0010
0000
0010
0000
1001
1000
0001
0000
,
0100
0010
0100
0000
1000
0100
0010
0000
,
1000
0000
0010
0000
0100
0010
0100
0000
,
0001
0100
0010
0000
1000
0010
0100
0000
,
0001
0000
1000
0000
0001
0000
0100
0010
,
0001
0000
0010
0000
0100
0000
1000
0020
,
0000
0000
0000
0000
0000
0000
0000
0030
,
1000
1010
0100
0101
,
0001
0100
0000
0001
,
1000
0010
0000
0100
,
0010
0100
0000
0001
,
1000
0100
0000
1000
,
0001
1000
0000
0100
,
0010
0000
0100
0000
0000
0000
0010
0020
,
0000
0000
0000
0030
,
0100
0110
0010
1001
,
0100
0000
0100
0000
1001
0001
1000
0000
,
0010
0100
0010
0000
0001
0010
0100
0000
,
0001
0000
0100
0000
0010
0100
0010
0000
,
1000
0010
0100
0000
0001
0100
0010
0000
,
1000
0000
0001
0000
1000
0000
0010
0100
,
1000
0000
0100
0000
0010
0000
0001
0200
,
0000
0000
0000
0000
0000
0000
0000
0300
,
0001
0101
0010
1010
,
1000
0010
0100
0010
,
0100
0110
0010
0110
,
0001
1000
0001
0100
,
0001
1000
0010
1010
,
1000
0001
0100
0001
,
1000
1010
0001
0011
,
0001
0100
0001
1000
,
0010
1000
0010
1000
0001
0100
0202
0300
,
0003
0000
0000
0000
;

//---------------dance-single - ----------------
#NOTES:
     dance-single:
     :
     Hard:
     11:
     0.431,0.531,0.151,0.089,0.000: // measure 1
0000
0000
0000
0000
,  // measure 2
0000
0000
0000
0000
,  // measure 3
0000
0000
0000
0000
,  // measure 4
0000
0000
0000
0000
,  // measure 5
0000
0000
0000
0000
,  // measure 6
0000
0000
0000
0000
,  // measure 7
0000
0000
0000
0000
,  // measure 8
0000
0000
0000
1001
,  // measure 9
0001
0100
0001
0000
0010
1000
0100
0000
,  // measure 10
0010
0000
1010
0000
0100
0010
0010
0000
,  // measure 11
0010
1000
0010
0100
0010
1000
0010
0000
,  // measure 12
0100
0010
1000
0000
0001
0100
0010
0100
,  // measure 13
0000
0000
0100
0000
0001
1000
1000
0000
,  // measure 14
0001
0000
0010
0000
0100
1000
0010
1000
,  // measure 15
0000
0000
0100
0000
0010
0100
0010
0000
,  // measure 16
0100
0000
0010
0000
1000
0001
0010
0000
,  // measure 17
1000
0010
1000
0000
0100
0001
0010
0000
,  // measure 18
0100
0000
0101
0000
0010
0100
0100
0000
,  // measure 19
0100
0001
0100
0010
0100
0001
0100
0000
,  // measure 20
0010
0100
0001
0000
1000
0010
0100
0010
,  // measure 21
0000
0000
0010
0000
1000
0001
0001
0000
,  // measure 22
1000
0000
0100
0000
0010
0001
0100
0001
,  // measure 23
0000
0000
0010
0000
0100
0010
0100
0000
,  // measure 24
0010
0000
0100
0000
0001
1000
0100
0000
,  // measure 25
1000
0001
1000
0001
1000
0020
0000
0130
,  // measure 26
0010
0100
0010
0100
0010
2000
0000
3000
,  // measure 27
1001
0000
2000
0000
3010
0000
0000
1000
,  // measure 28
0100
0010
0001
0100
0000
0010
0101
0000
,  // measure 29
0001
0100
0001
1000
0010
0000
1000
0010
,  // measure 30
0100
0010
0100
0010
0000
0100
0110
0010
,  // measure 31
0100
0000
1000
0000
0010
0000
0100
0010
,  // measure 32
0100
0000
1000
0000
0001
0000
0100
0001
,  // measure 33
1000
0001
0100
0001
,  // measure 34
0010
0000
0011
0000
0001
1000
0001
0000
,  // measure 35
0010
0000
0200
0000
0310
0000
0000
0001
,  // measure 36
0100
1000
0100
0001
0000
0100
1001
0000
,  // measure 37
1000
0010
0100
0010
0001
0100
1000
0100
,  // measure 38
0001
1000
0010
1001
0000
0010
1010
1000
,  // measure 39
0010
0000
1000
0000
0001
0000
0100
0001
,  // measure 40
0100
0000
0010
0000
0100
0000
0010
2000
,  // measure 41
0010
0001
0010
3001
,  // measure 42
1000
0000
1010
0000
1000
0100
0010
0000
,  // measure 43
1000
0000
1000
0000
0010
0010
0100
0000
,  // measure 44
0001
0000
0010
0000
0010
0100
0010
0000
,  // measure 45
0100
0000
0001
0000
1000
0001
1000
0000
,  // measure 46
0001
0000
0001
0000
0001
0100
0010
0000
,  // measure 47
0100
0000
0010
0000
0100
0010
0100
0000
,  // measure 48
1000
0000
0100
0000
0010
0001
1000
0002
,  // measure 49
0000
0000
0000
0003
,  // measure 50
0010
0000
0101
0000
0001
1000
0010
0000
,  // measure 51
0100
0000
0020
0000
0130
0000
0000
1000
,  // measure 52
0010
0001
0010
1000
0000
0010
1001
0000
,  // measure 53
0001
0100
0010
0100
1000
0010
0001
0010
,  // measure 54
1000
0001
0100
1001
0000
0100
0101
0001
,  // measure 55
0100
0000
0001
0000
1000
0000
0010
1000
,  // measure 56
0010
0000
0100
0000
0010
0000
0100
0002
,  // measure 57
0100
1000
0100
1003
,  // measure 58
0001
0000
0101
0000
0001
0010
0100
0000
,  // measure 59
0001
0000
1000
0000
0010
1000
1000
0000
,  // measure 60
0001
0000
0100
0000
0010
0100
0001
0000
,  // measure 61
0100
0000
0010
0000
1000
0001
0100
0000
,  // measure 62
0010
0000
0001
0000
1000
0010
1000
0000
,  // measure 63
0010
0000
0100
0000
0001
0100
0010
0000
,  // measure 64
0100
0000
0010
0000
0001
0010
0100
0000
,  // measure 65
0001
0000
1000
0000
0001
1000
0001
0000
,  // measure 66
1000
0001
1000
0001
1000
0010
0100
2002
,  // measure 67
0000
3003
0000
0000
;
