#TITLE:Permission to Dance;
#SUBTITLE:;
#ARTIST:BTS;
#TITLETRANSLIT:;
#SUBTITLETRANSLIT:;
#ARTISTTRANSLIT:;
#CREDIT:;
#BANNER:Permission to Dance.png;
#BACKGROUND:Permission to Dance-bg.png;
#LYRICSPATH:;
#CDTITLE:;
#MUSIC:Permission to Dance.mp3;
#OFFSET:-0.140;
#SAMPLESTART:32.980;
#SAMPLELENGTH:15.000;
#SELECTABLE:YES;
#BPMS:0.000=125.000;
#STOPS:;
#BGCHANGES:-0.440=Permission to Dance.avi=1.000=0=0=0,
99999=-nosongbg-=1.000=0=0=0 // don't automatically add -songbackground-
;

//---------------dance-single - ----------------
#NOTES:
     dance-single:
     :
     Easy:
     4:
     0.193,0.296,0.068,0.020,0.000:
0000
0000
0000
0000
,
0000
0000
0000
0000
,
0000
0000
0000
0000
,
0000
0000
0000
0000
,
0000
0000
0000
0000
,
0010
0000
0000
0010
0100
0000
0000
0000
,
0010
0000
0000
1000
0001
0000
0000
0000
,
0100
0000
0000
0001
1000
0000
0000
0000
,
0001
0100
0010
0100
,
0002
0100
0000
0103
,
0000
0010
0000
1000
,
0000
0010
0000
1000
,
0000
0001
0000
1000
,
0000
0010
0000
0100
,
0000
0010
0000
0100
,
0000
0001
0000
1000
,
1001
0110
1001
1000
,
0010
1010
0000
0001
,
0010
0100
0000
0010
,
0100
0010
0000
1000
,
0010
0100
0000
1000
,
0001
1000
0000
0010
,
0100
0010
0000
1000
,
0001
1000
0000
0010
,
0010
0010
0000
0100
,
0001
0010
0000
0100
,
0000
0001
0000
1000
,
0000
0010
0000
1000
,
0000
0001
0000
0100
,
0101
0000
0000
0001
0001
0000
0000
0001
,
0001
0000
0000
1000
1000
0000
0000
1000
,
1000
0000
0000
0010
0010
0000
0000
0000
,
0100
0010
0100
0010
,
0110
0010
0010
0010
,
0000
1000
0001
1000
,
0000
0001
0100
1000
,
0000
1000
0100
0010
,
0000
0100
0010
0001
,
0000
0001
1000
0001
,
0000
1000
0010
1000
,
0000
0001
0100
0001
,
2002
0000
0000
0000
,
3003
0000
0000
0000
,
0100
0000
0000
0000
,
0010
0000
0000
0000
,
1000
0000
0000
0000
,
0001
0000
0000
0000
,
0100
0000
0000
0000
,
0010
0100
0010
0000
,
0000
0101
0000
1000
,
0100
0010
0000
0100
,
0010
0100
0000
0001
,
0100
0010
0000
0001
,
1000
0001
0000
0100
,
0010
0100
0000
0001
,
1000
0001
0000
0100
,
0100
0100
0000
0010
,
1000
0100
0000
0010
,
0000
1000
0000
0001
,
0000
0100
0000
0001
,
0000
1000
0000
0010
,
1010
0000
0000
1000
1000
0000
0000
1000
,
1000
0000
0000
0001
0001
0000
0000
0001
,
0001
0000
0000
0100
0100
0000
0000
0000
,
0010
0100
0010
0100
,
0110
0100
0100
0100
,
0000
0001
1000
0001
,
0000
1000
0010
0001
,
0000
0001
0010
0100
,
0000
0010
0100
1000
,
0000
1000
0001
1000
,
0000
0001
0100
0001
,
0000
1000
0010
1000
;

//---------------dance-single - ----------------
#NOTES:
     dance-single:
     :
     Beginner:
     2:
     0.151,0.172,0.047,0.041,0.000:
0000
0000
0000
0000
,
0000
0000
0000
0000
,
0000
0000
0000
0000
,
0000
0000
0000
0000
,
0000
0000
0000
0000
,
1001
0000
0000
0000
,
0010
0000
0000
0000
,
0100
0000
0000
0000
,
0001
0000
0000
0000
,
2000
0000
0000
3000
,
0000
0010
0000
0100
,
0000
0001
0000
1000
,
0000
0010
0000
1000
,
0000
0001
0000
0100
,
0000
0001
0000
0100
,
0000
0010
0000
0010
,
0010
0010
0010
0010
,
0000
0110
0000
1000
,
0000
0010
0000
1000
,
0000
0001
0000
0100
,
0000
0001
0000
1000
,
0000
0010
0000
0100
,
0000
0010
0000
1000
,
0000
1000
0000
0001
,
0000
0001
0000
1000
,
2002
0000
0000
3003
,
0000
0100
0000
0010
,
0000
1000
0000
0001
,
0000
0100
0000
0010
,
0110
0000
0010
0000
,
0100
0000
0010
0000
,
1000
0000
0001
0000
,
0000
1000
1000
1000
,
0000
0001
1000
0001
,
0000
0100
0010
0100
,
0000
0010
1000
0010
,
0000
0100
0001
0100
,
0000
1000
0001
1000
,
0000
0001
0100
0001
,
0000
0010
0001
0010
,
0000
0100
1000
0100
,
2000
0000
0000
3000
,
1000
0000
0000
0000
,
0010
0000
0000
0000
,
0100
0000
0000
0000
,
0001
0000
0000
0000
,
1000
0000
0000
0000
,
1000
0000
0000
0000
,
0001
0001
0001
0000
,
0000
0110
0000
0001
,
0000
0100
0000
0001
,
0000
1000
0000
0010
,
0000
1000
0000
0001
,
0000
0100
0000
0010
,
0000
0100
0000
0001
,
0000
0001
0000
1000
,
0000
1000
0000
0001
,
2002
0000
0000
3003
,
0000
0010
0000
0100
,
0000
0001
0000
1000
,
0000
0010
0000
0100
,
0110
0000
0100
0000
,
0010
0000
0100
0000
,
0001
0000
1000
0000
,
0000
0001
0001
0001
,
0000
1000
0001
1000
,
0000
0010
0100
0010
,
0000
0100
0001
0100
,
0000
0010
1000
0010
,
0000
0001
1000
0001
,
0000
1000
0010
1000
,
0000
0100
1000
0100
,
0000
0010
0010
0010
;

//---------------dance-single - ----------------
#NOTES:
     dance-single:
     :
     Medium:
     8:
     0.264,0.321,0.047,0.007,0.003:
0000
0000
0000
0000
,
0000
0000
0000
0000
,
0000
0000
0000
0000
,
0000
0000
0000
0000
,
0000
0000
0000
0000
0000
0000
0000
1000
,
0001
0000
0000
0001
1000
0000
0000
1000
,
0010
0000
0000
0010
0100
0000
0000
0100
,
0010
0000
0000
0100
0010
0000
0000
1000
,
0001
0000
0000
0001
0000
1000
0100
0010
,
0001
0100
0000
0010
,
0000
1000
0000
0010
,
0000
1000
0000
0001
,
0000
0000
0000
0000
0100
0000
0000
0000
0000
0000
0010
0000
0000
0100
0000
0000
,
0010
0010
0000
1000
,
0000
0001
0000
0100
,
0010
0000
0100
0000
,
0110
1001
0110
1000
,
0010
0000
1000
0010
1000
0000
0010
0000
,
0100
0000
0001
0100
0001
0000
0010
0000
,
0100
0000
1000
0001
1000
0000
0010
0000
,
0100
0001
1000
0010
,
1000
0000
0010
0100
0010
0000
0100
0000
,
0010
0000
0010
1000
0010
0000
1000
0000
,
0001
0000
0001
0100
0001
0000
0001
0000
,
0010
0100
1000
0010
,
1000
0010
0000
0100
,
0000
0001
0000
1000
,
0000
0010
0000
0100
,
0000
0001
0000
1000
,
0010
0000
0000
0100
0010
0000
0000
0100
,
0010
0000
0000
0010
1000
0000
0000
1000
,
0010
0000
0000
0100
0001
0000
0000
0100
,
0001
0101
0100
1010
,
1000
0010
1000
0000
0001
0100
0001
0000
,
0010
1000
0010
0000
0100
0010
0100
0000
,
1000
0100
1000
0000
0001
0010
0001
0000
,
1000
0100
0010
0001
,
0001
0100
0010
0000
1000
0100
0100
0000
,
0001
1000
0010
0000
1000
0001
0001
0000
,
0010
1000
0010
0000
0100
0010
0100
0000
,
0010
0100
0010
1000
,
0002
0000
0000
0000
,
1003
0000
0000
0000
,
0100
0000
0000
0000
,
0001
0000
0000
0000
,
1000
0000
0000
0000
,
0001
0000
0000
0000
,
1000
0000
0000
0000
,
0010
0100
0010
0000
,
0100
0000
0001
0100
0001
0000
0100
0000
,
0010
0000
1000
0010
1000
0000
0100
0000
,
0010
0000
0001
1000
0001
0000
0100
0000
,
0010
1000
0001
0100
,
0001
0000
0100
0010
0100
0000
0010
0000
,
0100
0000
0100
0001
0100
0000
0001
0000
,
1000
0000
1000
0010
1000
0000
1000
0000
,
0100
0010
0001
0100
,
0001
0100
0000
0010
,
0000
1000
0000
0001
,
0000
0100
0000
0010
,
0000
1000
0000
0001
,
0100
0000
0000
0010
0100
0000
0000
0010
,
0100
0000
0000
0100
0001
0000
0000
0001
,
0100
0000
0000
0010
1000
0000
0000
0010
,
1000
1010
0010
0101
,
0001
0100
0001
0000
1000
0010
1000
0000
,
0100
0001
0100
0000
0010
0100
0010
0000
,
0001
0010
0001
0000
1000
0100
1000
0000
,
0001
0010
0100
1000
,
1000
0010
0100
0000
0001
0010
0010
0000
,
1000
0001
0100
0000
0001
1000
1000
0000
,
0100
0001
0100
0000
0010
0100
0010
0000
,
0100
0000
0010
0000
1000
0100
0010
0001
;

//---------------dance-single - ----------------
#NOTES:
     dance-single:
     :
     Hard:
     13:
     0.401,0.422,0.115,0.108,0.112: // measure 1
0000
0000
0000
0000
,  // measure 2
0000
0000
0000
0000
,  // measure 3
0000
0000
0000
0000
,  // measure 4
0000
0000
0000
0000
,  // measure 5
0000
0000
0000
0000
0000
0000
0000
0010
,  // measure 6
0110
0000
0000
1000
1001
0000
0000
1000
,  // measure 7
1010
0000
0000
0001
0011
0000
0000
0100
,  // measure 8
0101
0000
0000
0001
1001
0000
0000
1000
,  // measure 9
1100
0000
0000
0010
0000
1000
0100
0010
,  // measure 10
0001
0000
1000
0010
1000
0010
0000
0200
,  // measure 11
0000
0301
0000
0000
0000
0001
0100
0001
,  // measure 12
0000
0100
0001
0100
0010
1000
0010
1000
,  // measure 13
0000
0000
0000
0000
0010
0000
0000
0000
0000
0000
0100
0000
0000
0010
0000
0000
,  // measure 14
0001
0000
0100
0001
0100
0001
0000
2000
,  // measure 15
0000
3010
0000
0000
0000
0010
0100
0010
,  // measure 16
0000
1000
0010
0000
0001
0010
0100
1000
,  // measure 17
1010
0000
0000
0000
0101
0000
0000
0000
1001
0000
0001
1000
0001
0000
0100
0000
,  // measure 18
0001
1000
0010
1000
0001
0000
0100
0010
,  // measure 19
0000
0100
0010
0100
0010
1000
0001
0100
,  // measure 20
0000
0100
0010
1000
0010
0100
0001
0002
,  // measure 21
0000
0003
0001
0000
0000
0001
1000
0001
,  // measure 22
1000
0010
0100
0010
1000
0010
0001
0010
,  // measure 23
0000
0010
0001
1000
0100
0001
0100
1000
,  // measure 24
0000
0000
1000
0000
0100
0000
0010
0000
0001
0000
0000
0100
0000
0000
0001
0000
,  // measure 25
0000
0000
1000
0000
0000
0010
0100
0010
,  // measure 26
0100
0000
0001
1000
0010
1000
0001
0002
,  // measure 27
0000
0000
0000
0103
0000
0000
0010
0010
,  // measure 28
0000
1000
0010
1000
0001
0100
0001
2000
,  // measure 29
0000
0000
3010
0000
0000
1000
0100
0010
,  // measure 30
0001
0000
0000
0100
0001
0000
0000
0100
,  // measure 31
0001
0000
0000
0010
1000
0000
0000
0010
,  // measure 32
1000
0000
0000
0100
0010
0000
0010
0200
,  // measure 33
0000
0310
0010
0001
0010
0100
1000
0010
,  // measure 34
1000
0000
0000
0000
1000
0000
0010
1000
0000
0010
1000
0000
0010
0000
0100
0000
,  // measure 35
0000
0000
0000
0000
0010
0000
0100
0001
0000
0100
0001
0000
0100
0000
0001
0000
,  // measure 36
0000
0000
0000
0000
0001
0000
0010
0001
0000
0001
0100
0000
0010
0000
1000
0000
,  // measure 37
0000
1000
0100
0001
0100
1000
0100
0001
,  // measure 38
0000
0000
0000
0000
0001
0000
0100
0001
0000
0100
0001
0000
0100
0000
0010
0000
,  // measure 39
0000
0000
0000
0000
0100
0000
0010
1000
0000
0010
1000
0000
0010
0000
1000
0000
,  // measure 40
0000
0000
0000
0000
1000
0000
0100
1000
0000
1000
0010
0000
0100
0000
0001
0000
,  // measure 41
0000
0000
0100
0001
0100
0000
0000
0000
0100
0000
0010
0000
0010
1000
0100
0000
,  // measure 42
2000
0000
0010
0000
,  // measure 43
3020
0000
0100
0000
,  // measure 44
0230
0000
0001
0000
,  // measure 45
0302
0000
1000
0000
,  // measure 46
1003
0000
0000
0010
0000
0010
0000
0010
,  // measure 47
1000
0000
0000
0100
0000
0100
0000
0100
,  // measure 48
0001
0100
0110
0010
,  // measure 49
1010
0000
1000
0000
1000
0010
0000
1001
,  // measure 50
0000
0010
0100
0010
1000
0000
0001
1000
,  // measure 51
0000
0001
0100
0010
0100
0000
0001
0100
,  // measure 52
0000
0010
1000
0010
1000
0100
0010
0001
,  // measure 53
0000
0000
0000
0000
0100
0000
0000
0000
1001
0000
0000
0110
0000
0000
1001
0000
,  // measure 54
0000
0100
0010
0100
0001
0000
1000
0001
,  // measure 55
0000
1000
0010
0100
0010
0000
1000
0010
,  // measure 56
0000
0000
0100
0000
0001
0000
0100
0000
0001
0000
0000
0010
0000
0000
0100
0000
,  // measure 57
1000
0000
0000
0000
0010
0000
0000
0000
1000
0000
0001
1000
0001
1000
0001
0000
,  // measure 58
1000
0000
1000
0001
0100
0001
1000
2000
,  // measure 59
0000
0000
0000
3010
0000
0000
0100
0100
,  // measure 60
0000
0001
0100
0001
1000
0010
1000
0002
,  // measure 61
0000
0000
0103
0000
0000
0001
0010
0100
,  // measure 62
1000
0000
0000
0010
1000
0000
0000
0010
,  // measure 63
1000
0000
0000
0100
0001
0000
0000
0100
,  // measure 64
0001
0000
0000
0010
0100
0000
0100
0020
,  // measure 65
0000
0130
0100
1000
0100
0010
0001
0100
,  // measure 66
0001
0000
0000
0000
0001
0000
0100
0001
0000
0100
0001
0000
0100
0000
0010
0000
,  // measure 67
0000
0000
0000
0000
0100
0000
0010
1000
0000
0010
1000
0000
0010
0000
1000
0000
,  // measure 68
0000
0000
0000
0000
1000
0000
0100
1000
0000
1000
0010
0000
0100
0000
0001
0000
,  // measure 69
0000
0001
0010
1000
0010
0001
0010
1000
,  // measure 70
0000
0000
0000
0000
1000
0000
0010
1000
0000
0010
1000
0000
0010
0000
0100
0000
,  // measure 71
0000
0000
0000
0000
0010
0000
0100
0001
0000
0100
0001
0000
0100
0000
0001
0000
,  // measure 72
0000
0000
0000
0000
0001
0000
0010
0001
0000
0001
0100
0000
0010
0000
2000
0000
,  // measure 73
0000
3100
0010
0001
1000
0001
1000
2002
,  // measure 74
0000
3000
0003
0000
0000
0000
0000
0000
;
