#TITLE:PTT (Paint the Town);
#SUBTITLE:;
#ARTIST:LOONA;
#TITLETRANSLIT:;
#SUBTITLETRANSLIT:;
#ARTISTTRANSLIT:;
#CREDIT:;
#BANNER:PTT (Paint the Town).png;
#BACKGROUND:PTT (Paint the Town)-bg.png;
#LYRICSPATH:;
#CDTITLE:;
#MUSIC:PTT (Paint the Town).mp3;
#OFFSET:0.200;
#SAMPLESTART:124.600;
#SAMPLELENGTH:15.000;
#SELECTABLE:YES;
#BPMS:0.000=124.000;
#STOPS:;
#BGCHANGES:0.200=PTT (Paint the Town).avi=1.000=0=0=0,
99999=-nosongbg-=1.000=0=0=0 // don't automatically add -songbackground-
;

//---------------dance-single - ----------------
#NOTES:
     dance-single:
     :
     Easy:
     5:
     0.223,0.252,0.138,0.083,0.000:
0000
0000
0000
0000
,
0000
0000
0000
0000
,
0000
0000
0000
0000
,
0001
1000
0001
1000
,
0001
1000
0001
1000
,
0001
1000
0001
1000
,
0001
1000
0001
1000
,
2002
0000
0000
0000
,
0000
0000
0000
3003
,
1001
0000
0000
0000
0000
0000
0000
0001
,
1000
0000
0000
0000
0000
0000
0000
1000
,
0001
0000
0000
0000
0000
0000
0000
0010
,
0100
0000
0000
0000
,
0110
0000
0000
0000
0000
0000
0000
0100
,
0010
0000
0000
0000
0000
0000
0000
1000
,
0001
0000
0000
0000
0000
0000
0000
0001
,
0100
0000
0000
0000
,
0010
0100
0010
0100
,
0110
0000
0010
0000
,
1000
0001
1000
0001
,
1001
0000
0100
0000
,
0001
0100
0010
0000
,
1000
0100
0010
0000
,
0001
0100
0001
1000
,
0010
1000
0010
0000
,
1010
0101
0000
0000
,
1001
0110
0000
0000
,
0101
1010
0000
0000
,
0011
1100
0000
0000
,
1001
0001
1000
1000
,
0010
0100
0010
0100
,
0001
0010
0001
1000
,
0001
0100
0010
0100
,
0110
0000
0010
0000
,
1000
0010
1000
0001
,
0100
0000
0001
0000
,
0001
0100
0010
0100
,
0010
0000
1000
0000
,
1000
0010
0001
0010
,
1000
0000
0010
0000
,
1000
0000
0010
1000
,
1010
0010
1000
0010
,
0100
0001
0100
0001
,
0010
0100
1000
0100
,
0010
0001
1000
0010
,
1001
0001
0100
0001
,
1000
0010
0100
0010
,
1000
0100
0010
0100
,
0001
1000
0010
0100
,
0120
0000
0000
0000
,
0230
0000
0000
0000
,
0320
0000
0000
0000
,
2030
0000
0000
0000
,
3002
0000
0000
0000
,
0203
0000
0000
0000
,
0302
0000
0000
0000
,
2003
0000
3000
0000
,
0001
0000
0100
0000
,
0001
0000
1000
0000
,
0010
0000
0100
0000
,
0010
0000
0100
0000
,
0010
0000
0000
1000
0010
0000
0000
0000
,
1000
0000
0000
1000
0001
0000
0000
0000
,
0100
0000
0000
0001
0100
0000
0000
0000
,
0010
0000
0000
0010
0100
0000
0000
0000
,
0001
0010
0100
1000
,
0001
1000
0001
1000
,
0001
1000
0100
0010
,
0001
0100
0010
0100
,
0220
0000
0330
0010
,
0010
0100
0100
0001
,
1000
0010
1000
0010
,
0001
0010
1000
0010
,
1001
0000
0000
0000
;

//---------------dance-single - ----------------
#NOTES:
     dance-single:
     :
     Beginner:
     3:
     0.166,0.252,0.118,0.083,0.000:
0000
0000
0000
0000
,
0000
0000
0000
0000
,
0000
0000
0000
0000
,
0010
0000
0000
0000
,
0100
0000
0000
0000
,
0010
0000
0000
0000
,
1000
0000
0000
0000
,
2002
0000
0000
0000
,
3003
0000
0000
0000
,
0110
0000
0000
0000
,
0010
0000
0000
0000
,
1001
0000
0000
0000
,
0100
0000
0000
0000
,
0110
0000
0000
0000
,
0010
0000
0000
0000
,
0101
0000
0000
0000
,
0100
0000
0000
0000
,
1000
1000
1000
0000
,
0100
0100
0100
0000
,
0010
0010
0010
0000
,
0001
0001
0001
0000
,
0001
0000
1000
0000
,
0001
0000
0100
0000
,
0010
0000
1000
0000
,
0001
0000
1000
0000
,
0010
0010
0000
0000
,
0100
0100
0000
0000
,
0010
0010
0000
0000
,
1000
1000
0000
0000
,
0001
0001
0001
0000
,
1000
0001
1000
0000
,
0010
0010
0010
0000
,
0100
0010
0100
0010
,
0110
0000
0010
0000
,
0100
0000
0010
0000
,
1001
0000
0100
0000
,
0001
0000
0100
0000
,
0101
0000
0010
0000
,
1000
0000
0010
0000
,
1000
0000
1000
0000
,
0001
0000
0001
0000
,
1000
0001
1000
0000
,
0010
0010
0010
0000
,
0100
0100
0100
0000
,
0010
0010
0010
0000
,
0001
0001
0001
0000
,
1000
1000
1000
0000
,
1000
1000
1000
0000
,
0010
0100
0010
0000
,
0200
0000
0300
0000
,
0020
0000
0030
0000
,
2000
0000
3000
0000
,
0002
0000
0003
0000
,
0002
0000
0003
0000
,
0020
0000
0030
0000
,
0002
0000
0003
0000
,
2000
0000
3000
0000
,
0010
0000
0100
0000
,
0010
0000
1000
0000
,
1000
0000
0001
0000
,
0001
0000
0100
0000
,
0110
0000
1001
0000
,
0110
0000
1010
0000
,
0101
0000
1001
0000
,
0110
0000
0010
0100
,
0010
0100
0010
0000
,
1000
0001
1000
0000
,
0001
0100
0001
0000
,
1000
0010
1000
0000
,
2002
0000
3003
0000
,
0001
0000
1000
0000
,
0001
0000
0100
0000
,
0001
0000
1000
0000
,
1001
0000
0000
0000
;

//---------------dance-single - ----------------
#NOTES:
     dance-single:
     :
     Medium:
     8:
     0.268,0.328,0.145,0.069,0.021:
0000
0000
0000
0000
,
0000
0000
0000
0000
,
0000
0000
0000
0000
,
1001
0000
0000
0000
,
0110
0000
0000
0000
,
1001
0000
0000
0000
,
0101
0000
0000
0000
,
1010
0000
0000
0000
,
0110
0000
0000
0000
,
1001
0000
0000
0000
0001
0000
0000
1000
,
0001
0000
0000
0000
0100
0000
0000
0010
,
0100
0000
0000
0000
0010
0000
0000
0100
,
0010
0000
1000
0000
,
1000
0001
1000
0000
0001
0000
0000
0100
,
0010
0000
0100
0000
,
0001
0010
0100
0000
0010
0000
0000
0100
,
0010
0000
0000
0000
1000
0000
0000
0001
,
1000
0000
0001
0100
0010
0100
0000
0010
,
0100
0000
1000
0010
0100
0010
0000
1000
,
0001
0000
0010
0010
0010
0000
1000
0001
,
1000
0000
0001
0100
0001
0100
0000
0000
,
0010
0000
0100
0000
,
0001
0000
1000
0000
,
0010
1000
0001
0000
1000
0010
1000
0000
,
0001
0100
0001
0000
1001
0000
0000
0000
,
0010
0010
1000
0010
,
1000
1000
0001
1000
,
0100
0100
1000
0001
,
0010
0010
0100
0001
,
1000
0001
0100
0001
,
1000
0010
0001
0010
,
1000
0100
0010
0001
1000
0001
2000
0000
,
0000
0000
3000
1000
,
0001
0000
0000
0000
0000
0000
0010
0000
0000
1000
0010
1000
,
0010
0000
0001
0100
,
0010
0000
0000
0000
0000
0000
0001
0000
0000
0100
0001
0100
,
0001
0000
0010
1000
,
0010
0000
0000
0000
0000
0000
0100
0000
0000
0010
0100
0010
,
0100
0000
0010
1000
,
0001
0100
0001
0000
0010
0100
1000
0000
,
1000
0100
0010
0000
0100
0000
0010
0000
,
0110
0010
0010
0010
,
1010
1000
1000
1000
,
1001
0001
0001
0001
,
0101
0100
0100
0100
,
0110
0010
0010
0010
,
0011
0001
0001
0001
,
1001
1000
1000
1000
,
1100
0100
0100
0100
,
0200
0000
0010
0000
,
0320
0000
0100
0000
,
0230
0000
0001
0000
,
0302
0000
1000
0000
,
2003
0000
0001
0000
,
3002
0000
0100
0000
,
0203
0000
0010
0000
,
0320
0000
0130
0000
,
0100
0010
0100
0000
,
0001
1000
0001
0000
,
1000
0001
1000
0000
,
0001
0010
0100
0000
,
1000
0100
0010
0000
,
0001
0100
0010
0000
,
1000
0001
0100
0000
,
0001
1000
0001
1000
,
1001
0001
0001
0001
,
1001
1000
1000
1000
,
1010
0010
0010
0010
,
0110
0100
0100
0100
,
0102
0000
1003
0000
,
0001
1000
0010
1000
,
0001
1000
0010
0001
,
0010
1000
0010
0100
,
0010
0000
0000
0000
;

//---------------dance-single - ----------------
#NOTES:
     dance-single:
     :
     Hard:
     14:
     0.436,0.505,0.152,0.062,0.252: // measure 1
0000
0000
0000
0000
,  // measure 2
0000
0000
0000
0000
,  // measure 3
0000
0000
0000
0000
,  // measure 4
0001
0100
0001
0010
0001
0100
0001
0100
,  // measure 5
0010
0100
0010
1000
0010
0100
0010
0000
,  // measure 6
1000
0010
1000
0100
1000
0010
1000
0010
,  // measure 7
0100
0010
0100
0001
0200
0001
0301
0000
,  // measure 8
1000
0001
1000
0001
0100
0001
1000
0001
,  // measure 9
0100
0001
1000
0001
0200
0000
0301
0000
,  // measure 10
1001
0000
1000
0000
0010
0000
1000
0010
,  // measure 11
1000
0001
0100
0010
,  // measure 12
1001
0000
0010
0000
1000
0000
0001
0100
,  // measure 13
0001
1000
0010
0100
,  // measure 14
0110
0000
0010
0000
1000
0000
0010
1000
,  // measure 15
0100
1000
0100
0010
,  // measure 16
0101
0000
0001
0000
0010
0000
0100
1000
,  // measure 17
0010
0000
1000
0000
0001
0000
0100
0001
,  // measure 18
0100
0000
0000
0000
0010
1000
0010
0000
1000
0000
0100
0000
0000
0000
0001
0000
,  // measure 19
0010
0000
0000
0000
0001
0100
0010
0000
0100
0000
0001
0000
0000
0000
0100
0000
,  // measure 20
0100
0000
0000
0000
0010
0100
0010
0000
0100
0000
0000
0000
0001
1000
0001
0000
,  // measure 21
1000
0000
0010
0010
1000
0001
0000
0000
,  // measure 22
1000
0000
0000
0000
0100
0000
0000
0000
0010
0000
0000
0000
0001
0000
0000
0000
0000
0000
0100
0000
0000
0000
0000
0000
0000
0000
0000
0000
0000
0000
0000
0000
0000
1000
0000
0000
0001
0000
0000
0000
0000
0000
1000
0000
0000
0000
0000
0000
,  // measure 23
0001
0000
0000
0000
0010
0000
0000
0000
0100
0000
0000
0000
1000
0000
0000
0000
0000
0000
0010
0000
0000
0000
0000
0000
0000
0000
0000
0000
0000
0000
0000
0000
0000
0001
0000
0000
1000
0000
0000
0000
0000
0000
0001
0000
0000
0000
0000
0000
,  // measure 24
1000
0000
0010
0000
0100
0000
0010
0000
0000
1000
0000
0000
0001
0000
1000
0000
0100
0000
1000
0000
0000
0010
0000
0000
,  // measure 25
0100
0000
0010
0000
0100
0000
0010
0000
0000
0100
0000
0000
0010
0000
0000
0000
0000
0000
0000
0000
0000
0000
0000
0000
,  // measure 26
1010
0000
0000
0000
0101
0000
0000
0000
1000
0001
0000
1000
0001
0000
0100
0000
,  // measure 27
0101
0000
0000
0000
1010
0000
0000
0000
0010
0100
0000
0100
0010
0000
0100
0000
,  // measure 28
0110
0000
0000
0000
1001
0000
0000
0000
1000
0010
0000
0100
0001
0000
1000
0000
,  // measure 29
1010
0101
0001
0010
,  // measure 30
0001
0010
0001
0010
0001
1000
0010
1000
,  // measure 31
0010
0100
0010
0100
0010
0100
0001
0000
,  // measure 32
1000
0010
1000
0010
1000
0100
0020
0000
,  // measure 33
0000
0000
0000
0000
0000
0000
0130
0000
0100
0010
0000
0100
,  // measure 34
0010
0000
0001
1000
0000
0000
1001
0000
0000
1000
0010
1000
,  // measure 35
0001
0000
0001
0100
0000
0001
0100
0000
0000
1001
0000
0000
,  // measure 36
1000
0000
0100
0010
0000
0000
0001
0000
0000
0001
0010
0100
,  // measure 37
1000
0000
0001
1000
0000
0001
1000
0000
0000
0110
0000
0000
,  // measure 38
0010
0000
0010
0100
0000
0000
0100
0000
0000
0010
0100
0010
,  // measure 39
1000
0000
0001
0100
0000
0100
0001
0000
0000
0110
0000
0000
,  // measure 40
1000
0001
0000
0001
1000
0000
0010
0100
0000
0100
0010
0000
,  // measure 41
0100
0010
0000
0010
0100
0000
1000
0000
0000
0100
0000
0000
,  // measure 42
1001
0000
0001
0000
0100
0000
0001
0100
,  // measure 43
0010
0000
1000
0000
0010
0000
1000
0010
,  // measure 44
0100
0000
0010
0000
0100
0000
0010
1000
,  // measure 45
0010
0000
1000
0000
0010
0000
1000
0100
,  // measure 46
0001
0000
0001
0000
0001
0000
0001
0100
,  // measure 47
1000
0000
1000
0000
1000
0000
1000
0010
,  // measure 48
0100
0000
0000
0010
0000
0000
0100
0000
0010
0000
0000
0100
0000
0000
0010
0000
,  // measure 49
1000
0001
0100
1000
0100
0001
0100
1000
,  // measure 50
0100
0000
0000
0000
0100
0001
0100
0001
,  // measure 51
0100
0000
0000
0010
0100
0000
0000
0000
,  // measure 52
0000
1000
0010
0100
0010
1000
0001
0100
,  // measure 53
0010
0000
0000
0100
0010
0000
0000
0000
,  // measure 54
0200
0000
0000
0000
0000
0000
0310
0100
0010
0000
0000
0000
0000
0000
1000
0001
,  // measure 55
2000
0000
0000
0000
0000
0000
3001
1000
0001
0000
0000
0000
0000
0000
0100
0001
,  // measure 56
0200
0000
0000
0000
0000
0000
0301
0100
0001
0000
0000
0000
0100
0000
0010
0000
,  // measure 57
0100
0000
0101
0000
0001
1000
0010
0000
,  // measure 58
2002
0000
0000
0000
,  // measure 59
3003
1000
1000
0100
,  // measure 60
0100
0010
0010
0001
,  // measure 61
0001
0000
1000
0000
0001
0000
1000
0010
,  // measure 62
1000
0000
0000
0010
0000
0000
0100
0000
0010
0000
0000
0100
0000
0000
0001
0000
,  // measure 63
0100
0000
0000
0010
0000
0000
0100
0000
0001
0000
0000
0010
0000
0000
0100
0000
,  // measure 64
1000
0000
0000
1000
0000
0000
0001
0000
1000
0000
0000
0001
0000
0000
0000
0000
,  // measure 65
0010
1000
0001
1000
,  // measure 66
1001
0000
0000
0001
0000
0000
0100
0000
0000
0001
0000
0100
,  // measure 67
0001
0000
0000
1000
0000
0000
0010
0000
0000
1000
0000
0010
,  // measure 68
1000
0000
0000
0010
0000
0000
0100
0000
0000
0010
0000
0100
,  // measure 69
0010
0000
0000
0100
0000
0000
0001
0000
0100
0001
0000
1000
,  // measure 70
0020
0000
0000
0000
0000
0000
1030
0000
0000
1000
0100
0010
,  // measure 71
0001
0000
0001
1000
0000
1000
0001
0000
0000
0101
0000
0000
,  // measure 72
0001
0100
0000
0001
0100
0000
0010
0100
0000
0100
0010
0000
,  // measure 73
1000
0001
0000
0001
1000
0000
0010
0000
0000
0100
0000
0000
,  // measure 74
1001
0000
0000
0000
;
