#TITLE:PLAYING WITH FIRE;
#SUBTITLE:;
#ARTIST:BLACKPINK;
#TITLETRANSLIT:;
#SUBTITLETRANSLIT:;
#ARTISTTRANSLIT:;
#CREDIT:;
#BANNER:PLAYING WITH FIRE.png;
#BACKGROUND:PLAYING WITH FIRE-bg.png;
#LYRICSPATH:;
#CDTITLE:;
#MUSIC:PLAYING WITH FIRE.mp3;
#OFFSET:-0.260;
#SAMPLESTART:58.460;
#SAMPLELENGTH:15.000;
#SELECTABLE:YES;
#BPMS:0.000=97.000;
#STOPS:;
#BGCHANGES:-0.660=PLAYING WITH FIRE.avi=1.000=0=0=0,
99999=-nosongbg-=1.000=0=0=0 // don't automatically add -songbackground-
;

//---------------dance-single - ----------------
#NOTES:
     dance-single:
     :
     Beginner:
     1:
     0.112,0.117,0.016,0.031,0.004:
0000
0000
0000
0000
,
0000
0000
0000
0000
,
0000
0000
0000
0000
,
0000
0000
0000
0000
,
0000
1000
0000
0010
,
0000
1000
0000
0001
,
0000
0100
0000
0001
,
0000
0100
0000
0010
,
0000
0110
0000
0010
,
0000
1000
0000
0001
,
0000
0100
0000
0001
,
0000
0010
0000
0001
,
0000
0100
0000
0010
,
0000
1000
0000
0001
,
0000
0100
0000
0010
,
0000
1000
0000
0010
,
0000
1001
0000
1000
,
0000
0001
0001
0001
,
0000
1000
0000
0010
,
0000
1000
1000
1000
,
0000
0010
0000
0100
,
0000
0010
0000
1000
,
0000
0010
0010
0010
,
0000
1000
0000
1000
,
1000
0000
2000
3000
,
0000
1000
0000
0001
,
0000
0100
0000
0001
,
0000
1000
0000
0010
,
0010
0000
0020
0030
,
0000
0001
0000
1000
,
0000
0001
0000
0100
,
0000
0001
0000
1000
,
0000
0010
0000
0100
,
0000
0010
0000
1000
,
0000
0100
0000
1000
,
0000
0001
0000
0010
,
0000
0001
0000
0010
,
0000
0100
0000
1000
,
0000
0010
0000
1000
,
0000
0001
0000
0100
,
0200
0300
0000
1000
,
0000
0100
0000
1000
,
0000
0100
0000
0010
,
0000
0001
0000
0010
,
0000
0001
0000
1000
,
0000
0001
0000
0100
,
0000
0001
0000
0010
,
0000
0001
0000
1000
,
0000
0010
0000
1000
,
0000
0000
0000
0000
0010
0000
0000
0000
0000
0020
0000
0000
0000
0000
0000
0000
,
0030
0000
0000
0000
;

//---------------dance-single - ----------------
#NOTES:
     dance-single:
     :
     Easy:
     4:
     0.181,0.214,0.078,0.031,0.004:
0000
0000
0000
0000
,
0000
0000
0000
0000
,
0000
0000
0000
0000
,
0000
0000
0000
0000
,
0110
0010
1000
0010
,
0100
0001
0100
0001
,
1000
0010
0100
0001
,
1000
0100
1000
0001
,
0010
0100
0010
0000
,
1000
0001
0100
0000
,
0001
0010
0100
0000
,
0010
1000
0001
0000
,
1000
0100
0010
0000
,
0100
0010
1000
0000
,
0001
0100
0010
0000
,
0100
0010
1000
0000
,
1001
0010
0100
0000
,
0010
0100
0001
0000
,
1000
0010
0100
0000
,
0010
0100
0001
0000
,
0100
0001
1000
0000
,
0001
1000
0100
0000
,
0010
0001
1000
0000
,
0001
1000
0100
0010
,
0110
0010
1000
0001
,
0100
0001
1000
0001
,
0100
0001
1000
0001
,
0010
1000
0001
0100
,
0101
0001
1000
0010
,
0100
0001
1000
0001
,
0100
0001
1000
0010
,
0100
0100
1000
0100
,
0101
0000
0010
0000
,
0001
0000
1000
0000
,
0010
0000
0100
0000
,
0001
0000
0010
0000
,
0100
0000
1000
0000
,
0010
0000
0001
0000
,
0010
0000
0100
0000
,
0010
0000
1000
0000
,
0220
0330
0000
0010
,
0110
0100
0001
0100
,
0010
1000
0010
1000
,
0001
0100
0010
1000
,
0001
0010
0001
1000
,
0101
0001
0100
0010
,
1000
0010
0100
0001
,
1000
1000
0010
0100
,
0010
1000
0001
0100
,
1010
0000
0000
0000
0000
0000
0000
0000
0000
2020
0000
0000
0000
0000
0000
0000
,
3030
0000
0000
0000
;

//---------------dance-single - ----------------
#NOTES:
     dance-single:
     :
     Medium:
     6:
     0.264,0.291,0.062,0.155,0.012:
0000
0000
0000
0000
,
0000
0000
0000
0000
,
0000
0000
0000
0000
,
0000
0000
0000
0000
,
0001
0000
0100
0000
0001
0000
1000
0010
,
0100
0010
1000
0000
0010
0000
0001
0000
,
0100
0000
0001
0000
1000
0000
0010
0100
,
0001
0100
0010
0000
1000
0000
0010
0000
,
1000
0000
0010
0000
0010
0100
1000
0000
,
0010
0000
0100
0000
0001
0010
0100
0000
,
0001
0000
1000
0000
0010
1000
0001
0000
,
0100
0000
0001
0000
1000
0010
0100
0000
,
0100
0000
1000
0000
1000
0001
0100
0000
,
1000
0000
0001
0000
0010
1000
0001
0000
,
0010
0000
0100
0000
1000
0100
0010
0000
,
0001
0000
0010
0000
0100
1000
0001
0000
,
0001
0000
0100
0010
1000
0000
0010
0000
,
0001
0010
0001
0000
0100
0000
0010
0000
,
1000
0000
0010
1000
0001
0000
0100
0000
,
0010
1000
1000
0000
0010
0000
0100
0000
,
0001
0000
0010
0100
0001
1000
0100
0000
,
0001
0000
1000
0000
0010
0100
0001
0000
,
2000
3200
0320
0032
,
0103
0010
0100
0000
0010
0000
0100
0000
,
0101
0000
0010
0000
0001
0000
0100
0010
,
1000
0010
0100
0000
0010
0000
1000
0000
,
0010
0000
0100
0000
0010
0000
1000
0010
,
0001
0010
1000
0000
0001
0000
1000
0000
,
1010
0000
0100
0000
1000
0000
0010
0100
,
0001
0100
0010
0000
0100
0000
0001
0000
,
0100
0000
0010
0000
0100
0000
0001
0100
,
1000
0100
0001
0000
1000
0000
0001
0000
,
1001
0200
0320
2030
,
3000
0002
0203
0320
,
0030
2000
3002
2003
,
3000
0002
0023
0230
,
0300
0010
0000
1000
,
0000
0001
0000
0100
,
0000
0001
0000
0010
,
0000
0100
0000
0010
,
2002
3003
0000
1001
,
1010
0000
0100
0000
1000
0000
0010
0100
,
0001
0100
0010
0000
0100
0000
0001
0000
,
0100
0000
0010
0000
0100
0000
0001
0100
,
1000
0100
0001
0000
1000
0000
0001
0000
,
0101
0000
0010
0000
0001
0000
0100
0010
,
1000
0010
0100
0000
0010
0000
1000
0000
,
0010
0000
0100
0000
0010
0000
1000
0010
,
0001
0010
1000
0000
0001
0000
1000
0000
,
1000
0000
0010
0000
0100
0010
0100
0010
0000
0220
0000
0000
0000
0000
0000
0000
,
0330
0000
0000
0000
;

//---------------dance-single - ----------------
#NOTES:
     dance-single:
     :
     Hard:
     14:
     0.463,0.485,0.039,0.186,0.447: // measure 1
1000
0000
0010
1000
0000
1000
0010
1000
0010
0000
0000
0100
0000
0000
0000
0000
,  // measure 2
0001
0000
0100
0001
0000
0001
0100
0001
1000
0000
0000
0010
0000
0000
0000
0000
,  // measure 3
1000
0000
1000
0100
0000
0010
0001
0010
0001
0000
0000
0001
0000
0000
0000
0000
,  // measure 4
0010
0000
0001
0100
0000
0100
0001
1000
0010
0000
0000
0100
0000
0000
0010
0000
,  // measure 5
1000
0000
0010
0000
0100
0010
0100
0010
0000
1000
0000
0000
0001
0000
0100
0001
,  // measure 6
0100
0000
0010
0000
1000
0001
1000
0001
0000
0100
0001
0000
0000
0100
0000
0000
,  // measure 7
0001
0000
0100
0000
0010
0100
0010
0100
0000
0001
0000
0000
1000
0000
0010
1000
,  // measure 8
0010
0000
0100
0000
0001
1000
0001
1000
0000
0010
1000
0000
0000
0010
0000
0000
,  // measure 9
0010
0000
1000
0010
0100
0000
0010
0000
0001
0000
0100
0001
0100
0010
1000
0000
,  // measure 10
0010
0000
0100
0000
0000
0010
0000
0100
0001
0100
0001
0010
0100
1000
0010
0000
,  // measure 11
0000
0000
1000
0010
0100
0000
0010
0100
0001
0000
0100
0010
1000
0100
1000
0000
,  // measure 12
0010
0000
0000
1000
0000
0000
0001
0000
0001
0000
0000
0100
0000
0000
0010
0000
,  // measure 13
0100
0000
0001
0100
0010
1000
0001
0000
1000
0001
0100
0010
1000
0000
0100
0000
,  // measure 14
0000
1000
0001
0100
0001
0100
0001
1000
0010
1000
0001
0100
0010
0000
0100
0000
,  // measure 15
0000
0000
0001
0100
0010
0000
0100
0010
1000
0000
0010
0100
0001
0010
0001
0000
,  // measure 16
0100
0000
0000
0001
0000
0000
1000
0000
1000
0000
0000
0010
0000
0000
0100
0000
,  // measure 17
0010
0000
0100
0010
0100
0010
0001
1000
,  // measure 18
0010
0000
0001
0000
0010
0000
0000
0000
1000
0000
0010
0000
0100
0000
0010
0100
,  // measure 19
0000
0000
0001
0100
0001
1000
0010
0001
,  // measure 20
0010
0000
1000
0000
0010
0000
0000
0000
0100
0000
0001
0000
1000
0000
0001
1000
,  // measure 21
0000
0000
0000
0000
0001
0010
0100
0000
0010
0100
1000
0000
0010
0000
0000
0000
,  // measure 22
0100
0010
0100
0001
1000
0000
0001
1000
0010
1000
0001
0100
0010
0000
0000
0000
,  // measure 23
0002
0000
0023
0000
0230
0000
2300
0001
,  // measure 24
3001
0010
0100
0010
0001
0000
1000
0000
,  // measure 25
1001
0000
0100
0000
0010
0000
0100
0000
1000
0001
0000
0001
1000
0000
0010
0000
,  // measure 26
0100
0010
1000
0010
0100
0001
0100
0020
,  // measure 27
0000
0130
0000
2000
0000
3000
0000
0001
,  // measure 28
1000
0000
0010
1000
0010
0000
0000
0000
0100
0000
0000
0000
0001
0000
0000
0000
,  // measure 29
0110
0000
0001
0000
1000
0000
0001
0000
0100
0010
0000
0010
0100
0000
1000
0000
,  // measure 30
0001
1000
0100
1000
0001
0010
0001
2000
,  // measure 31
0000
3001
0000
0200
0000
0300
0000
0010
,  // measure 32
0100
0000
1000
0100
1000
0000
0000
0000
0001
0000
0000
0000
0010
0000
0000
0000
,  // measure 33
0102
0023
0230
2300
,  // measure 34
3020
2030
3002
0203
,  // measure 35
0302
0000
0023
0000
0032
0000
0103
0001
,  // measure 36
0100
0010
1000
0010
0100
0000
0010
0100
,  // measure 37
0010
0000
0000
0000
0000
0000
0000
0000
0100
0000
0000
0100
0000
0000
0010
0000
,  // measure 38
1000
0000
0000
0010
0000
0000
0001
0000
0000
0000
0100
0000
0000
0000
0000
0000
,  // measure 39
0001
0000
0000
0100
0000
0000
0001
0000
0000
0000
0000
0000
1000
0000
0010
0000
,  // measure 40
0100
0001
0100
0010
1000
0010
0100
0002
,  // measure 41
0000
0003
0000
0000
0000
0220
0000
0330
,  // measure 42
0001
0000
0100
0000
0010
0100
0010
0100
0000
0001
0000
0000
1000
0000
0010
1000
,  // measure 43
0010
0000
0100
0000
0001
1000
0001
1000
0000
0010
1000
0000
0000
0010
0000
0000
,  // measure 44
1000
0000
0010
0000
0100
0010
0100
0010
0000
1000
0000
0000
0001
0000
0100
0001
,  // measure 45
0100
0000
0010
0000
1000
0001
1000
0001
0000
0100
0001
0000
0000
0100
0000
0000
,  // measure 46
0010
0000
0100
0000
0001
0100
0001
0100
0000
0010
0000
0000
1000
0000
0001
1000
,  // measure 47
0001
0000
0100
0000
0010
1000
0010
1000
0000
0001
1000
0000
0000
0001
0000
0000
,  // measure 48
1000
0000
0001
0000
0100
0001
0100
0001
0000
1000
0000
0000
0010
0000
0100
0010
,  // measure 49
0100
0000
0001
0000
1000
0010
1000
0010
0000
0100
0010
0000
0000
0100
0000
0000
,  // measure 50
0100
0000
0010
0000
1000
0001
1000
0001
0000
2002
0000
0000
0000
0000
0000
0000
,  // measure 51
3003
0000
0000
0000
;
